osu file format v14

[General]
AudioFilename: audio.mp3
AudioLeadIn: 0
PreviewTime: 627
Countdown: 1
SampleSet: Normal
StackLeniency: 0.7
Mode: 0
LetterboxInBreaks: 0
WidescreenStoryboard: 0

[Editor]
DistanceSpacing: 1
BeatDivisor: 4
GridSize: 32
TimelineZoom: 1

[Metadata]
Title:Menu Theme
TitleUnicode:Menu Theme
Artist:Naofumi Hataya
ArtistUnicode:Naofumi Hataya
Creator:Zuga
Version:that one unknown puzzle game for the DS
Source:Feel The Magic XY/XX
Tags:Project Rub Kimi no Tame nara Shineru Nintendo DS Game Soundtrack Main Menu
BeatmapID:2187404
BeatmapSetID:1046358

[Difficulty]
HPDrainRate:6.3
CircleSize:6.3
OverallDifficulty:8.6
ApproachRate:8.6
SliderMultiplier:2.2
SliderTickRate:1

[Events]
//Background and Video events
0,0,"FeelTM_BG.jpg",0,0
//Break Periods
//Storyboard Layer 0 (Background)
//Storyboard Layer 1 (Fail)
//Storyboard Layer 2 (Pass)
//Storyboard Layer 3 (Foreground)
//Storyboard Layer 4 (Overlay)
//Storyboard Sound Samples

[TimingPoints]
627,375.046880860108,4,1,0,69,1,0
627,-76.9230769230769,4,1,0,69,0,0
11878,-714.285714285714,4,1,0,69,0,0
12628,-714.285714285714,4,1,0,69,0,0
13941,-333.333333333333,4,1,0,69,0,0
14128,-71.4285714285714,4,1,0,69,0,0
14503,-66.6666666666667,4,1,0,69,0,0
14878,-72.992700729927,4,1,0,69,0,0
15628,-714.285714285714,4,1,0,69,0,0
18629,-200,4,1,0,69,0,0
21067,-142.857142857143,4,1,0,69,0,0
21629,-200,4,1,0,69,0,0
23129,-90.9090909090909,4,1,0,69,0,0
23504,-71.4285714285714,4,1,0,69,0,0
24442,-104.166666666667,4,1,0,69,0,0
24630,-66.6666666666667,4,1,0,69,0,1
25755,-166.666666666667,4,1,0,69,0,1
26130,-66.6666666666667,4,1,0,69,0,1
27255,-166.666666666667,4,1,0,69,0,1
27630,-66.6666666666667,4,1,0,69,0,1
28005,-166.666666666667,4,1,0,69,0,1
28380,-66.6666666666667,4,1,0,69,0,1
28755,-76.9230769230769,4,1,0,69,0,1
29130,-66.6666666666667,4,1,0,69,0,1
29880,-714.285714285714,4,1,0,69,0,1
30630,-66.6666666666667,4,1,0,69,0,1
31755,-166.666666666667,4,1,0,69,0,1
32130,-66.6666666666667,4,1,0,69,0,1
33256,-166.666666666667,4,1,0,69,0,1
33631,-66.6666666666667,4,1,0,69,0,1
34006,-166.666666666667,4,1,0,69,0,1
34381,-66.6666666666667,4,1,0,69,0,1
34756,-166.666666666667,4,1,0,69,0,1
35506,-114.942528735632,4,1,0,69,0,0
35881,-714.285714285714,4,1,0,69,0,0
36631,-714.285714285714,4,1,0,69,0,0
37944,-333.333333333333,4,1,0,69,0,0
38131,-71.4285714285714,4,1,0,69,0,0
38506,-66.6666666666667,4,1,0,69,0,0
38881,-66.6666666666667,4,1,0,69,0,0
39631,-714.285714285714,4,1,0,69,0,0
42632,-200,4,1,0,69,0,0
45070,-142.857142857143,4,1,0,69,0,0
45632,-714.285714285714,4,1,0,69,0,0
47132,-142.857142857143,4,1,0,69,0,0
47507,-100,4,1,0,69,0,0
48445,-200,4,1,0,69,0,0
48633,-100,4,1,0,69,0,0
54446,-144.927536231884,4,2,0,9,0,0

[HitObjects]
208,35,11878,6,0,L|208:50,1,15.4000001879883
252,347,12253,1,0,0:0:0:0:
236,307,12347,1,0,0:0:0:0:
245,270,12440,1,0,0:0:0:0:
275,237,12534,1,0,0:0:0:0:
327,184,12628,6,0,P|320:165|310:152,1,30.8000003759766
184,100,13191,5,0,0:0:0:0:
184,100,13378,2,0,P|175:112|171:127,1,30.8000003759766
235,254,13941,6,0,L|236:236,1,16.49999949646
235,254,14128,2,0,B|316:209|320:268|399:227,1,153.999995300293
466,70,14503,2,0,L|381:74,1,82.5000031471254
240,156,14691,2,0,L|339:152,1,82.5000031471254
198,81,14878,2,0,B|178:70|173:61|173:61|158:72|147:73|147:73|120:66|94:61|46:88,1,150.700004254074
145,186,15253,5,0,0:0:0:0:
145,199,15441,5,0,0:0:0:0:
197,310,15628,6,0,P|192:294|194:280,1,30.8000003759766
313,231,16191,5,0,0:0:0:0:
313,231,16378,2,0,P|312:213|305:201,1,30.8000003759766
177,172,16941,5,0,0:0:0:0:
232,233,17129,2,0,L|231:254,1,15.4000001879883
155,290,17504,2,0,L|155:274,1,15.4000001879883
173,165,17879,6,0,L|162:168,1,7.70000009399414
155,164,18066,1,0,0:0:0:0:
142,159,18160,1,0,0:0:0:0:
129,155,18254,1,0,0:0:0:0:
115,154,18347,1,0,0:0:0:0:
102,155,18441,1,0,0:0:0:0:
90,161,18535,1,0,0:0:0:0:
83,172,18629,6,0,P|91:147|84:114,1,55
50,47,19004,1,0,0:0:0:0:
143,167,19191,1,0,0:0:0:0:
43,272,19379,2,0,P|78:262|105:266,1,55
229,292,19754,1,0,0:0:0:0:
229,292,19941,1,0,0:0:0:0:
230,307,20129,5,0,0:0:0:0:
186,196,20316,1,0,0:0:0:0:
347,115,20504,5,0,0:0:0:0:
263,233,20692,1,0,0:0:0:0:
178,142,20879,1,0,0:0:0:0:
297,283,21067,2,0,B|222:309|216:236|150:273,1,153.999995300293
60,378,21629,6,0,P|87:349|89:329,1,55
67,250,22004,1,0,0:0:0:0:
188,316,22192,1,0,0:0:0:0:
149,220,22379,2,0,L|149:156,1,55
158,154,22754,2,0,L|157:229,1,55
258,268,23129,6,0,P|300:259|256:276,1,121.000003692627
272,298,23504,6,0,P|298:245|259:268,1,153.999995300293
258,268,23879,5,0,0:0:0:0:
278,232,23972,1,0,0:0:0:0:
318,230,24066,1,0,0:0:0:0:
342,262,24160,1,0,0:0:0:0:
328,300,24254,1,0,0:0:0:0:
288,308,24347,1,0,0:0:0:0:
260,287,24442,2,0,P|228:283|197:293,1,52.8000012890625
35,212,24630,6,0,B|61:207|73:183|73:183|81:200|81:200|93:187|93:187|134:178|134:178|139:188|139:188|163:181|180:189,1,165.000006294251
276,127,25005,2,0,B|368:115|368:115|394:134|394:134|414:121|414:121|425:133|455:129|466:83|466:83|424:49|384:55|358:74,1,330.000012588501
193,256,25755,2,0,L|186:288,1,32.99999899292
244,227,25942,2,0,L|229:193,1,32.99999899292
253,284,26130,6,0,B|273:278|295:268|295:268|308:273|326:294|326:294|343:293|358:283|358:283|382:301|411:298,1,165.000006294251
512,186,26505,2,0,B|493:179|480:164|480:164|443:168|443:168|440:174|440:174|430:182|430:182|416:184|401:180|401:180|400:205|347:186|314:165|317:127|317:127|348:116|384:119|404:141,1,330.000012588501
331,296,27255,2,0,L|338:328,1,32.99999899292
280,267,27442,2,0,L|295:233,1,32.99999899292
264,326,27630,6,0,B|236:311|236:311|222:315|222:315|206:307|191:331|163:305|163:305|145:310|145:310|103:318,1,165.000006294251
24,224,28005,2,0,L|17:256,1,32.99999899292
75,195,28192,2,0,L|60:161,1,32.99999899292
1,115,28380,6,0,B|27:108|51:85|51:85|74:101|84:105|84:105|107:88|165:110,1,165.000006294251
300,172,28755,2,0,P|241:191|196:266,1,142.99999345398
343,252,29130,2,0,P|388:242|437:244,1,82.5000031471254
356,225,29318,2,0,P|397:227|464:208,1,82.5000031471254
370,208,29505,2,0,P|463:187|535:192,1,165.000006294251
314,53,29880,6,0,P|311:65|307:73,1,15.4000001879883
246,213,30255,1,0,0:0:0:0:
212,196,30349,1,0,0:0:0:0:
173,193,30443,1,0,0:0:0:0:
134,201,30536,1,0,0:0:0:0:
107,218,30630,6,0,B|5:291|246:302|-7:301|115:352|118:394,1,165.000006294251
358,259,31005,2,0,B|372:270|412:276|454:242|454:242|443:196|413:192|402:204|402:204|382:191|382:191|349:213|349:213|302:212|279:198|265:169,1,330.000012588501
308,59,31755,2,0,L|315:91,1,32.99999899292
257,30,31943,2,0,L|272:-4,1,32.99999899292
241,88,32130,6,0,B|218:78|198:64|198:64|199:78|199:78|154:70|168:94|137:73|137:73|126:73|107:86|91:69,1,165.000006294251
148,192,32505,2,0,B|190:239|149:271|151:298|200:344|235:344|235:344|251:331|271:301|271:301|276:285|216:282|227:248|234:232,1,330.000012588501
289,108,33256,2,0,L|282:76,1,32.99999899292
340,137,33444,2,0,L|325:171,1,32.99999899292
274,216,33631,6,0,B|244:203|244:203|232:190|232:190|215:207|215:207|183:195|181:244|113:181,1,165.000006294251
178,119,34006,2,0,L|185:151,1,32.99999899292
127,90,34194,2,0,L|142:56,1,32.99999899292
189,16,34381,6,0,B|206:18|213:26|221:33|221:33|233:45|233:45|250:40|261:42|270:36|270:36|290:55|310:46|310:46|330:37|353:47,1,165.000006294251
400,111,34756,2,0,L|413:141,1,32.99999899292
355,202,34944,2,0,L|362:170,1,32.99999899292
283,222,35131,2,0,L|296:252,1,32.99999899292
230,185,35318,2,0,L|237:153,1,32.99999899292
164,97,35506,2,0,P|119:93|63:106,1,95.7000008031464
25,204,35881,6,0,L|42:202,1,15.4000001879883
215,119,36256,5,0,0:0:0:0:
244,102,36350,1,0,0:0:0:0:
280,98,36443,1,0,0:0:0:0:
315,108,36537,1,0,0:0:0:0:
427,269,36631,6,0,P|410:263|401:255,1,30.8000003759766
280,190,37194,1,0,0:0:0:0:
280,190,37381,2,0,P|295:172|297:161,1,30.8000003759766
411,36,37944,6,0,L|410:54,1,16.49999949646
411,36,38131,2,0,B|330:81|326:22|251:63,1,153.999995300293
151,162,38506,2,0,B|140:176|140:176|226:184,1,82.5000031471254
408,167,38694,2,0,B|419:153|419:153|333:142,1,82.5000031471254
250,71,38881,2,0,B|208:66|208:66|137:98|137:98|83:87,1,165.000006294251
237,172,39256,5,0,0:0:0:0:
237,188,39444,5,0,0:0:0:0:
133,273,39631,2,0,P|151:269|164:272,1,30.8000003759766
255,352,40194,1,0,0:0:0:0:
255,352,40381,2,0,P|273:350|285:344,1,30.8000003759766
349,253,40944,5,0,0:0:0:0:
265,163,41132,2,0,L|265:180,1,15.4000001879883
188,123,41507,2,0,L|188:107,1,15.4000001879883
255,41,41882,6,0,L|266:44,1,7.70000009399414
273,40,42069,1,0,0:0:0:0:
286,35,42163,1,0,0:0:0:0:
299,31,42257,1,0,0:0:0:0:
313,30,42350,1,0,0:0:0:0:
326,31,42444,1,0,0:0:0:0:
338,37,42538,1,0,0:0:0:0:
349,48,42632,6,0,P|354:83|341:115,1,55
252,142,43007,1,0,0:0:0:0:
358,233,43194,1,0,0:0:0:0:
234,344,43382,2,0,P|257:320|287:304,1,55
400,277,43757,1,0,0:0:0:0:
400,277,43944,1,0,0:0:0:0:
401,292,44132,5,0,0:0:0:0:
440,183,44319,1,0,0:0:0:0:
310,103,44507,5,0,0:0:0:0:
394,221,44695,1,0,0:0:0:0:
479,130,44882,1,0,0:0:0:0:
424,275,45070,2,0,B|349:301|343:228|277:265,1,153.999995300293
212,368,45632,6,0,P|207:352|209:338,1,30.8000003759766
328,289,46195,5,0,0:0:0:0:
328,289,46382,2,0,P|327:271|320:259,1,30.8000003759766
249,190,46945,1,0,0:0:0:0:
336,132,47132,6,0,L|339:43,1,76.9999976501466
326,0,47507,2,0,L|320:142,1,110
201,35,47882,1,0,0:0:0:0:
175,28,47975,1,0,0:0:0:0:
149,30,48069,1,0,0:0:0:0:
126,42,48163,1,0,0:0:0:0:
102,53,48257,1,0,0:0:0:0:
76,55,48350,1,0,0:0:0:0:
50,50,48445,2,0,P|52:26|58:11,1,27.5
256,192,48633,12,0,54446,0:0:0:0:
