osu file format v14

[General]
AudioFilename: audio.mp3
AudioLeadIn: 0
PreviewTime: -1
Countdown: 0
SampleSet: None
StackLeniency: 0.6
Mode: 3
LetterboxInBreaks: 0
SpecialStyle: 0
WidescreenStoryboard: 0

[Editor]
DistanceSpacing: 1.4
BeatDivisor: 16
GridSize: 4
TimelineZoom: 4.299997

[Metadata]
Title:Dimension Tripper!!!! XL
TitleUnicode:Dimension Tripper!!!! XL
Artist:Nao
ArtistUnicode:Nao
Creator:_GmDarkness_
Version:Hard
Source:
Tags:
BeatmapID:1709079
BeatmapSetID:814947

[Difficulty]
HPDrainRate:6
CircleSize:5
OverallDifficulty:5
ApproachRate:6
SliderMultiplier:0.8
SliderTickRate:1

[Events]
//Background and Video events
0,0,"Planeptune.png",0,0
//Break Periods
2,79710,89173
2,141027,145062
2,185910,197217
//Storyboard Layer 0 (Background)
//Storyboard Layer 1 (Fail)
//Storyboard Layer 2 (Pass)
//Storyboard Layer 3 (Foreground)
//Storyboard Sound Samples

[TimingPoints]
41488.1832460733,314.424210664221,4,2,0,100,1,0

[HitObjects]
51,192,598,5,0,0:0:0:0:
256,192,912,1,0,0:0:0:0:
460,192,1069,1,0,0:0:0:0:
153,192,1226,1,0,0:0:0:0:
256,192,1383,1,0,0:0:0:0:
358,192,1540,1,0,0:0:0:0:
460,192,1855,1,0,0:0:0:0:
51,192,2012,1,0,0:0:0:0:
358,192,2169,1,0,0:0:0:0:
153,192,2326,1,0,0:0:0:0:
460,192,2522,1,0,0:0:0:0:
256,192,2680,1,0,0:0:0:0:
153,192,2837,1,0,0:0:0:0:
358,192,2994,1,0,0:0:0:0:
51,192,3151,1,0,0:0:0:0:
256,192,3308,1,0,0:0:0:0:
460,192,3465,1,0,0:0:0:0:
256,192,3779,1,0,0:0:0:0:
51,192,4094,1,0,0:0:0:0:
153,192,4408,1,0,0:0:0:0:
358,192,4408,1,0,0:0:0:0:
460,192,4722,1,0,0:0:0:0:
153,192,5036,1,0,0:0:0:0:
153,192,5233,1,0,0:0:0:0:
153,192,5390,1,0,0:0:0:0:
460,192,5547,1,0,0:0:0:0:
51,192,5547,1,0,0:0:0:0:
256,192,5861,1,0,0:0:0:0:
358,192,6018,1,0,0:0:0:0:
460,192,6175,1,0,0:0:0:0:
51,192,6490,1,0,0:0:0:0:
256,192,6647,1,0,0:0:0:0:
460,192,6961,1,0,0:0:0:0:
358,192,7118,1,0,0:0:0:0:
51,192,7432,1,0,0:0:0:0:
256,192,7747,1,0,0:0:0:0:
460,192,8100,1,0,0:0:0:0:
153,192,8100,1,0,0:0:0:0:
51,192,8414,1,0,0:0:0:0:
256,192,8571,1,0,0:0:0:0:
153,192,8886,1,0,0:0:0:0:
256,192,9043,1,0,0:0:0:0:
358,192,9200,1,0,0:0:0:0:
460,192,9514,1,0,0:0:0:0:
153,192,9671,1,0,0:0:0:0:
51,192,9986,1,0,0:0:0:0:
358,192,10300,1,0,0:0:0:0:
256,192,10653,1,0,0:0:0:0:
51,192,10653,1,0,0:0:0:0:
460,192,10653,1,0,0:0:0:0:
51,192,10967,1,0,0:0:0:0:
256,192,11125,1,0,0:0:0:0:
460,192,11439,1,0,0:0:0:0:
256,192,11596,1,0,0:0:0:0:
51,192,11910,1,0,0:0:0:0:
358,192,11910,1,0,0:0:0:0:
460,192,12224,1,0,0:0:0:0:
256,192,12382,1,0,0:0:0:0:
358,192,12696,1,0,0:0:0:0:
153,192,12853,1,0,0:0:0:0:
51,192,13206,1,0,0:0:0:0:
460,192,13206,1,0,0:0:0:0:
358,192,13521,1,0,0:0:0:0:
460,192,13678,1,0,0:0:0:0:
256,192,13835,1,0,0:0:0:0:
51,192,13992,1,0,0:0:0:0:
153,192,14149,1,0,0:0:0:0:
358,192,14306,1,0,0:0:0:0:
460,192,14463,1,0,0:0:0:0:
51,192,14778,1,0,0:0:0:0:
256,192,14935,1,0,0:0:0:0:
153,192,15249,1,0,0:0:0:0:
358,192,15406,1,0,0:0:0:0:
51,192,15720,128,0,16039:0:0:0:0:
460,192,15720,128,0,16039:0:0:0:0:
153,192,16231,1,0,0:0:0:0:
358,192,16388,1,0,0:0:0:0:
256,192,16545,1,0,0:0:0:0:
51,192,16702,1,0,0:0:0:0:
256,192,16859,1,0,0:0:0:0:
460,192,17017,1,0,0:0:0:0:
358,192,17174,1,0,0:0:0:0:
153,192,17331,1,0,0:0:0:0:
51,192,17645,1,0,0:0:0:0:
256,192,17959,1,0,0:0:0:0:
460,192,18273,1,0,0:0:0:0:
256,192,18273,1,0,0:0:0:0:
153,192,18627,1,0,0:0:0:0:
358,192,18784,1,0,0:0:0:0:
256,192,18941,1,0,0:0:0:0:
51,192,19098,1,0,0:0:0:0:
153,192,19255,1,0,0:0:0:0:
460,192,19413,1,0,0:0:0:0:
358,192,19570,1,0,0:0:0:0:
51,192,19727,1,0,0:0:0:0:
256,192,19884,1,0,0:0:0:0:
153,192,20041,1,0,0:0:0:0:
51,192,20198,1,0,0:0:0:0:
460,192,20512,1,0,0:0:0:0:
256,192,20827,1,0,0:0:0:0:
51,192,20827,1,0,0:0:0:0:
153,192,21141,1,0,0:0:0:0:
358,192,21337,1,0,0:0:0:0:
460,192,21652,1,0,0:0:0:0:
256,192,21809,1,0,0:0:0:0:
51,192,22123,1,0,0:0:0:0:
358,192,22123,1,0,0:0:0:0:
153,192,22437,1,0,0:0:0:0:
460,192,22594,1,0,0:0:0:0:
256,192,22751,1,0,0:0:0:0:
358,192,22908,1,0,0:0:0:0:
51,192,23066,1,0,0:0:0:0:
460,192,23380,1,0,0:0:0:0:
153,192,23380,1,0,0:0:0:0:
51,192,23694,1,0,0:0:0:0:
256,192,23851,1,0,0:0:0:0:
460,192,24048,1,0,0:0:0:0:
358,192,24205,1,0,0:0:0:0:
153,192,24362,1,0,0:0:0:0:
256,192,24676,1,0,0:0:0:0:
51,192,24676,1,0,0:0:0:0:
460,192,24676,1,0,0:0:0:0:
153,192,25147,1,0,0:0:0:0:
256,192,25462,1,0,0:0:0:0:
358,192,25619,1,0,0:0:0:0:
51,192,25933,1,0,0:0:0:0:
460,192,25933,1,0,0:0:0:0:
153,192,26404,1,0,0:0:0:0:
460,192,26758,1,0,0:0:0:0:
256,192,26915,1,0,0:0:0:0:
51,192,27072,1,0,0:0:0:0:
460,192,27229,1,0,0:0:0:0:
153,192,27229,1,0,0:0:0:0:
256,192,28015,1,0,0:0:0:0:
51,192,28172,128,0,28650:0:0:0:0:
460,192,28172,128,0,28650:0:0:0:0:
256,192,28643,1,0,0:0:0:0:
256,192,28958,1,0,0:0:0:0:
51,192,29311,1,0,0:0:0:0:
153,192,29468,1,0,0:0:0:0:
460,192,29782,128,0,30419:0:0:0:0:
256,192,30725,1,0,0:0:0:0:
460,192,30882,1,0,0:0:0:0:
51,192,31039,1,0,0:0:0:0:
460,192,31196,1,0,0:0:0:0:
256,192,31354,1,0,0:0:0:0:
51,192,31668,1,0,0:0:0:0:
51,192,34064,1,0,0:0:0:0:
460,192,34378,1,0,0:0:0:0:
256,192,34535,1,0,0:0:0:0:
51,192,34889,1,0,0:0:0:0:
153,192,35831,1,0,0:0:0:0:
358,192,35989,1,0,0:0:0:0:
256,192,36146,1,0,0:0:0:0:
460,192,36303,1,0,0:0:0:0:
51,192,36460,1,0,0:0:0:0:
460,192,36774,1,0,0:0:0:0:
256,192,37088,1,0,0:0:0:0:
153,192,37599,1,0,0:0:0:0:
358,192,37599,1,0,0:0:0:0:
358,192,37756,1,0,0:0:0:0:
153,192,37756,1,0,0:0:0:0:
256,192,37913,1,0,0:0:0:0:
51,192,37913,1,0,0:0:0:0:
460,192,37913,1,0,0:0:0:0:
153,192,38227,1,0,0:0:0:0:
358,192,38227,1,0,0:0:0:0:
153,192,38385,1,0,0:0:0:0:
358,192,38385,1,0,0:0:0:0:
256,192,38542,1,0,0:0:0:0:
51,192,38542,1,0,0:0:0:0:
460,192,38542,1,0,0:0:0:0:
256,192,38856,1,0,0:0:0:0:
51,192,39170,1,0,0:0:0:0:
153,192,39327,1,0,0:0:0:0:
358,192,39484,1,0,0:0:0:0:
460,192,39642,1,0,0:0:0:0:
358,192,39956,128,0,40594:0:0:0:0:
51,192,40938,128,0,43010:0:0:0:0:
256,192,41095,1,0,0:0:0:0:
460,192,41252,1,0,0:0:0:0:
153,192,41409,1,0,0:0:0:0:
358,192,41566,1,0,0:0:0:0:
153,192,41880,1,0,0:0:0:0:
460,192,42195,1,0,0:0:0:0:
358,192,42509,1,0,0:0:0:0:
256,192,42862,1,0,0:0:0:0:
153,192,43020,1,0,0:0:0:0:
51,192,43334,1,0,0:0:0:0:
153,192,43491,1,0,0:0:0:0:
460,192,43805,1,0,0:0:0:0:
256,192,43805,1,0,0:0:0:0:
51,192,44119,1,0,0:0:0:0:
256,192,44277,1,0,0:0:0:0:
460,192,44434,1,0,0:0:0:0:
358,192,44591,1,0,0:0:0:0:
153,192,44748,1,0,0:0:0:0:
51,192,45062,1,0,0:0:0:0:
256,192,45062,1,0,0:0:0:0:
460,192,45062,1,0,0:0:0:0:
153,192,45416,1,0,0:0:0:0:
358,192,45573,1,0,0:0:0:0:
51,192,45730,1,0,0:0:0:0:
460,192,45887,1,0,0:0:0:0:
256,192,46201,1,0,0:0:0:0:
460,192,46358,1,0,0:0:0:0:
51,192,46673,1,0,0:0:0:0:
153,192,46830,128,0,47467:0:0:0:0:
358,192,46830,128,0,47467:0:0:0:0:
51,192,47772,1,0,0:0:0:0:
256,192,47772,1,0,0:0:0:0:
256,192,47930,1,0,0:0:0:0:
460,192,47930,1,0,0:0:0:0:
153,192,48126,1,0,0:0:0:0:
358,192,48126,1,0,0:0:0:0:
460,192,48283,1,0,0:0:0:0:
256,192,48597,1,0,0:0:0:0:
51,192,49069,1,0,0:0:0:0:
153,192,49069,1,0,0:0:0:0:
153,192,49383,1,0,0:0:0:0:
358,192,49383,1,0,0:0:0:0:
460,192,49697,1,0,0:0:0:0:
358,192,49697,1,0,0:0:0:0:
153,192,50011,1,0,0:0:0:0:
153,192,50168,1,0,0:0:0:0:
256,192,50483,1,0,0:0:0:0:
358,192,50640,1,0,0:0:0:0:
460,192,51150,1,0,0:0:0:0:
153,192,51308,1,0,0:0:0:0:
358,192,51465,1,0,0:0:0:0:
51,192,51779,1,0,0:0:0:0:
256,192,51936,1,0,0:0:0:0:
460,192,52093,1,0,0:0:0:0:
153,192,52250,1,0,0:0:0:0:
358,192,52407,1,0,0:0:0:0:
460,192,52728,1,0,0:0:0:0:
153,192,54489,1,0,0:0:0:0:
460,192,54803,1,0,0:0:0:0:
256,192,54803,1,0,0:0:0:0:
51,192,55165,1,0,0:0:0:0:
256,192,55322,1,0,0:0:0:0:
153,192,55589,1,0,0:0:0:0:
358,192,55746,1,0,0:0:0:0:
51,192,56108,1,0,0:0:0:0:
256,192,56266,1,0,0:0:0:0:
51,192,56580,128,0,57995:0:0:0:0:
460,192,56580,128,0,57995:0:0:0:0:
153,192,57995,1,0,0:0:0:0:
358,192,57995,1,0,0:0:0:0:
153,192,58142,1,0,0:0:0:0:
358,192,58142,1,0,0:0:0:0:
153,192,58299,1,0,0:0:0:0:
358,192,58299,1,0,0:0:0:0:
256,192,58614,1,0,0:0:0:0:
358,192,58810,1,0,0:0:0:0:
51,192,59124,128,0,60239:0:0:0:0:
460,192,59124,128,0,60239:0:0:0:0:
153,192,59596,1,0,0:0:0:0:
256,192,59921,1,0,0:0:0:0:
256,192,60224,1,0,0:0:0:0:
153,192,60373,128,0,61513:0:0:0:0:
358,192,60373,128,0,61513:0:0:0:0:
51,192,60852,1,0,0:0:0:0:
460,192,61167,1,0,0:0:0:0:
51,192,61513,1,0,0:0:0:0:
256,192,61677,128,0,63430:0:0:0:0:
51,192,62149,1,0,0:0:0:0:
460,192,62463,1,0,0:0:0:0:
358,192,62620,1,0,0:0:0:0:
51,192,62934,1,0,0:0:0:0:
460,192,63249,1,0,0:0:0:0:
51,192,63406,1,0,0:0:0:0:
460,192,63877,1,0,0:0:0:0:
358,192,64034,1,0,0:0:0:0:
51,192,64231,1,0,0:0:0:0:
358,192,64545,1,0,0:0:0:0:
153,192,64702,1,0,0:0:0:0:
256,192,64859,1,0,0:0:0:0:
51,192,65016,1,0,0:0:0:0:
358,192,65173,1,0,0:0:0:0:
256,192,65487,1,0,0:0:0:0:
153,192,65802,1,0,0:0:0:0:
256,192,65959,1,0,0:0:0:0:
358,192,66116,1,0,0:0:0:0:
51,192,66273,1,0,0:0:0:0:
460,192,66430,1,0,0:0:0:0:
51,192,66744,128,0,68338:0:0:0:0:
460,192,66744,128,0,68338:0:0:0:0:
153,192,68826,1,0,0:0:0:0:
358,192,68983,1,0,0:0:0:0:
460,192,69298,128,0,70255:0:0:0:0:
256,192,69298,128,0,70255:0:0:0:0:
51,192,69298,128,0,70255:0:0:0:0:
153,192,70437,1,0,0:0:0:0:
256,192,70651,128,0,71672:0:0:0:0:
460,192,70651,128,0,71672:0:0:0:0:
153,192,71694,1,0,0:0:0:0:
460,192,71851,1,0,0:0:0:0:
51,192,72361,1,0,0:0:0:0:
460,192,72676,1,0,0:0:0:0:
153,192,72833,1,0,0:0:0:0:
358,192,73147,1,0,0:0:0:0:
256,192,73461,1,0,0:0:0:0:
460,192,73618,1,0,0:0:0:0:
153,192,74109,1,0,0:0:0:0:
153,192,74266,1,0,0:0:0:0:
153,192,74424,1,0,0:0:0:0:
460,192,74718,1,0,0:0:0:0:
256,192,74875,1,0,0:0:0:0:
358,192,75229,1,0,0:0:0:0:
256,192,75386,1,0,0:0:0:0:
153,192,75700,1,0,0:0:0:0:
153,192,76643,1,0,0:0:0:0:
153,192,76800,1,0,0:0:0:0:
358,192,76957,1,0,0:0:0:0:
256,192,77428,1,0,0:0:0:0:
153,192,77782,1,0,0:0:0:0:
460,192,78253,1,0,0:0:0:0:
153,192,78568,1,0,0:0:0:0:
256,192,78725,1,0,0:0:0:0:
358,192,78882,1,0,0:0:0:0:
256,192,79039,1,0,0:0:0:0:
51,192,79196,1,0,0:0:0:0:
153,192,79510,1,0,0:0:0:0:
358,192,79510,1,0,0:0:0:0:
153,192,90223,5,0,0:0:0:0:
256,192,90558,1,0,0:0:0:0:
460,192,90715,1,0,0:0:0:0:
153,192,91009,128,0,91796:0:0:0:0:
256,192,91992,1,0,0:0:0:0:
153,192,92346,1,0,0:0:0:0:
256,192,92503,1,0,0:0:0:0:
358,192,92660,1,0,0:0:0:0:
51,192,92975,128,0,94704:0:0:0:0:
256,192,93368,1,0,0:0:0:0:
460,192,93603,1,0,0:0:0:0:
358,192,93761,1,0,0:0:0:0:
256,192,93918,1,0,0:0:0:0:
153,192,94075,1,0,0:0:0:0:
460,192,94232,1,0,0:0:0:0:
358,192,94390,1,0,0:0:0:0:
153,192,94704,1,0,0:0:0:0:
153,192,95411,1,0,0:0:0:0:
460,192,95726,1,0,0:0:0:0:
358,192,95883,1,0,0:0:0:0:
153,192,96197,1,0,0:0:0:0:
358,192,97141,1,0,0:0:0:0:
51,192,97455,1,0,0:0:0:0:
358,192,97612,1,0,0:0:0:0:
153,192,97770,1,0,0:0:0:0:
460,192,98084,128,0,98713:0:0:0:0:
153,192,98870,1,0,0:0:0:0:
358,192,98870,1,0,0:0:0:0:
153,192,99027,1,0,0:0:0:0:
358,192,99027,1,0,0:0:0:0:
256,192,99185,128,0,99813:0:0:0:0:
153,192,99499,1,0,0:0:0:0:
358,192,99499,1,0,0:0:0:0:
358,192,99656,1,0,0:0:0:0:
153,192,99656,1,0,0:0:0:0:
460,192,99813,128,0,100285:0:0:0:0:
51,192,99813,128,0,100285:0:0:0:0:
153,192,100442,1,0,0:0:0:0:
358,192,100599,1,0,0:0:0:0:
460,192,100757,1,0,0:0:0:0:
358,192,100914,1,0,0:0:0:0:
256,192,101287,1,0,0:0:0:0:
153,192,101720,1,0,0:0:0:0:
51,192,102172,1,0,0:0:0:0:
256,192,102368,1,0,0:0:0:0:
460,192,102525,1,0,0:0:0:0:
358,192,102682,1,0,0:0:0:0:
153,192,102879,1,0,0:0:0:0:
460,192,103174,1,0,0:0:0:0:
51,192,103488,1,0,0:0:0:0:
460,192,103803,1,0,0:0:0:0:
256,192,104117,1,0,0:0:0:0:
51,192,104274,1,0,0:0:0:0:
153,192,104648,1,0,0:0:0:0:
358,192,104825,1,0,0:0:0:0:
153,192,105139,1,0,0:0:0:0:
358,192,105139,1,0,0:0:0:0:
256,192,105453,1,0,0:0:0:0:
358,192,105611,1,0,0:0:0:0:
460,192,105768,1,0,0:0:0:0:
153,192,105945,1,0,0:0:0:0:
358,192,105945,1,0,0:0:0:0:
256,192,106102,1,0,0:0:0:0:
256,192,106416,1,0,0:0:0:0:
51,192,106416,1,0,0:0:0:0:
256,192,106731,1,0,0:0:0:0:
358,192,106888,1,0,0:0:0:0:
460,192,107045,1,0,0:0:0:0:
256,192,107202,1,0,0:0:0:0:
460,192,107517,1,0,0:0:0:0:
51,192,107674,1,0,0:0:0:0:
460,192,107988,1,0,0:0:0:0:
153,192,108146,128,0,108932:0:0:0:0:
358,192,108146,128,0,108932:0:0:0:0:
153,192,109089,1,0,0:0:0:0:
51,192,109089,1,0,0:0:0:0:
153,192,109246,1,0,0:0:0:0:
51,192,109246,1,0,0:0:0:0:
460,192,109403,1,0,0:0:0:0:
358,192,109403,1,0,0:0:0:0:
358,192,109561,1,0,0:0:0:0:
460,192,109561,1,0,0:0:0:0:
256,192,109875,128,0,110347:0:0:0:0:
51,192,110347,1,0,0:0:0:0:
460,192,110347,1,0,0:0:0:0:
153,192,110661,1,0,0:0:0:0:
358,192,110975,1,0,0:0:0:0:
51,192,111290,1,0,0:0:0:0:
153,192,111447,1,0,0:0:0:0:
460,192,111761,1,0,0:0:0:0:
358,192,111919,1,0,0:0:0:0:
256,192,112469,1,0,0:0:0:0:
153,192,112626,1,0,0:0:0:0:
358,192,112783,1,0,0:0:0:0:
358,192,113098,1,0,0:0:0:0:
153,192,113255,1,0,0:0:0:0:
256,192,113412,1,0,0:0:0:0:
460,192,113569,1,0,0:0:0:0:
51,192,113727,1,0,0:0:0:0:
153,192,114042,1,0,0:0:0:0:
358,192,114042,1,0,0:0:0:0:
256,192,115829,1,0,0:0:0:0:
153,192,116163,1,0,0:0:0:0:
358,192,116163,1,0,0:0:0:0:
51,192,116478,1,0,0:0:0:0:
153,192,116635,1,0,0:0:0:0:
460,192,116949,1,0,0:0:0:0:
358,192,117107,1,0,0:0:0:0:
153,192,117421,1,0,0:0:0:0:
256,192,117578,1,0,0:0:0:0:
153,192,117893,128,0,118993:0:0:0:0:
358,192,117893,128,0,118993:0:0:0:0:
51,192,119308,1,0,0:0:0:0:
256,192,119308,1,0,0:0:0:0:
460,192,119308,1,0,0:0:0:0:
460,192,119465,1,0,0:0:0:0:
256,192,119465,1,0,0:0:0:0:
51,192,119465,1,0,0:0:0:0:
460,192,119622,1,0,0:0:0:0:
256,192,119622,1,0,0:0:0:0:
51,192,119622,1,0,0:0:0:0:
153,192,119937,1,0,0:0:0:0:
358,192,120094,1,0,0:0:0:0:
256,192,120408,128,0,121351:0:0:0:0:
51,192,120408,128,0,121351:0:0:0:0:
153,192,121509,1,0,0:0:0:0:
256,192,121666,128,0,122609:0:0:0:0:
460,192,121666,128,0,122609:0:0:0:0:
358,192,122766,1,0,0:0:0:0:
51,192,122924,1,0,0:0:0:0:
460,192,122924,1,0,0:0:0:0:
51,192,123415,1,0,0:0:0:0:
153,192,123415,1,0,0:0:0:0:
358,192,123729,1,0,0:0:0:0:
460,192,123729,1,0,0:0:0:0:
153,192,123906,1,0,0:0:0:0:
358,192,123906,1,0,0:0:0:0:
256,192,124240,1,0,0:0:0:0:
358,192,124555,1,0,0:0:0:0:
256,192,124712,1,0,0:0:0:0:
153,192,125203,1,0,0:0:0:0:
460,192,125360,1,0,0:0:0:0:
358,192,125518,1,0,0:0:0:0:
153,192,125832,1,0,0:0:0:0:
358,192,125989,1,0,0:0:0:0:
256,192,126146,1,0,0:0:0:0:
358,192,126304,1,0,0:0:0:0:
460,192,126461,1,0,0:0:0:0:
256,192,126775,1,0,0:0:0:0:
153,192,127129,1,0,0:0:0:0:
358,192,127286,1,0,0:0:0:0:
460,192,127443,1,0,0:0:0:0:
256,192,127601,1,0,0:0:0:0:
358,192,127777,1,0,0:0:0:0:
51,192,128072,128,0,129644:0:0:0:0:
256,192,128072,128,0,129644:0:0:0:0:
153,192,130155,1,0,0:0:0:0:
358,192,130155,1,0,0:0:0:0:
256,192,130313,1,0,0:0:0:0:
460,192,130313,1,0,0:0:0:0:
51,192,130627,128,0,131413:0:0:0:0:
358,192,130627,128,0,131413:0:0:0:0:
460,192,131707,1,0,0:0:0:0:
256,192,131707,1,0,0:0:0:0:
358,192,131885,128,0,132749:0:0:0:0:
153,192,131885,128,0,132749:0:0:0:0:
256,192,133064,1,0,0:0:0:0:
51,192,133221,1,0,0:0:0:0:
358,192,133614,1,0,0:0:0:0:
153,192,133614,1,0,0:0:0:0:
256,192,133771,1,0,0:0:0:0:
460,192,133928,1,0,0:0:0:0:
358,192,134086,1,0,0:0:0:0:
51,192,134400,1,0,0:0:0:0:
256,192,134400,1,0,0:0:0:0:
153,192,134714,1,0,0:0:0:0:
358,192,134714,1,0,0:0:0:0:
256,192,134872,1,0,0:0:0:0:
460,192,134872,1,0,0:0:0:0:
358,192,135422,1,0,0:0:0:0:
153,192,135579,1,0,0:0:0:0:
51,192,135736,1,0,0:0:0:0:
460,192,135736,1,0,0:0:0:0:
256,192,136051,1,0,0:0:0:0:
460,192,136208,1,0,0:0:0:0:
153,192,136522,1,0,0:0:0:0:
358,192,136680,1,0,0:0:0:0:
51,192,136994,1,0,0:0:0:0:
460,192,136994,1,0,0:0:0:0:
153,192,137937,1,0,0:0:0:0:
358,192,138095,1,0,0:0:0:0:
51,192,138330,1,0,0:0:0:0:
256,192,138330,1,0,0:0:0:0:
460,192,138723,1,0,0:0:0:0:
256,192,138723,1,0,0:0:0:0:
153,192,139116,1,0,0:0:0:0:
358,192,139116,1,0,0:0:0:0:
256,192,139588,1,0,0:0:0:0:
51,192,139902,1,0,0:0:0:0:
256,192,140060,1,0,0:0:0:0:
460,192,140217,1,0,0:0:0:0:
256,192,140374,1,0,0:0:0:0:
51,192,140531,1,0,0:0:0:0:
153,192,140827,1,0,0:0:0:0:
358,192,140827,1,0,0:0:0:0:
51,192,146112,5,0,0:0:0:0:
256,192,146112,1,0,0:0:0:0:
460,192,146112,1,0,0:0:0:0:
153,192,146427,1,0,0:0:0:0:
358,192,146584,1,0,0:0:0:0:
256,192,146898,1,0,0:0:0:0:
51,192,147213,1,0,0:0:0:0:
153,192,148628,1,0,0:0:0:0:
358,192,148628,1,0,0:0:0:0:
51,192,148942,1,0,0:0:0:0:
460,192,149178,1,0,0:0:0:0:
256,192,149492,1,0,0:0:0:0:
51,192,149807,1,0,0:0:0:0:
460,192,150278,128,0,151065:0:0:0:0:
358,192,150750,128,0,151065:0:0:0:0:
51,192,151065,1,0,0:0:0:0:
256,192,151379,1,0,0:0:0:0:
153,192,151536,1,0,0:0:0:0:
358,192,151536,1,0,0:0:0:0:
51,192,151693,128,0,152637:0:0:0:0:
153,192,152872,1,0,0:0:0:0:
358,192,153030,1,0,0:0:0:0:
256,192,153187,1,0,0:0:0:0:
460,192,153344,1,0,0:0:0:0:
358,192,153659,1,0,0:0:0:0:
153,192,153659,1,0,0:0:0:0:
256,192,153894,1,0,0:0:0:0:
153,192,154091,1,0,0:0:0:0:
460,192,154248,128,0,155349:0:0:0:0:
358,192,155545,1,0,0:0:0:0:
256,192,155859,1,0,0:0:0:0:
153,192,156174,1,0,0:0:0:0:
256,192,156331,1,0,0:0:0:0:
51,192,156685,1,0,0:0:0:0:
256,192,156842,1,0,0:0:0:0:
460,192,157156,1,0,0:0:0:0:
358,192,157471,128,0,158100:0:0:0:0:
51,192,158257,1,0,0:0:0:0:
256,192,158257,1,0,0:0:0:0:
153,192,158571,1,0,0:0:0:0:
358,192,158571,1,0,0:0:0:0:
51,192,158847,128,0,159515:0:0:0:0:
153,192,159515,128,0,160183:0:0:0:0:
358,192,160183,128,0,160812:0:0:0:0:
460,192,160812,128,0,161126:0:0:0:0:
51,192,161441,1,0,0:0:0:0:
153,192,161519,1,0,0:0:0:0:
256,192,161598,1,0,0:0:0:0:
358,192,161676,1,0,0:0:0:0:
460,192,161755,1,0,0:0:0:0:
358,192,161834,1,0,0:0:0:0:
256,192,161912,1,0,0:0:0:0:
153,192,161991,1,0,0:0:0:0:
51,192,162069,1,0,0:0:0:0:
153,192,162148,1,0,0:0:0:0:
256,192,162227,1,0,0:0:0:0:
358,192,162266,1,0,0:0:0:0:
460,192,162344,1,0,0:0:0:0:
358,192,162423,1,0,0:0:0:0:
256,192,162502,1,0,0:0:0:0:
153,192,162580,1,0,0:0:0:0:
51,192,162659,1,0,0:0:0:0:
153,192,162738,1,0,0:0:0:0:
256,192,162816,1,0,0:0:0:0:
358,192,162895,1,0,0:0:0:0:
460,192,162973,1,0,0:0:0:0:
256,192,163327,1,0,0:0:0:0:
51,192,163641,1,0,0:0:0:0:
153,192,163838,1,0,0:0:0:0:
358,192,163838,1,0,0:0:0:0:
256,192,164113,1,0,0:0:0:0:
153,192,164270,1,0,0:0:0:0:
256,192,164428,1,0,0:0:0:0:
358,192,164585,1,0,0:0:0:0:
153,192,164585,1,0,0:0:0:0:
51,192,164742,1,0,0:0:0:0:
256,192,164899,1,0,0:0:0:0:
460,192,164899,1,0,0:0:0:0:
51,192,165056,1,0,0:0:0:0:
256,192,165056,1,0,0:0:0:0:
256,192,165410,1,0,0:0:0:0:
460,192,165410,1,0,0:0:0:0:
153,192,166039,1,0,0:0:0:0:
256,192,166196,1,0,0:0:0:0:
153,192,166353,128,0,167139:0:0:0:0:
358,192,166353,128,0,167139:0:0:0:0:
51,192,167454,1,0,0:0:0:0:
256,192,167611,1,0,0:0:0:0:
460,192,167768,1,0,0:0:0:0:
256,192,167926,1,0,0:0:0:0:
51,192,168083,1,0,0:0:0:0:
256,192,168240,1,0,0:0:0:0:
460,192,168397,1,0,0:0:0:0:
256,192,168594,1,0,0:0:0:0:
51,192,168751,1,0,0:0:0:0:
153,192,169026,128,0,169694:0:0:0:0:
358,192,169026,128,0,169694:0:0:0:0:
51,192,169694,128,0,170323:0:0:0:0:
256,192,169694,128,0,170323:0:0:0:0:
358,192,170323,128,0,170952:0:0:0:0:
153,192,170323,128,0,170952:0:0:0:0:
460,192,170952,128,0,171306:0:0:0:0:
256,192,170952,128,0,171306:0:0:0:0:
153,192,171541,1,0,0:0:0:0:
358,192,171541,1,0,0:0:0:0:
51,192,171777,1,0,0:0:0:0:
358,192,171934,1,0,0:0:0:0:
153,192,172092,1,0,0:0:0:0:
460,192,172249,1,0,0:0:0:0:
256,192,172406,1,0,0:0:0:0:
153,192,172563,1,0,0:0:0:0:
51,192,172720,1,0,0:0:0:0:
358,192,172917,1,0,0:0:0:0:
256,192,173074,1,0,0:0:0:0:
153,192,173231,1,0,0:0:0:0:
358,192,173389,1,0,0:0:0:0:
256,192,173546,1,0,0:0:0:0:
153,192,173703,1,0,0:0:0:0:
51,192,173860,128,0,174293:0:0:0:0:
460,192,173860,128,0,174293:0:0:0:0:
153,192,174528,1,0,0:0:0:0:
358,192,174528,1,0,0:0:0:0:
256,192,174843,1,0,0:0:0:0:
460,192,174843,1,0,0:0:0:0:
153,192,175197,1,0,0:0:0:0:
256,192,175354,1,0,0:0:0:0:
358,192,175629,1,0,0:0:0:0:
460,192,175786,1,0,0:0:0:0:
358,192,176297,1,0,0:0:0:0:
256,192,176454,1,0,0:0:0:0:
460,192,176611,1,0,0:0:0:0:
51,192,176926,1,0,0:0:0:0:
153,192,177083,1,0,0:0:0:0:
256,192,177240,1,0,0:0:0:0:
460,192,177417,1,0,0:0:0:0:
358,192,177575,1,0,0:0:0:0:
153,192,177850,128,0,178478:0:0:0:0:
358,192,177850,128,0,178478:0:0:0:0:
51,192,179618,1,0,0:0:0:0:
256,192,179618,1,0,0:0:0:0:
256,192,179952,1,0,0:0:0:0:
460,192,179952,1,0,0:0:0:0:
51,192,180227,1,0,0:0:0:0:
256,192,180385,1,0,0:0:0:0:
460,192,180679,1,0,0:0:0:0:
358,192,180856,1,0,0:0:0:0:
153,192,181230,1,0,0:0:0:0:
256,192,181367,1,0,0:0:0:0:
51,192,181662,128,0,185710:0:0:0:0:
460,192,181662,128,0,185710:0:0:0:0:
51,192,198267,132,0,199604:0:0:0:0:
153,192,198562,1,0,0:0:0:0:
256,192,198739,1,0,0:0:0:0:
358,192,198896,1,0,0:0:0:0:
460,192,199073,1,0,0:0:0:0:
358,192,199230,1,0,0:0:0:0:
460,192,199604,128,0,200881:0:0:0:0:
358,192,199918,1,0,0:0:0:0:
256,192,200095,1,0,0:0:0:0:
153,192,200233,1,0,0:0:0:0:
51,192,200409,1,0,0:0:0:0:
256,192,200881,1,0,0:0:0:0:
51,192,201294,1,0,0:0:0:0:
460,192,201490,1,0,0:0:0:0:
153,192,201667,1,0,0:0:0:0:
51,192,201844,1,0,0:0:0:0:
460,192,202080,1,0,0:0:0:0:
51,192,202394,1,0,0:0:0:0:
460,192,202591,1,0,0:0:0:0:
153,192,203102,1,0,0:0:0:0:
153,192,203259,1,0,0:0:0:0:
153,192,203416,1,0,0:0:0:0:
358,192,203416,1,0,0:0:0:0:
256,192,203848,1,0,0:0:0:0:
460,192,204163,1,0,0:0:0:0:
358,192,204320,1,0,0:0:0:0:
51,192,204674,1,0,0:0:0:0:
153,192,205617,1,0,0:0:0:0:
358,192,205617,1,0,0:0:0:0:
153,192,205774,1,0,0:0:0:0:
358,192,205774,1,0,0:0:0:0:
460,192,205932,1,0,0:0:0:0:
256,192,206246,1,0,0:0:0:0:
51,192,206403,1,0,0:0:0:0:
256,192,206718,1,0,0:0:0:0:
358,192,206914,1,0,0:0:0:0:
153,192,207189,1,0,0:0:0:0:
358,192,208015,1,0,0:0:0:0:
153,192,208191,1,0,0:0:0:0:
51,192,208486,128,0,209331:0:0:0:0:
460,192,208486,128,0,209331:0:0:0:0:
256,192,209626,1,0,0:0:0:0:
153,192,209803,128,0,210687:0:0:0:0:
358,192,209803,128,0,210687:0:0:0:0:
256,192,210923,1,0,0:0:0:0:
153,192,211100,1,0,0:0:0:0:
358,192,211100,1,0,0:0:0:0:
256,192,211493,1,0,0:0:0:0:
153,192,211807,1,0,0:0:0:0:
256,192,212024,1,0,0:0:0:0:
358,192,212338,1,0,0:0:0:0:
153,192,212672,1,0,0:0:0:0:
460,192,212829,1,0,0:0:0:0:
460,192,213321,1,0,0:0:0:0:
256,192,213478,1,0,0:0:0:0:
51,192,213635,1,0,0:0:0:0:
153,192,213949,1,0,0:0:0:0:
460,192,214107,1,0,0:0:0:0:
256,192,214264,1,0,0:0:0:0:
51,192,214441,1,0,0:0:0:0:
460,192,214618,1,0,0:0:0:0:
153,192,214893,1,0,0:0:0:0:
358,192,215050,1,0,0:0:0:0:
358,192,215208,1,0,0:0:0:0:
256,192,215384,1,0,0:0:0:0:
256,192,215541,1,0,0:0:0:0:
153,192,215679,1,0,0:0:0:0:
460,192,215836,1,0,0:0:0:0:
153,192,216170,128,0,217506:0:0:0:0:
358,192,216170,128,0,217506:0:0:0:0:
51,192,218233,1,0,0:0:0:0:
153,192,218391,1,0,0:0:0:0:
460,192,218725,128,0,219648:0:0:0:0:
256,192,218725,128,0,219648:0:0:0:0:
51,192,219845,1,0,0:0:0:0:
153,192,220002,128,0,220847:0:0:0:0:
358,192,220002,128,0,220847:0:0:0:0:
51,192,221063,1,0,0:0:0:0:
358,192,221240,1,0,0:0:0:0:
358,192,221692,1,0,0:0:0:0:
256,192,221869,1,0,0:0:0:0:
153,192,222046,1,0,0:0:0:0:
51,192,222223,1,0,0:0:0:0:
256,192,222557,1,0,0:0:0:0:
153,192,222910,1,0,0:0:0:0:
358,192,223068,1,0,0:0:0:0:
256,192,223539,1,0,0:0:0:0:
256,192,223697,1,0,0:0:0:0:
153,192,223854,1,0,0:0:0:0:
358,192,223854,1,0,0:0:0:0:
51,192,224306,1,0,0:0:0:0:
460,192,224600,1,0,0:0:0:0:
256,192,224758,1,0,0:0:0:0:
51,192,225111,1,0,0:0:0:0:
153,192,226015,1,0,0:0:0:0:
358,192,226015,1,0,0:0:0:0:
358,192,226192,1,0,0:0:0:0:
153,192,226192,1,0,0:0:0:0:
460,192,226369,1,0,0:0:0:0:
256,192,226821,1,0,0:0:0:0:
358,192,227195,1,0,0:0:0:0:
153,192,227352,1,0,0:0:0:0:
51,192,227666,1,0,0:0:0:0:
460,192,227823,1,0,0:0:0:0:
358,192,228138,1,0,0:0:0:0:
51,192,228433,1,0,0:0:0:0:
256,192,228433,1,0,0:0:0:0:
153,192,228629,1,0,0:0:0:0:
358,192,228629,1,0,0:0:0:0:
51,192,228885,128,0,232186:0:0:0:0:
460,192,228885,128,0,232186:0:0:0:0:
51,192,234073,1,0,0:0:0:0:
460,192,234073,1,0,0:0:0:0:
153,192,234544,1,0,0:0:0:0:
460,192,234859,1,0,0:0:0:0:
256,192,235016,1,0,0:0:0:0:
51,192,235330,1,0,0:0:0:0:
153,192,235802,1,0,0:0:0:0:
460,192,236116,1,0,0:0:0:0:
256,192,236273,1,0,0:0:0:0:
358,192,236588,1,0,0:0:0:0:
153,192,237060,1,0,0:0:0:0:
256,192,237374,1,0,0:0:0:0:
153,192,237531,1,0,0:0:0:0:
358,192,237846,1,0,0:0:0:0:
153,192,238317,1,0,0:0:0:0:
256,192,238632,1,0,0:0:0:0:
460,192,238789,1,0,0:0:0:0:
153,192,239103,1,0,0:0:0:0:
358,192,239103,1,0,0:0:0:0:
256,192,239457,1,0,0:0:0:0:
358,192,239614,1,0,0:0:0:0:
51,192,239811,1,0,0:0:0:0:
153,192,239968,1,0,0:0:0:0:
358,192,240125,1,0,0:0:0:0:
460,192,240282,1,0,0:0:0:0:
460,192,240558,1,0,0:0:0:0:
256,192,240715,1,0,0:0:0:0:
51,192,241068,1,0,0:0:0:0:
256,192,241383,1,0,0:0:0:0:
460,192,241717,1,0,0:0:0:0:
153,192,241717,1,0,0:0:0:0:
153,192,242031,1,0,0:0:0:0:
51,192,242228,1,0,0:0:0:0:
358,192,242483,1,0,0:0:0:0:
256,192,242641,1,0,0:0:0:0:
153,192,242778,1,0,0:0:0:0:
460,192,243152,1,0,0:0:0:0:
256,192,243328,1,0,0:0:0:0:
153,192,243643,1,0,0:0:0:0:
460,192,243957,1,0,0:0:0:0:
256,192,244291,1,0,0:0:0:0:
51,192,244704,1,0,0:0:0:0:
460,192,245077,1,0,0:0:0:0:
256,192,245235,1,0,0:0:0:0:
51,192,245549,1,0,0:0:0:0:
153,192,246021,1,0,0:0:0:0:
460,192,246335,1,0,0:0:0:0:
358,192,246492,1,0,0:0:0:0:
256,192,246807,1,0,0:0:0:0:
153,192,247278,1,0,0:0:0:0:
460,192,247593,1,0,0:0:0:0:
256,192,247750,1,0,0:0:0:0:
153,192,248064,1,0,0:0:0:0:
358,192,248064,1,0,0:0:0:0:
256,192,248536,1,0,0:0:0:0:
358,192,248850,1,0,0:0:0:0:
153,192,248850,1,0,0:0:0:0:
460,192,249165,1,0,0:0:0:0:
51,192,249165,1,0,0:0:0:0:
153,192,249479,1,0,0:0:0:0:
358,192,249479,1,0,0:0:0:0:
153,192,249951,1,0,0:0:0:0:
358,192,249951,1,0,0:0:0:0:
51,192,250423,1,0,0:0:0:0:
256,192,250423,1,0,0:0:0:0:
460,192,250423,1,0,0:0:0:0:
51,192,250599,128,0,252073:0:0:0:0:
460,192,250599,128,0,252073:0:0:0:0:
256,192,250599,128,0,252073:0:0:0:0:
