osu file format v14

[General]
AudioFilename: ilovefishsticks.mp3
AudioLeadIn: 0
PreviewTime: 31227
Countdown: 0
SampleSet: None
StackLeniency: 0.7
Mode: 1
LetterboxInBreaks: 0
WidescreenStoryboard: 1

[Editor]
Bookmarks: 12627,31827,41427,51027,70227,79827,99027,108627,118227,137427,147027,166227,190227,209427,228627,252027
DistanceSpacing: 3.4
BeatDivisor: 3
GridSize: 32
TimelineZoom: 1.8

[Metadata]
Title:Der Fluch des Kaept'n Iglo
TitleUnicode:Der Fluch des Käpt’n Iglo
Artist:NanowaR Of Steel
ArtistUnicode:NanowaR Of Steel
Creator:Capu
Version:Inner Oni
Source:
Tags:italian folk metal deutsch german potowotominimak carlo alberto fiaschi mr baffo raffaello venditti mohamed abdul valerio storch gatto panceri 666 edoardo carlesi uinona raider alessandro milone maurizio merluzzo mark the hammer marco arata napalm records nos captain raiden arach vized
BeatmapID:3038053
BeatmapSetID:1462578

[Difficulty]
HPDrainRate:5
CircleSize:2
OverallDifficulty:6.5
ApproachRate:10
SliderMultiplier:1.4
SliderTickRate:1

[Events]
//Background and Video events
0,0,"iglobg.jpeg",0,0
//Break Periods
//Storyboard Layer 0 (Background)
//Storyboard Layer 1 (Fail)
//Storyboard Layer 2 (Pass)
//Storyboard Layer 3 (Foreground)
//Storyboard Layer 4 (Overlay)
//Storyboard Sound Samples

[TimingPoints]
627,300,4,1,0,80,1,0
31827,-100,4,1,0,80,0,1
40827,-100,4,1,0,80,0,0
79827,-100,4,1,0,80,0,1
98427,-100,4,1,0,80,0,0
99027,-100,4,1,0,80,0,1
108027,-100,4,1,0,80,0,0
147027,-100,4,1,0,80,0,1
165627,-100,4,1,0,80,0,0
165827,-105.263157894737,4,1,0,80,0,0
166027,-111.111111111111,4,1,0,80,0,0
166227,-117.647058823529,4,1,0,80,0,0
180027,-114.942528735632,4,1,0,80,0,0
180227,-112.359550561798,4,1,0,80,0,0
180427,-109.89010989011,4,1,0,80,0,0
180627,-107.52688172043,4,1,0,80,0,0
189027,-107.52688172043,4,1,0,80,0,0
189127,-106.860097691501,4,1,0,80,0,0
189227,-106.201532275708,4,1,0,80,0,0
189327,-105.551034452913,4,1,0,80,0,0
189427,-104.908456880526,4,1,0,80,0,0
189527,-104.273547052395,4,1,0,80,0,0
189627,-103.64638341492,4,1,0,80,0,0
189727,-103.026718949292,4,1,0,80,0,0
189827,-102.414419950329,4,1,0,80,0,0
189927,-101.809355872567,4,1,0,80,0,0
190027,-101.211399237473,4,1,0,80,0,0
190127,-100.620425543904,4,1,0,80,0,0
190227,-100.036313181685,4,1,0,80,0,0
228627,-100.036313181685,4,1,0,80,0,1
252027,-100.036313181685,4,1,0,80,0,0

[HitObjects]
256,192,11427,5,8,0:0:0:0:
256,192,11527,1,8,0:0:0:0:
256,192,11627,1,8,0:0:0:0:
256,192,11727,1,8,0:0:0:0:
256,192,11827,1,8,0:0:0:0:
256,192,11927,1,8,0:0:0:0:
256,192,12027,1,4,0:0:0:0:
256,192,12327,1,4,0:0:0:0:
256,192,12627,1,12,0:0:0:0:
256,192,12827,1,0,0:0:0:0:
256,192,12927,1,8,0:0:0:0:
256,192,13127,1,0,0:0:0:0:
256,192,13227,1,8,0:0:0:0:
256,192,13327,1,0,0:0:0:0:
256,192,13427,1,8,0:0:0:0:
256,192,13527,1,8,0:0:0:0:
256,192,13727,1,0,0:0:0:0:
256,192,13827,1,8,0:0:0:0:
256,192,14027,1,8,0:0:0:0:
256,192,14127,1,0,0:0:0:0:
256,192,14327,1,8,0:0:0:0:
256,192,14427,1,0,0:0:0:0:
256,192,14527,1,0,0:0:0:0:
256,192,14627,1,0,0:0:0:0:
256,192,14727,1,8,0:0:0:0:
256,192,14927,1,8,0:0:0:0:
256,192,15027,1,0,0:0:0:0:
256,192,15227,1,0,0:0:0:0:
256,192,15327,1,8,0:0:0:0:
256,192,15527,1,0,0:0:0:0:
256,192,15627,1,8,0:0:0:0:
256,192,15727,1,8,0:0:0:0:
256,192,15827,1,8,0:0:0:0:
256,192,15927,1,0,0:0:0:0:
256,192,16127,1,8,0:0:0:0:
256,192,16227,1,0,0:0:0:0:
256,192,16327,1,0,0:0:0:0:
256,192,16427,1,0,0:0:0:0:
256,192,16527,1,8,0:0:0:0:
256,192,16727,1,8,0:0:0:0:
256,192,16827,1,4,0:0:0:0:
256,192,17127,1,4,0:0:0:0:
256,192,17427,1,12,0:0:0:0:
256,192,17627,1,0,0:0:0:0:
256,192,17727,1,8,0:0:0:0:
256,192,17927,1,8,0:0:0:0:
256,192,18027,1,8,0:0:0:0:
256,192,18127,1,0,0:0:0:0:
256,192,18227,1,0,0:0:0:0:
256,192,18327,1,8,0:0:0:0:
256,192,18527,1,0,0:0:0:0:
256,192,18627,1,8,0:0:0:0:
256,192,18827,1,8,0:0:0:0:
256,192,18927,1,8,0:0:0:0:
256,192,19127,1,0,0:0:0:0:
256,192,19227,1,0,0:0:0:0:
256,192,19327,1,8,0:0:0:0:
256,192,19427,1,8,0:0:0:0:
256,192,19527,1,0,0:0:0:0:
256,192,19727,1,8,0:0:0:0:
256,192,19827,1,0,0:0:0:0:
256,192,20027,1,0,0:0:0:0:
256,192,20127,1,8,0:0:0:0:
256,192,20327,1,8,0:0:0:0:
256,192,20427,1,8,0:0:0:0:
256,192,20527,1,0,0:0:0:0:
256,192,20627,1,0,0:0:0:0:
256,192,20727,1,8,0:0:0:0:
256,192,20927,1,8,0:0:0:0:
256,192,21027,1,0,0:0:0:0:
256,192,21127,1,0,0:0:0:0:
256,192,21227,1,0,0:0:0:0:
256,192,21327,1,8,0:0:0:0:
256,192,21527,1,8,0:0:0:0:
256,192,21627,1,0,0:0:0:0:
256,192,21727,1,0,0:0:0:0:
256,192,21827,1,0,0:0:0:0:
256,192,21927,1,8,0:0:0:0:
256,192,22027,1,8,0:0:0:0:
256,192,22127,1,8,0:0:0:0:
256,192,22227,1,4,0:0:0:0:
256,192,22527,1,8,0:0:0:0:
256,192,22727,1,0,0:0:0:0:
256,192,22827,1,8,0:0:0:0:
256,192,22927,1,0,0:0:0:0:
256,192,23027,1,8,0:0:0:0:
256,192,23127,1,8,0:0:0:0:
256,192,23327,1,0,0:0:0:0:
256,192,23427,1,8,0:0:0:0:
256,192,23627,1,8,0:0:0:0:
256,192,23727,1,0,0:0:0:0:
256,192,23927,1,8,0:0:0:0:
256,192,24027,1,0,0:0:0:0:
256,192,24127,1,0,0:0:0:0:
256,192,24227,1,0,0:0:0:0:
256,192,24327,1,8,0:0:0:0:
256,192,24527,1,8,0:0:0:0:
256,192,24627,1,0,0:0:0:0:
256,192,24827,1,0,0:0:0:0:
256,192,24927,1,8,0:0:0:0:
256,192,25127,1,0,0:0:0:0:
256,192,25227,1,8,0:0:0:0:
256,192,25327,1,8,0:0:0:0:
256,192,25427,1,8,0:0:0:0:
256,192,25527,1,0,0:0:0:0:
256,192,25727,1,8,0:0:0:0:
256,192,25827,1,0,0:0:0:0:
256,192,25927,1,0,0:0:0:0:
256,192,26027,1,0,0:0:0:0:
256,192,26127,1,8,0:0:0:0:
256,192,26327,1,8,0:0:0:0:
256,192,26427,1,4,0:0:0:0:
256,192,26727,1,4,0:0:0:0:
256,192,27027,1,12,0:0:0:0:
256,192,27227,1,0,0:0:0:0:
256,192,27327,1,8,0:0:0:0:
256,192,27527,1,8,0:0:0:0:
256,192,27627,1,8,0:0:0:0:
256,192,27727,1,0,0:0:0:0:
256,192,27827,1,0,0:0:0:0:
256,192,27927,1,8,0:0:0:0:
256,192,28127,1,0,0:0:0:0:
256,192,28227,1,8,0:0:0:0:
256,192,28427,1,8,0:0:0:0:
256,192,28527,1,8,0:0:0:0:
256,192,28727,1,0,0:0:0:0:
256,192,28827,1,0,0:0:0:0:
256,192,28927,1,8,0:0:0:0:
256,192,29027,1,8,0:0:0:0:
256,192,29127,1,0,0:0:0:0:
256,192,29327,1,8,0:0:0:0:
256,192,29427,1,8,0:0:0:0:
256,192,29627,1,0,0:0:0:0:
256,192,29727,1,8,0:0:0:0:
256,192,29927,1,0,0:0:0:0:
256,192,30027,1,8,0:0:0:0:
256,192,30127,1,8,0:0:0:0:
256,192,30227,1,8,0:0:0:0:
256,192,30327,1,0,0:0:0:0:
256,192,30527,1,0,0:0:0:0:
256,192,30627,1,8,0:0:0:0:
256,192,30727,1,8,0:0:0:0:
256,192,30827,1,8,0:0:0:0:
256,192,30927,1,8,0:0:0:0:
256,192,31027,1,8,0:0:0:0:
256,192,31127,1,8,0:0:0:0:
256,192,31227,1,4,0:0:0:0:
256,192,31527,1,4,0:0:0:0:
256,192,31827,1,12,0:0:0:0:
256,192,32027,1,0,0:0:0:0:
256,192,32127,1,8,0:0:0:0:
256,192,32327,1,0,0:0:0:0:
256,192,32427,1,8,0:0:0:0:
256,192,32527,1,8,0:0:0:0:
256,192,32627,1,0,0:0:0:0:
256,192,32727,1,8,0:0:0:0:
256,192,32827,1,0,0:0:0:0:
256,192,32927,1,0,0:0:0:0:
256,192,33027,1,8,0:0:0:0:
256,192,33227,1,0,0:0:0:0:
256,192,33327,1,8,0:0:0:0:
256,192,33527,1,0,0:0:0:0:
256,192,33627,1,8,0:0:0:0:
256,192,33727,1,0,0:0:0:0:
256,192,33827,1,0,0:0:0:0:
256,192,33927,1,8,0:0:0:0:
256,192,34027,1,0,0:0:0:0:
256,192,34127,1,0,0:0:0:0:
256,192,34227,1,8,0:0:0:0:
256,192,34427,1,0,0:0:0:0:
256,192,34527,1,8,0:0:0:0:
256,192,34727,1,0,0:0:0:0:
256,192,34827,1,8,0:0:0:0:
256,192,34927,1,0,0:0:0:0:
256,192,35027,1,0,0:0:0:0:
256,192,35127,1,8,0:0:0:0:
256,192,35227,1,8,0:0:0:0:
256,192,35327,1,0,0:0:0:0:
256,192,35427,1,8,0:0:0:0:
256,192,35627,1,0,0:0:0:0:
256,192,35727,1,8,0:0:0:0:
256,192,35927,1,0,0:0:0:0:
256,192,36027,1,8,0:0:0:0:
256,192,36127,1,8,0:0:0:0:
256,192,36227,1,0,0:0:0:0:
256,192,36327,1,8,0:0:0:0:
256,192,36427,1,8,0:0:0:0:
256,192,36527,1,8,0:0:0:0:
256,192,36627,1,4,0:0:0:0:
256,192,36827,1,0,0:0:0:0:
256,192,36927,1,8,0:0:0:0:
256,192,37127,1,0,0:0:0:0:
256,192,37227,1,8,0:0:0:0:
256,192,37327,1,8,0:0:0:0:
256,192,37427,1,0,0:0:0:0:
256,192,37527,1,8,0:0:0:0:
256,192,37627,1,0,0:0:0:0:
256,192,37727,1,0,0:0:0:0:
256,192,37827,1,8,0:0:0:0:
256,192,38027,1,0,0:0:0:0:
256,192,38127,1,8,0:0:0:0:
256,192,38327,1,0,0:0:0:0:
256,192,38427,1,8,0:0:0:0:
256,192,38527,1,0,0:0:0:0:
256,192,38627,1,0,0:0:0:0:
256,192,38727,1,8,0:0:0:0:
256,192,38827,1,0,0:0:0:0:
256,192,38927,1,0,0:0:0:0:
256,192,39027,1,8,0:0:0:0:
256,192,39227,1,0,0:0:0:0:
256,192,39327,1,8,0:0:0:0:
256,192,39527,1,0,0:0:0:0:
256,192,39627,1,8,0:0:0:0:
256,192,39727,1,0,0:0:0:0:
256,192,39827,1,0,0:0:0:0:
256,192,39927,1,8,0:0:0:0:
256,192,40027,1,8,0:0:0:0:
256,192,40127,1,0,0:0:0:0:
256,192,40227,1,8,0:0:0:0:
256,192,40327,1,8,0:0:0:0:
256,192,40427,1,8,0:0:0:0:
256,192,40527,1,8,0:0:0:0:
256,192,40627,1,0,0:0:0:0:
256,192,40727,1,0,0:0:0:0:
256,192,40827,1,0,0:0:0:0:
256,192,41127,1,0,0:0:0:0:
256,192,41427,1,12,0:0:0:0:
256,192,41727,1,8,0:0:0:0:
256,192,42027,1,0,0:0:0:0:
256,192,42127,1,0,0:0:0:0:
256,192,42227,1,0,0:0:0:0:
256,192,42327,1,8,0:0:0:0:
256,192,42527,1,8,0:0:0:0:
256,192,42627,1,0,0:0:0:0:
256,192,42827,1,0,0:0:0:0:
256,192,42927,1,8,0:0:0:0:
256,192,43127,1,8,0:0:0:0:
256,192,43227,1,0,0:0:0:0:
256,192,43327,1,0,0:0:0:0:
256,192,43427,1,0,0:0:0:0:
256,192,43527,1,8,0:0:0:0:
256,192,43727,1,0,0:0:0:0:
256,192,43827,1,8,0:0:0:0:
256,192,44027,1,8,0:0:0:0:
256,192,44127,1,0,0:0:0:0:
256,192,44327,1,8,0:0:0:0:
256,192,44427,1,8,0:0:0:0:
256,192,44527,1,0,0:0:0:0:
256,192,44627,1,0,0:0:0:0:
256,192,44727,1,8,0:0:0:0:
256,192,44927,1,0,0:0:0:0:
256,192,45027,1,8,0:0:0:0:
256,192,45227,1,0,0:0:0:0:
256,192,45327,1,8,0:0:0:0:
256,192,45427,1,8,0:0:0:0:
256,192,45527,1,8,0:0:0:0:
256,192,45627,1,4,0:0:0:0:
256,192,45927,1,4,0:0:0:0:
256,192,46227,1,12,0:0:0:0:
256,192,46527,1,8,0:0:0:0:
256,192,46727,1,0,0:0:0:0:
256,192,46827,1,8,0:0:0:0:
256,192,46927,1,0,0:0:0:0:
256,192,47027,1,0,0:0:0:0:
256,192,47127,1,8,0:0:0:0:
256,192,47327,1,8,0:0:0:0:
256,192,47427,1,0,0:0:0:0:
256,192,47627,1,0,0:0:0:0:
256,192,47727,1,8,0:0:0:0:
256,192,47927,1,8,0:0:0:0:
256,192,48027,1,8,0:0:0:0:
256,192,48127,1,0,0:0:0:0:
256,192,48227,1,0,0:0:0:0:
256,192,48327,1,8,0:0:0:0:
256,192,48527,1,8,0:0:0:0:
256,192,48627,1,0,0:0:0:0:
256,192,48827,1,8,0:0:0:0:
256,192,48927,1,8,0:0:0:0:
256,192,49127,1,0,0:0:0:0:
256,192,49227,1,8,0:0:0:0:
256,192,49327,1,0,0:0:0:0:
256,192,49427,1,0,0:0:0:0:
256,192,49527,1,8,0:0:0:0:
256,192,49727,1,8,0:0:0:0:
256,192,49827,1,0,0:0:0:0:
256,192,50027,1,0,0:0:0:0:
256,192,50127,1,8,0:0:0:0:
256,192,50427,1,0,0:0:0:0:
256,192,50527,1,0,0:0:0:0:
256,192,50627,1,0,0:0:0:0:
256,192,50727,1,8,0:0:0:0:
256,192,50827,1,8,0:0:0:0:
256,192,50927,1,8,0:0:0:0:
256,192,51027,1,0,0:0:0:0:
256,192,51227,1,0,0:0:0:0:
256,192,51327,1,8,0:0:0:0:
256,192,51527,1,0,0:0:0:0:
256,192,51627,1,0,0:0:0:0:
256,192,51827,1,0,0:0:0:0:
256,192,51927,1,8,0:0:0:0:
256,192,52127,1,8,0:0:0:0:
256,192,52227,1,0,0:0:0:0:
256,192,52427,1,8,0:0:0:0:
256,192,52527,1,8,0:0:0:0:
256,192,52727,1,8,0:0:0:0:
256,192,52827,1,0,0:0:0:0:
256,192,53027,1,0,0:0:0:0:
256,192,53127,1,8,0:0:0:0:
256,192,53327,1,0,0:0:0:0:
256,192,53427,1,0,0:0:0:0:
256,192,53627,1,0,0:0:0:0:
256,192,53727,1,8,0:0:0:0:
256,192,53927,1,8,0:0:0:0:
256,192,54027,1,0,0:0:0:0:
256,192,54227,1,8,0:0:0:0:
256,192,54327,1,8,0:0:0:0:
256,192,54527,1,0,0:0:0:0:
256,192,54627,1,8,0:0:0:0:
256,192,54727,1,8,0:0:0:0:
256,192,54827,1,8,0:0:0:0:
256,192,54927,1,0,0:0:0:0:
256,192,55127,1,0,0:0:0:0:
256,192,55227,1,8,0:0:0:0:
256,192,55327,1,8,0:0:0:0:
256,192,55427,1,0,0:0:0:0:
256,192,55527,1,8,0:0:0:0:
256,192,55627,1,8,0:0:0:0:
256,192,55727,1,8,0:0:0:0:
256,192,55827,1,0,0:0:0:0:
256,192,56027,1,8,0:0:0:0:
256,192,56127,1,8,0:0:0:0:
256,192,56327,1,0,0:0:0:0:
256,192,56427,1,0,0:0:0:0:
256,192,56627,1,0,0:0:0:0:
256,192,56727,1,8,0:0:0:0:
256,192,56927,1,8,0:0:0:0:
256,192,57027,1,0,0:0:0:0:
256,192,57227,1,0,0:0:0:0:
256,192,57327,1,8,0:0:0:0:
256,192,57527,1,0,0:0:0:0:
256,192,57627,1,0,0:0:0:0:
256,192,57827,1,0,0:0:0:0:
256,192,57927,1,8,0:0:0:0:
256,192,58127,1,8,0:0:0:0:
256,192,58227,1,0,0:0:0:0:
256,192,58427,1,8,0:0:0:0:
256,192,58527,1,8,0:0:0:0:
256,192,58727,1,8,0:0:0:0:
256,192,58827,1,0,0:0:0:0:
256,192,59027,1,0,0:0:0:0:
256,192,59127,1,8,0:0:0:0:
256,192,59327,1,0,0:0:0:0:
256,192,59427,1,8,0:0:0:0:
256,192,59527,1,8,0:0:0:0:
256,192,59627,1,8,0:0:0:0:
256,192,59727,1,0,0:0:0:0:
256,192,59927,1,0,0:0:0:0:
256,192,60027,1,8,0:0:0:0:
256,192,60127,1,8,0:0:0:0:
256,192,60227,1,0,0:0:0:0:
256,192,60327,1,8,0:0:0:0:
256,192,60427,1,8,0:0:0:0:
256,192,60527,1,8,0:0:0:0:
256,192,60627,1,0,0:0:0:0:
256,192,60827,1,0,0:0:0:0:
256,192,60927,1,8,0:0:0:0:
256,192,61127,1,0,0:0:0:0:
256,192,61227,1,0,0:0:0:0:
256,192,61427,1,0,0:0:0:0:
256,192,61527,1,8,0:0:0:0:
256,192,61727,1,8,0:0:0:0:
256,192,61827,1,0,0:0:0:0:
256,192,62027,1,8,0:0:0:0:
256,192,62127,1,8,0:0:0:0:
256,192,62327,1,8,0:0:0:0:
256,192,62427,1,0,0:0:0:0:
256,192,62627,1,0,0:0:0:0:
256,192,62727,1,8,0:0:0:0:
256,192,62927,1,0,0:0:0:0:
256,192,63027,1,0,0:0:0:0:
256,192,63227,1,0,0:0:0:0:
256,192,63327,1,8,0:0:0:0:
256,192,63527,1,8,0:0:0:0:
256,192,63627,1,0,0:0:0:0:
256,192,63827,1,8,0:0:0:0:
256,192,63927,1,8,0:0:0:0:
256,192,64127,1,0,0:0:0:0:
256,192,64227,1,8,0:0:0:0:
256,192,64327,1,0,0:0:0:0:
256,192,64427,1,0,0:0:0:0:
256,192,64527,1,8,0:0:0:0:
256,192,64627,1,8,0:0:0:0:
256,192,64727,1,8,0:0:0:0:
256,192,64827,1,4,0:0:0:0:
256,192,65127,1,4,0:0:0:0:
256,192,65427,1,8,0:0:0:0:
256,192,65527,1,0,0:0:0:0:
256,192,65627,1,0,0:0:0:0:
256,192,65727,1,8,0:0:0:0:
256,192,65927,1,0,0:0:0:0:
256,192,66027,1,8,0:0:0:0:
256,192,66127,1,0,0:0:0:0:
256,192,66227,1,0,0:0:0:0:
256,192,66327,1,8,0:0:0:0:
256,192,66627,1,8,0:0:0:0:
256,192,66727,1,0,0:0:0:0:
256,192,66827,1,0,0:0:0:0:
256,192,66927,1,8,0:0:0:0:
256,192,67127,1,0,0:0:0:0:
256,192,67227,1,8,0:0:0:0:
256,192,67327,1,0,0:0:0:0:
256,192,67427,1,0,0:0:0:0:
256,192,67527,1,8,0:0:0:0:
256,192,67827,1,8,0:0:0:0:
256,192,67927,1,8,0:0:0:0:
256,192,68027,1,8,0:0:0:0:
256,192,68127,1,8,0:0:0:0:
256,192,68227,1,8,0:0:0:0:
256,192,68327,1,8,0:0:0:0:
256,192,68427,1,8,0:0:0:0:
256,192,68527,1,8,0:0:0:0:
256,192,68627,1,0,0:0:0:0:
256,192,68727,1,0,0:0:0:0:
256,192,68827,1,0,0:0:0:0:
256,192,68927,1,0,0:0:0:0:
256,192,69027,1,0,0:0:0:0:
256,192,69127,1,0,0:0:0:0:
256,192,69227,1,0,0:0:0:0:
256,192,69327,1,0,0:0:0:0:
256,192,69427,1,0,0:0:0:0:
256,192,69527,1,0,0:0:0:0:
256,192,69627,1,0,0:0:0:0:
256,192,69727,1,0,0:0:0:0:
256,192,69827,1,0,0:0:0:0:
256,192,69927,1,8,0:0:0:0:
256,192,70027,1,8,0:0:0:0:
256,192,70127,1,8,0:0:0:0:
256,192,70227,1,0,0:0:0:0:
256,192,70427,1,0,0:0:0:0:
256,192,70527,1,8,0:0:0:0:
256,192,70827,1,8,0:0:0:0:
256,192,71027,1,0,0:0:0:0:
256,192,71127,1,8,0:0:0:0:
256,192,71227,1,0,0:0:0:0:
256,192,71327,1,0,0:0:0:0:
256,192,71427,1,8,0:0:0:0:
256,192,71627,1,8,0:0:0:0:
256,192,71727,1,0,0:0:0:0:
256,192,71827,1,0,0:0:0:0:
256,192,71927,1,0,0:0:0:0:
256,192,72027,1,12,0:0:0:0:
256,192,72327,1,8,0:0:0:0:
256,192,72627,1,0,0:0:0:0:
256,192,72827,1,0,0:0:0:0:
256,192,72927,1,8,0:0:0:0:
256,192,73227,1,0,0:0:0:0:
256,192,73427,1,0,0:0:0:0:
256,192,73527,1,8,0:0:0:0:
256,192,73627,1,0,0:0:0:0:
256,192,73727,1,8,0:0:0:0:
256,192,73827,1,0,0:0:0:0:
256,192,74027,1,0,0:0:0:0:
256,192,74127,1,8,0:0:0:0:
256,192,74227,1,0,0:0:0:0:
256,192,74327,1,0,0:0:0:0:
256,192,74427,1,12,0:0:0:0:
256,192,74727,1,8,0:0:0:0:
256,192,75027,1,0,0:0:0:0:
256,192,75227,1,0,0:0:0:0:
256,192,75327,1,8,0:0:0:0:
256,192,75627,1,8,0:0:0:0:
256,192,75827,1,0,0:0:0:0:
256,192,75927,1,8,0:0:0:0:
256,192,76027,1,8,0:0:0:0:
256,192,76127,1,8,0:0:0:0:
256,192,76227,1,0,0:0:0:0:
256,192,76427,1,0,0:0:0:0:
256,192,76527,1,8,0:0:0:0:
256,192,76627,1,0,0:0:0:0:
256,192,76727,1,0,0:0:0:0:
256,192,76827,1,12,0:0:0:0:
256,192,77127,1,8,0:0:0:0:
256,192,77427,1,0,0:0:0:0:
256,192,77627,1,0,0:0:0:0:
256,192,77727,1,8,0:0:0:0:
256,192,78027,1,0,0:0:0:0:
256,192,78227,1,8,0:0:0:0:
256,192,78327,1,8,0:0:0:0:
256,192,78627,1,8,0:0:0:0:
256,192,78727,1,8,0:0:0:0:
256,192,78827,1,8,0:0:0:0:
256,192,78927,1,8,0:0:0:0:
256,192,79027,1,8,0:0:0:0:
256,192,79127,1,8,0:0:0:0:
256,192,79227,1,0,0:0:0:0:
256,192,79327,1,0,0:0:0:0:
256,192,79427,1,0,0:0:0:0:
256,192,79527,1,0,0:0:0:0:
256,192,79627,1,0,0:0:0:0:
256,192,79727,1,0,0:0:0:0:
256,192,79827,1,12,0:0:0:0:
256,192,80027,1,0,0:0:0:0:
256,192,80127,1,8,0:0:0:0:
256,192,80327,1,0,0:0:0:0:
256,192,80427,1,8,0:0:0:0:
256,192,80527,1,8,0:0:0:0:
256,192,80627,1,0,0:0:0:0:
256,192,80727,1,8,0:0:0:0:
256,192,80827,1,0,0:0:0:0:
256,192,80927,1,0,0:0:0:0:
256,192,81027,1,8,0:0:0:0:
256,192,81227,1,8,0:0:0:0:
256,192,81327,1,0,0:0:0:0:
256,192,81527,1,0,0:0:0:0:
256,192,81627,1,8,0:0:0:0:
256,192,81727,1,0,0:0:0:0:
256,192,81827,1,0,0:0:0:0:
256,192,81927,1,8,0:0:0:0:
256,192,82027,1,8,0:0:0:0:
256,192,82127,1,0,0:0:0:0:
256,192,82227,1,8,0:0:0:0:
256,192,82427,1,8,0:0:0:0:
256,192,82527,1,8,0:0:0:0:
256,192,82727,1,0,0:0:0:0:
256,192,82827,1,8,0:0:0:0:
256,192,82927,1,0,0:0:0:0:
256,192,83027,1,0,0:0:0:0:
256,192,83127,1,8,0:0:0:0:
256,192,83227,1,8,0:0:0:0:
256,192,83327,1,8,0:0:0:0:
256,192,83427,1,0,0:0:0:0:
256,192,83527,1,0,0:0:0:0:
256,192,83627,1,0,0:0:0:0:
256,192,83727,1,8,0:0:0:0:
256,192,83827,1,0,0:0:0:0:
256,192,83927,1,0,0:0:0:0:
256,192,84027,1,12,0:0:0:0:
256,192,84327,1,12,0:0:0:0:
256,192,84627,1,4,0:0:0:0:
256,192,84827,1,0,0:0:0:0:
256,192,84927,1,8,0:0:0:0:
256,192,85127,1,8,0:0:0:0:
256,192,85227,1,0,0:0:0:0:
256,192,85327,1,0,0:0:0:0:
256,192,85427,1,0,0:0:0:0:
256,192,85527,1,8,0:0:0:0:
256,192,85627,1,8,0:0:0:0:
256,192,85727,1,0,0:0:0:0:
256,192,85827,1,8,0:0:0:0:
256,192,86027,1,8,0:0:0:0:
256,192,86127,1,0,0:0:0:0:
256,192,86327,1,0,0:0:0:0:
256,192,86427,1,8,0:0:0:0:
256,192,86527,1,0,0:0:0:0:
256,192,86627,1,8,0:0:0:0:
256,192,86727,1,8,0:0:0:0:
256,192,86827,1,0,0:0:0:0:
256,192,86927,1,0,0:0:0:0:
256,192,87027,1,8,0:0:0:0:
256,192,87227,1,0,0:0:0:0:
256,192,87327,1,8,0:0:0:0:
256,192,87427,1,0,0:0:0:0:
256,192,87527,1,0,0:0:0:0:
256,192,87627,1,8,0:0:0:0:
256,192,87727,1,8,0:0:0:0:
256,192,87827,1,8,0:0:0:0:
256,192,87927,1,0,0:0:0:0:
256,192,88027,1,0,0:0:0:0:
256,192,88127,1,0,0:0:0:0:
256,192,88227,1,8,0:0:0:0:
256,192,88327,1,0,0:0:0:0:
256,192,88427,1,0,0:0:0:0:
256,192,88527,1,8,0:0:0:0:
256,192,88727,1,0,0:0:0:0:
256,192,88827,1,8,0:0:0:0:
256,192,88927,1,0,0:0:0:0:
256,192,89027,1,0,0:0:0:0:
256,192,89127,1,8,0:0:0:0:
256,192,89227,1,8,0:0:0:0:
256,192,89327,1,8,0:0:0:0:
256,192,89427,1,0,0:0:0:0:
256,192,89627,1,0,0:0:0:0:
256,192,89727,1,8,0:0:0:0:
256,192,89927,1,8,0:0:0:0:
256,192,90027,1,0,0:0:0:0:
256,192,90227,1,0,0:0:0:0:
256,192,90327,1,8,0:0:0:0:
256,192,90527,1,8,0:0:0:0:
256,192,90627,1,8,0:0:0:0:
256,192,90827,1,0,0:0:0:0:
256,192,90927,1,0,0:0:0:0:
256,192,91127,1,0,0:0:0:0:
256,192,91227,1,8,0:0:0:0:
256,192,91427,1,8,0:0:0:0:
256,192,91527,1,0,0:0:0:0:
256,192,91727,1,0,0:0:0:0:
256,192,91827,1,8,0:0:0:0:
256,192,92027,1,0,0:0:0:0:
256,192,92127,1,0,0:0:0:0:
256,192,92327,1,8,0:0:0:0:
256,192,92427,1,8,0:0:0:0:
256,192,92627,1,0,0:0:0:0:
256,192,92727,1,8,0:0:0:0:
256,192,92927,1,8,0:0:0:0:
256,192,93027,1,0,0:0:0:0:
256,192,93227,1,0,0:0:0:0:
256,192,93327,1,8,0:0:0:0:
256,192,93527,1,8,0:0:0:0:
256,192,93627,1,0,0:0:0:0:
256,192,93827,1,0,0:0:0:0:
256,192,93927,1,8,0:0:0:0:
256,192,94027,1,8,0:0:0:0:
256,192,94127,1,8,0:0:0:0:
256,192,94227,1,4,0:0:0:0:
256,192,94427,1,8,0:0:0:0:
256,192,94527,1,8,0:0:0:0:
256,192,94627,1,0,0:0:0:0:
256,192,94727,1,0,0:0:0:0:
256,192,94827,1,8,0:0:0:0:
256,192,94927,1,0,0:0:0:0:
256,192,95027,1,0,0:0:0:0:
256,192,95127,1,8,0:0:0:0:
256,192,95327,1,8,0:0:0:0:
256,192,95427,1,0,0:0:0:0:
256,192,95627,1,0,0:0:0:0:
256,192,95727,1,8,0:0:0:0:
256,192,95927,1,0,0:0:0:0:
256,192,96027,1,8,0:0:0:0:
256,192,96127,1,0,0:0:0:0:
256,192,96227,1,0,0:0:0:0:
256,192,96327,1,8,0:0:0:0:
256,192,96427,1,8,0:0:0:0:
256,192,96527,1,8,0:0:0:0:
256,192,96627,1,0,0:0:0:0:
256,192,96727,1,0,0:0:0:0:
256,192,96827,1,0,0:0:0:0:
256,192,96927,1,8,0:0:0:0:
256,192,97127,1,8,0:0:0:0:
256,192,97227,1,0,0:0:0:0:
256,192,97327,1,0,0:0:0:0:
256,192,97427,1,0,0:0:0:0:
256,192,97527,1,8,0:0:0:0:
256,192,97727,1,0,0:0:0:0:
256,192,97827,1,8,0:0:0:0:
256,192,97927,1,8,0:0:0:0:
256,192,98027,1,8,0:0:0:0:
256,192,98127,1,8,0:0:0:0:
256,192,98227,1,8,0:0:0:0:
256,192,98327,1,8,0:0:0:0:
256,192,98427,1,8,0:0:0:0:
256,192,99027,1,12,0:0:0:0:
256,192,99227,1,0,0:0:0:0:
256,192,99327,1,8,0:0:0:0:
256,192,99527,1,0,0:0:0:0:
256,192,99627,1,8,0:0:0:0:
256,192,99727,1,8,0:0:0:0:
256,192,99827,1,0,0:0:0:0:
256,192,99927,1,8,0:0:0:0:
256,192,100027,1,0,0:0:0:0:
256,192,100127,1,0,0:0:0:0:
256,192,100227,1,8,0:0:0:0:
256,192,100427,1,0,0:0:0:0:
256,192,100527,1,8,0:0:0:0:
256,192,100727,1,0,0:0:0:0:
256,192,100827,1,8,0:0:0:0:
256,192,100927,1,0,0:0:0:0:
256,192,101027,1,0,0:0:0:0:
256,192,101127,1,8,0:0:0:0:
256,192,101227,1,0,0:0:0:0:
256,192,101327,1,0,0:0:0:0:
256,192,101427,1,8,0:0:0:0:
256,192,101627,1,0,0:0:0:0:
256,192,101727,1,8,0:0:0:0:
256,192,101927,1,0,0:0:0:0:
256,192,102027,1,8,0:0:0:0:
256,192,102127,1,0,0:0:0:0:
256,192,102227,1,0,0:0:0:0:
256,192,102327,1,8,0:0:0:0:
256,192,102427,1,8,0:0:0:0:
256,192,102527,1,0,0:0:0:0:
256,192,102627,1,8,0:0:0:0:
256,192,102827,1,0,0:0:0:0:
256,192,102927,1,8,0:0:0:0:
256,192,103127,1,0,0:0:0:0:
256,192,103227,1,8,0:0:0:0:
256,192,103327,1,8,0:0:0:0:
256,192,103427,1,0,0:0:0:0:
256,192,103527,1,8,0:0:0:0:
256,192,103627,1,8,0:0:0:0:
256,192,103727,1,8,0:0:0:0:
256,192,103827,1,4,0:0:0:0:
256,192,104027,1,0,0:0:0:0:
256,192,104127,1,8,0:0:0:0:
256,192,104327,1,0,0:0:0:0:
256,192,104427,1,8,0:0:0:0:
256,192,104527,1,8,0:0:0:0:
256,192,104627,1,0,0:0:0:0:
256,192,104727,1,8,0:0:0:0:
256,192,104827,1,0,0:0:0:0:
256,192,104927,1,0,0:0:0:0:
256,192,105027,1,8,0:0:0:0:
256,192,105227,1,0,0:0:0:0:
256,192,105327,1,8,0:0:0:0:
256,192,105527,1,0,0:0:0:0:
256,192,105627,1,8,0:0:0:0:
256,192,105727,1,0,0:0:0:0:
256,192,105827,1,0,0:0:0:0:
256,192,105927,1,8,0:0:0:0:
256,192,106027,1,0,0:0:0:0:
256,192,106127,1,0,0:0:0:0:
256,192,106227,1,8,0:0:0:0:
256,192,106427,1,0,0:0:0:0:
256,192,106527,1,8,0:0:0:0:
256,192,106727,1,0,0:0:0:0:
256,192,106827,1,8,0:0:0:0:
256,192,106927,1,0,0:0:0:0:
256,192,107027,1,0,0:0:0:0:
256,192,107127,1,8,0:0:0:0:
256,192,107227,1,8,0:0:0:0:
256,192,107327,1,0,0:0:0:0:
256,192,107427,1,8,0:0:0:0:
256,192,107527,1,8,0:0:0:0:
256,192,107627,1,8,0:0:0:0:
256,192,107727,1,8,0:0:0:0:
256,192,107827,1,0,0:0:0:0:
256,192,107927,1,0,0:0:0:0:
256,192,108027,1,0,0:0:0:0:
256,192,108327,1,0,0:0:0:0:
256,192,108627,1,12,0:0:0:0:
256,192,108827,1,0,0:0:0:0:
256,192,108927,1,8,0:0:0:0:
256,192,109127,1,8,0:0:0:0:
256,192,109227,1,0,0:0:0:0:
256,192,109327,1,0,0:0:0:0:
256,192,109427,1,0,0:0:0:0:
256,192,109527,1,8,0:0:0:0:
256,192,109727,1,8,0:0:0:0:
256,192,109827,1,0,0:0:0:0:
256,192,110027,1,0,0:0:0:0:
256,192,110127,1,8,0:0:0:0:
256,192,110327,1,8,0:0:0:0:
256,192,110427,1,8,0:0:0:0:
256,192,110527,1,0,0:0:0:0:
256,192,110627,1,0,0:0:0:0:
256,192,110727,1,8,0:0:0:0:
256,192,110927,1,8,0:0:0:0:
256,192,111027,1,0,0:0:0:0:
256,192,111227,1,0,0:0:0:0:
256,192,111327,1,8,0:0:0:0:
256,192,111527,1,0,0:0:0:0:
256,192,111627,1,8,0:0:0:0:
256,192,111727,1,8,0:0:0:0:
256,192,111827,1,0,0:0:0:0:
256,192,111927,1,8,0:0:0:0:
256,192,112127,1,8,0:0:0:0:
256,192,112227,1,8,0:0:0:0:
256,192,112427,1,0,0:0:0:0:
256,192,112527,1,8,0:0:0:0:
256,192,112627,1,8,0:0:0:0:
256,192,112727,1,8,0:0:0:0:
256,192,112827,1,4,0:0:0:0:
256,192,113127,1,4,0:0:0:0:
256,192,113427,1,12,0:0:0:0:
256,192,113727,1,8,0:0:0:0:
256,192,113927,1,0,0:0:0:0:
256,192,114027,1,8,0:0:0:0:
256,192,114127,1,0,0:0:0:0:
256,192,114227,1,0,0:0:0:0:
256,192,114327,1,8,0:0:0:0:
256,192,114527,1,8,0:0:0:0:
256,192,114627,1,0,0:0:0:0:
256,192,114827,1,8,0:0:0:0:
256,192,114927,1,8,0:0:0:0:
256,192,115127,1,0,0:0:0:0:
256,192,115227,1,8,0:0:0:0:
256,192,115327,1,8,0:0:0:0:
256,192,115427,1,8,0:0:0:0:
256,192,115527,1,0,0:0:0:0:
256,192,115727,1,8,0:0:0:0:
256,192,115827,1,0,0:0:0:0:
256,192,116027,1,0,0:0:0:0:
256,192,116127,1,8,0:0:0:0:
256,192,116327,1,8,0:0:0:0:
256,192,116427,1,8,0:0:0:0:
256,192,116527,1,0,0:0:0:0:
256,192,116627,1,0,0:0:0:0:
256,192,116727,1,8,0:0:0:0:
256,192,116927,1,8,0:0:0:0:
256,192,117027,1,0,0:0:0:0:
256,192,117227,1,0,0:0:0:0:
256,192,117327,1,8,0:0:0:0:
256,192,117627,1,0,0:0:0:0:
256,192,117827,1,0,0:0:0:0:
256,192,117927,1,8,0:0:0:0:
256,192,118027,1,8,0:0:0:0:
256,192,118127,1,8,0:0:0:0:
256,192,118227,1,0,0:0:0:0:
256,192,118427,1,0,0:0:0:0:
256,192,118527,1,8,0:0:0:0:
256,192,118727,1,0,0:0:0:0:
256,192,118827,1,0,0:0:0:0:
256,192,119027,1,8,0:0:0:0:
256,192,119127,1,8,0:0:0:0:
256,192,119327,1,8,0:0:0:0:
256,192,119427,1,0,0:0:0:0:
256,192,119627,1,0,0:0:0:0:
256,192,119727,1,8,0:0:0:0:
256,192,119927,1,0,0:0:0:0:
256,192,120027,1,0,0:0:0:0:
256,192,120227,1,8,0:0:0:0:
256,192,120327,1,8,0:0:0:0:
256,192,120527,1,8,0:0:0:0:
256,192,120627,1,0,0:0:0:0:
256,192,120827,1,0,0:0:0:0:
256,192,120927,1,8,0:0:0:0:
256,192,121127,1,8,0:0:0:0:
256,192,121227,1,0,0:0:0:0:
256,192,121427,1,8,0:0:0:0:
256,192,121527,1,8,0:0:0:0:
256,192,121727,1,0,0:0:0:0:
256,192,121827,1,8,0:0:0:0:
256,192,121927,1,8,0:0:0:0:
256,192,122027,1,8,0:0:0:0:
256,192,122127,1,0,0:0:0:0:
256,192,122327,1,0,0:0:0:0:
256,192,122427,1,8,0:0:0:0:
256,192,122527,1,8,0:0:0:0:
256,192,122627,1,0,0:0:0:0:
256,192,122727,1,8,0:0:0:0:
256,192,122827,1,8,0:0:0:0:
256,192,122927,1,8,0:0:0:0:
256,192,123027,1,0,0:0:0:0:
256,192,123227,1,8,0:0:0:0:
256,192,123327,1,8,0:0:0:0:
256,192,123527,1,8,0:0:0:0:
256,192,123627,1,0,0:0:0:0:
256,192,123827,1,0,0:0:0:0:
256,192,123927,1,8,0:0:0:0:
256,192,124127,1,8,0:0:0:0:
256,192,124227,1,0,0:0:0:0:
256,192,124427,1,8,0:0:0:0:
256,192,124527,1,8,0:0:0:0:
256,192,124727,1,0,0:0:0:0:
256,192,124827,1,0,0:0:0:0:
256,192,125027,1,0,0:0:0:0:
256,192,125127,1,8,0:0:0:0:
256,192,125327,1,8,0:0:0:0:
256,192,125427,1,0,0:0:0:0:
256,192,125627,1,8,0:0:0:0:
256,192,125727,1,8,0:0:0:0:
256,192,125927,1,0,0:0:0:0:
256,192,126027,1,0,0:0:0:0:
256,192,126227,1,0,0:0:0:0:
256,192,126327,1,8,0:0:0:0:
256,192,126527,1,0,0:0:0:0:
256,192,126627,1,8,0:0:0:0:
256,192,126727,1,8,0:0:0:0:
256,192,126827,1,8,0:0:0:0:
256,192,126927,1,0,0:0:0:0:
256,192,127127,1,0,0:0:0:0:
256,192,127227,1,8,0:0:0:0:
256,192,127327,1,8,0:0:0:0:
256,192,127427,1,0,0:0:0:0:
256,192,127527,1,8,0:0:0:0:
256,192,127627,1,8,0:0:0:0:
256,192,127727,1,8,0:0:0:0:
256,192,127827,1,0,0:0:0:0:
256,192,128027,1,0,0:0:0:0:
256,192,128127,1,8,0:0:0:0:
256,192,128327,1,8,0:0:0:0:
256,192,128427,1,0,0:0:0:0:
256,192,128627,1,8,0:0:0:0:
256,192,128727,1,8,0:0:0:0:
256,192,128927,1,8,0:0:0:0:
256,192,129027,1,0,0:0:0:0:
256,192,129227,1,8,0:0:0:0:
256,192,129327,1,8,0:0:0:0:
256,192,129527,1,0,0:0:0:0:
256,192,129627,1,0,0:0:0:0:
256,192,129827,1,0,0:0:0:0:
256,192,129927,1,8,0:0:0:0:
256,192,130127,1,8,0:0:0:0:
256,192,130227,1,0,0:0:0:0:
256,192,130427,1,0,0:0:0:0:
256,192,130527,1,8,0:0:0:0:
256,192,130727,1,8,0:0:0:0:
256,192,130827,1,0,0:0:0:0:
256,192,131027,1,8,0:0:0:0:
256,192,131127,1,8,0:0:0:0:
256,192,131327,1,0,0:0:0:0:
256,192,131427,1,8,0:0:0:0:
256,192,131527,1,0,0:0:0:0:
256,192,131627,1,0,0:0:0:0:
256,192,131727,1,8,0:0:0:0:
256,192,131827,1,8,0:0:0:0:
256,192,131927,1,8,0:0:0:0:
256,192,132027,1,4,0:0:0:0:
256,192,132327,1,4,0:0:0:0:
256,192,132627,1,8,0:0:0:0:
256,192,132727,1,0,0:0:0:0:
256,192,132827,1,0,0:0:0:0:
256,192,132927,1,8,0:0:0:0:
256,192,133127,1,0,0:0:0:0:
256,192,133227,1,8,0:0:0:0:
256,192,133327,1,0,0:0:0:0:
256,192,133427,1,0,0:0:0:0:
256,192,133527,1,8,0:0:0:0:
256,192,133827,1,8,0:0:0:0:
256,192,133927,1,0,0:0:0:0:
256,192,134027,1,0,0:0:0:0:
256,192,134127,1,8,0:0:0:0:
256,192,134327,1,0,0:0:0:0:
256,192,134427,1,8,0:0:0:0:
256,192,134527,1,0,0:0:0:0:
256,192,134627,1,0,0:0:0:0:
256,192,134727,1,8,0:0:0:0:
256,192,135027,1,8,0:0:0:0:
256,192,135127,1,8,0:0:0:0:
256,192,135227,1,8,0:0:0:0:
256,192,135327,1,8,0:0:0:0:
256,192,135427,1,8,0:0:0:0:
256,192,135527,1,8,0:0:0:0:
256,192,135627,1,8,0:0:0:0:
256,192,135727,1,8,0:0:0:0:
256,192,135827,1,0,0:0:0:0:
256,192,135927,1,0,0:0:0:0:
256,192,136027,1,0,0:0:0:0:
256,192,136127,1,0,0:0:0:0:
256,192,136227,1,0,0:0:0:0:
256,192,136327,1,0,0:0:0:0:
256,192,136427,1,0,0:0:0:0:
256,192,136527,1,0,0:0:0:0:
256,192,136627,1,0,0:0:0:0:
256,192,136727,1,0,0:0:0:0:
256,192,136827,1,0,0:0:0:0:
256,192,136927,1,0,0:0:0:0:
256,192,137027,1,0,0:0:0:0:
256,192,137127,1,8,0:0:0:0:
256,192,137227,1,8,0:0:0:0:
256,192,137327,1,8,0:0:0:0:
256,192,137427,1,0,0:0:0:0:
256,192,137627,1,0,0:0:0:0:
256,192,137727,1,8,0:0:0:0:
256,192,137827,1,0,0:0:0:0:
256,192,137927,1,0,0:0:0:0:
256,192,138027,1,8,0:0:0:0:
256,192,138227,1,8,0:0:0:0:
256,192,138327,1,8,0:0:0:0:
256,192,138427,1,0,0:0:0:0:
256,192,138527,1,0,0:0:0:0:
256,192,138627,1,8,0:0:0:0:
256,192,138827,1,8,0:0:0:0:
256,192,138927,1,0,0:0:0:0:
256,192,139027,1,0,0:0:0:0:
256,192,139127,1,0,0:0:0:0:
256,192,139227,1,12,0:0:0:0:
256,192,139527,1,8,0:0:0:0:
256,192,139827,1,0,0:0:0:0:
256,192,139927,1,0,0:0:0:0:
256,192,140027,1,0,0:0:0:0:
256,192,140127,1,8,0:0:0:0:
256,192,140227,1,8,0:0:0:0:
256,192,140327,1,8,0:0:0:0:
256,192,140427,1,0,0:0:0:0:
256,192,140627,1,0,0:0:0:0:
256,192,140727,1,8,0:0:0:0:
256,192,140827,1,0,0:0:0:0:
256,192,140927,1,0,0:0:0:0:
256,192,141027,1,8,0:0:0:0:
256,192,141227,1,8,0:0:0:0:
256,192,141327,1,8,0:0:0:0:
256,192,141427,1,0,0:0:0:0:
256,192,141527,1,0,0:0:0:0:
256,192,141627,1,12,0:0:0:0:
256,192,141927,1,8,0:0:0:0:
256,192,142227,1,8,0:0:0:0:
256,192,142327,1,0,0:0:0:0:
256,192,142427,1,0,0:0:0:0:
256,192,142527,1,8,0:0:0:0:
256,192,142627,1,0,0:0:0:0:
256,192,142727,1,0,0:0:0:0:
256,192,142827,1,8,0:0:0:0:
256,192,143027,1,0,0:0:0:0:
256,192,143127,1,8,0:0:0:0:
256,192,143227,1,0,0:0:0:0:
256,192,143327,1,8,0:0:0:0:
256,192,143427,1,0,0:0:0:0:
256,192,143627,1,0,0:0:0:0:
256,192,143727,1,8,0:0:0:0:
256,192,143827,1,8,0:0:0:0:
256,192,143927,1,8,0:0:0:0:
256,192,144027,1,0,0:0:0:0:
256,192,144327,1,12,0:0:0:0:
256,192,144627,1,0,0:0:0:0:
256,192,144727,1,0,0:0:0:0:
256,192,144827,1,0,0:0:0:0:
256,192,144927,1,8,0:0:0:0:
256,192,145027,1,0,0:0:0:0:
256,192,145127,1,0,0:0:0:0:
256,192,145227,1,8,0:0:0:0:
256,192,145427,1,0,0:0:0:0:
256,192,145527,1,8,0:0:0:0:
256,192,145627,1,0,0:0:0:0:
256,192,145727,1,0,0:0:0:0:
256,192,145827,1,8,0:0:0:0:
256,192,145927,1,8,0:0:0:0:
256,192,146027,1,8,0:0:0:0:
256,192,146127,1,8,0:0:0:0:
256,192,146227,1,8,0:0:0:0:
256,192,146327,1,8,0:0:0:0:
256,192,146427,1,8,0:0:0:0:
256,192,146527,1,8,0:0:0:0:
256,192,146627,1,8,0:0:0:0:
256,192,146727,1,8,0:0:0:0:
256,192,146827,1,8,0:0:0:0:
256,192,146927,1,8,0:0:0:0:
256,192,147027,1,4,0:0:0:0:
256,192,147227,1,0,0:0:0:0:
256,192,147327,1,8,0:0:0:0:
256,192,147527,1,0,0:0:0:0:
256,192,147627,1,8,0:0:0:0:
256,192,147727,1,8,0:0:0:0:
256,192,147827,1,0,0:0:0:0:
256,192,147927,1,8,0:0:0:0:
256,192,148027,1,0,0:0:0:0:
256,192,148127,1,0,0:0:0:0:
256,192,148227,1,8,0:0:0:0:
256,192,148427,1,8,0:0:0:0:
256,192,148527,1,0,0:0:0:0:
256,192,148727,1,0,0:0:0:0:
256,192,148827,1,8,0:0:0:0:
256,192,148927,1,0,0:0:0:0:
256,192,149027,1,0,0:0:0:0:
256,192,149127,1,8,0:0:0:0:
256,192,149227,1,8,0:0:0:0:
256,192,149327,1,0,0:0:0:0:
256,192,149427,1,8,0:0:0:0:
256,192,149627,1,8,0:0:0:0:
256,192,149727,1,8,0:0:0:0:
256,192,149927,1,0,0:0:0:0:
256,192,150027,1,8,0:0:0:0:
256,192,150127,1,0,0:0:0:0:
256,192,150227,1,0,0:0:0:0:
256,192,150327,1,8,0:0:0:0:
256,192,150427,1,8,0:0:0:0:
256,192,150527,1,8,0:0:0:0:
256,192,150627,1,0,0:0:0:0:
256,192,150727,1,0,0:0:0:0:
256,192,150827,1,0,0:0:0:0:
256,192,150927,1,8,0:0:0:0:
256,192,151027,1,0,0:0:0:0:
256,192,151127,1,0,0:0:0:0:
256,192,151227,1,12,0:0:0:0:
256,192,151527,1,12,0:0:0:0:
256,192,151827,1,4,0:0:0:0:
256,192,152027,1,0,0:0:0:0:
256,192,152127,1,8,0:0:0:0:
256,192,152327,1,8,0:0:0:0:
256,192,152427,1,0,0:0:0:0:
256,192,152527,1,0,0:0:0:0:
256,192,152627,1,0,0:0:0:0:
256,192,152727,1,8,0:0:0:0:
256,192,152827,1,8,0:0:0:0:
256,192,152927,1,0,0:0:0:0:
256,192,153027,1,8,0:0:0:0:
256,192,153227,1,8,0:0:0:0:
256,192,153327,1,0,0:0:0:0:
256,192,153527,1,0,0:0:0:0:
256,192,153627,1,8,0:0:0:0:
256,192,153727,1,0,0:0:0:0:
256,192,153827,1,8,0:0:0:0:
256,192,153927,1,8,0:0:0:0:
256,192,154027,1,0,0:0:0:0:
256,192,154127,1,0,0:0:0:0:
256,192,154227,1,8,0:0:0:0:
256,192,154427,1,0,0:0:0:0:
256,192,154527,1,8,0:0:0:0:
256,192,154627,1,0,0:0:0:0:
256,192,154727,1,0,0:0:0:0:
256,192,154827,1,8,0:0:0:0:
256,192,154927,1,8,0:0:0:0:
256,192,155027,1,8,0:0:0:0:
256,192,155127,1,0,0:0:0:0:
256,192,155227,1,0,0:0:0:0:
256,192,155327,1,0,0:0:0:0:
256,192,155427,1,8,0:0:0:0:
256,192,155527,1,0,0:0:0:0:
256,192,155627,1,0,0:0:0:0:
256,192,155727,1,8,0:0:0:0:
256,192,155927,1,0,0:0:0:0:
256,192,156027,1,8,0:0:0:0:
256,192,156127,1,0,0:0:0:0:
256,192,156227,1,0,0:0:0:0:
256,192,156327,1,8,0:0:0:0:
256,192,156427,1,8,0:0:0:0:
256,192,156527,1,8,0:0:0:0:
256,192,156627,1,0,0:0:0:0:
256,192,156827,1,0,0:0:0:0:
256,192,156927,1,8,0:0:0:0:
256,192,157127,1,8,0:0:0:0:
256,192,157227,1,0,0:0:0:0:
256,192,157427,1,0,0:0:0:0:
256,192,157527,1,8,0:0:0:0:
256,192,157727,1,8,0:0:0:0:
256,192,157827,1,8,0:0:0:0:
256,192,158027,1,0,0:0:0:0:
256,192,158127,1,0,0:0:0:0:
256,192,158327,1,0,0:0:0:0:
256,192,158427,1,8,0:0:0:0:
256,192,158627,1,8,0:0:0:0:
256,192,158727,1,0,0:0:0:0:
256,192,158927,1,0,0:0:0:0:
256,192,159027,1,8,0:0:0:0:
256,192,159227,1,0,0:0:0:0:
256,192,159327,1,0,0:0:0:0:
256,192,159527,1,8,0:0:0:0:
256,192,159627,1,8,0:0:0:0:
256,192,159827,1,0,0:0:0:0:
256,192,159927,1,8,0:0:0:0:
256,192,160127,1,8,0:0:0:0:
256,192,160227,1,0,0:0:0:0:
256,192,160427,1,0,0:0:0:0:
256,192,160527,1,8,0:0:0:0:
256,192,160727,1,8,0:0:0:0:
256,192,160827,1,0,0:0:0:0:
256,192,161027,1,0,0:0:0:0:
256,192,161127,1,8,0:0:0:0:
256,192,161227,1,8,0:0:0:0:
256,192,161327,1,8,0:0:0:0:
256,192,161427,1,4,0:0:0:0:
256,192,161627,1,8,0:0:0:0:
256,192,161727,1,8,0:0:0:0:
256,192,161827,1,0,0:0:0:0:
256,192,161927,1,0,0:0:0:0:
256,192,162027,1,8,0:0:0:0:
256,192,162127,1,0,0:0:0:0:
256,192,162227,1,0,0:0:0:0:
256,192,162327,1,8,0:0:0:0:
256,192,162527,1,8,0:0:0:0:
256,192,162627,1,0,0:0:0:0:
256,192,162827,1,0,0:0:0:0:
256,192,162927,1,8,0:0:0:0:
256,192,163127,1,0,0:0:0:0:
256,192,163227,1,8,0:0:0:0:
256,192,163327,1,0,0:0:0:0:
256,192,163427,1,0,0:0:0:0:
256,192,163527,1,8,0:0:0:0:
256,192,163627,1,8,0:0:0:0:
256,192,163727,1,8,0:0:0:0:
256,192,163827,1,0,0:0:0:0:
256,192,163927,1,0,0:0:0:0:
256,192,164027,1,0,0:0:0:0:
256,192,164127,1,8,0:0:0:0:
256,192,164327,1,8,0:0:0:0:
256,192,164427,1,0,0:0:0:0:
256,192,164527,1,0,0:0:0:0:
256,192,164627,1,0,0:0:0:0:
256,192,164727,1,8,0:0:0:0:
256,192,164927,1,0,0:0:0:0:
256,192,165027,1,8,0:0:0:0:
256,192,165127,1,8,0:0:0:0:
256,192,165227,1,8,0:0:0:0:
256,192,165327,1,8,0:0:0:0:
256,192,165427,1,8,0:0:0:0:
256,192,165527,1,8,0:0:0:0:
256,192,165627,1,0,0:0:0:0:
256,192,165827,1,0,0:0:0:0:
256,192,166027,1,0,0:0:0:0:
256,192,166227,1,12,0:0:0:0:
256,192,166827,1,12,0:0:0:0:
256,192,167427,1,12,0:0:0:0:
256,192,168027,1,8,0:0:0:0:
256,192,168127,1,8,0:0:0:0:
256,192,168227,1,8,0:0:0:0:
256,192,168327,1,0,0:0:0:0:
256,192,168427,1,0,0:0:0:0:
256,192,168527,1,0,0:0:0:0:
256,192,168627,1,12,0:0:0:0:
256,192,169227,1,12,0:0:0:0:
256,192,169827,1,12,0:0:0:0:
256,192,170427,1,8,0:0:0:0:
256,192,170527,1,8,0:0:0:0:
256,192,170627,1,8,0:0:0:0:
256,192,170727,1,0,0:0:0:0:
256,192,170827,1,0,0:0:0:0:
256,192,170927,1,0,0:0:0:0:
256,192,171027,1,12,0:0:0:0:
256,192,171627,1,12,0:0:0:0:
256,192,172227,1,12,0:0:0:0:
256,192,172827,1,8,0:0:0:0:
256,192,172927,1,8,0:0:0:0:
256,192,173027,1,8,0:0:0:0:
256,192,173127,1,0,0:0:0:0:
256,192,173227,1,0,0:0:0:0:
256,192,173327,1,0,0:0:0:0:
256,192,173427,1,12,0:0:0:0:
256,192,174027,1,12,0:0:0:0:
256,192,174627,1,12,0:0:0:0:
256,192,175227,1,8,0:0:0:0:
256,192,175327,1,8,0:0:0:0:
256,192,175427,1,8,0:0:0:0:
256,192,175527,1,0,0:0:0:0:
256,192,175627,1,0,0:0:0:0:
256,192,175727,1,0,0:0:0:0:
256,192,175827,1,12,0:0:0:0:
256,192,176427,1,12,0:0:0:0:
256,192,177027,1,12,0:0:0:0:
256,192,177627,1,8,0:0:0:0:
256,192,177727,1,8,0:0:0:0:
256,192,177827,1,8,0:0:0:0:
256,192,177927,1,0,0:0:0:0:
256,192,178027,1,0,0:0:0:0:
256,192,178127,1,0,0:0:0:0:
256,192,178227,1,12,0:0:0:0:
256,192,178827,1,12,0:0:0:0:
256,192,179427,1,12,0:0:0:0:
256,192,180027,1,0,0:0:0:0:
256,192,180227,1,0,0:0:0:0:
256,192,180427,1,0,0:0:0:0:
256,192,180627,1,12,0:0:0:0:
256,192,180927,1,0,0:0:0:0:
256,192,181227,1,12,0:0:0:0:
256,192,181527,1,0,0:0:0:0:
256,192,181827,1,12,0:0:0:0:
256,192,182127,1,0,0:0:0:0:
256,192,182427,1,8,0:0:0:0:
256,192,182527,1,8,0:0:0:0:
256,192,182627,1,8,0:0:0:0:
256,192,182727,1,0,0:0:0:0:
256,192,182827,1,0,0:0:0:0:
256,192,182927,1,0,0:0:0:0:
256,192,183027,1,12,0:0:0:0:
256,192,183327,1,0,0:0:0:0:
256,192,183627,1,12,0:0:0:0:
256,192,183927,1,0,0:0:0:0:
256,192,184227,1,12,0:0:0:0:
256,192,184527,1,0,0:0:0:0:
256,192,184827,1,8,0:0:0:0:
256,192,184927,1,8,0:0:0:0:
256,192,185027,1,8,0:0:0:0:
256,192,185127,1,0,0:0:0:0:
256,192,185227,1,0,0:0:0:0:
256,192,185327,1,0,0:0:0:0:
256,192,185427,1,12,0:0:0:0:
256,192,185727,1,0,0:0:0:0:
256,192,186027,1,12,0:0:0:0:
256,192,186327,1,0,0:0:0:0:
256,192,186627,1,12,0:0:0:0:
256,192,186927,1,0,0:0:0:0:
256,192,187227,1,8,0:0:0:0:
256,192,187327,1,8,0:0:0:0:
256,192,187427,1,8,0:0:0:0:
256,192,187527,1,0,0:0:0:0:
256,192,187627,1,0,0:0:0:0:
256,192,187727,1,0,0:0:0:0:
256,192,187827,1,12,0:0:0:0:
256,192,188127,1,0,0:0:0:0:
256,192,188427,1,12,0:0:0:0:
256,192,188727,1,0,0:0:0:0:
256,192,189027,5,8,0:0:0:0:
256,192,189127,1,8,0:0:0:0:
256,192,189227,1,8,0:0:0:0:
256,192,189327,1,8,0:0:0:0:
256,192,189427,1,8,0:0:0:0:
256,192,189527,1,8,0:0:0:0:
256,192,189627,1,0,0:0:0:0:
256,192,189727,1,0,0:0:0:0:
256,192,189827,1,8,0:0:0:0:
256,192,189927,1,8,0:0:0:0:
256,192,190027,1,0,0:0:0:0:
256,192,190127,1,0,0:0:0:0:
256,192,190227,1,12,0:0:0:0:
256,192,190427,1,0,0:0:0:0:
256,192,190527,1,8,0:0:0:0:
256,192,190727,1,8,0:0:0:0:
256,192,190827,1,0,0:0:0:0:
256,192,190927,1,0,0:0:0:0:
256,192,191027,1,0,0:0:0:0:
256,192,191127,1,8,0:0:0:0:
256,192,191327,1,0,0:0:0:0:
256,192,191427,1,8,0:0:0:0:
256,192,191627,1,8,0:0:0:0:
256,192,191727,1,8,0:0:0:0:
256,192,191927,1,0,0:0:0:0:
256,192,192027,1,8,0:0:0:0:
256,192,192127,1,8,0:0:0:0:
256,192,192227,1,8,0:0:0:0:
256,192,192327,1,0,0:0:0:0:
256,192,192627,1,8,0:0:0:0:
256,192,192727,1,0,0:0:0:0:
256,192,192827,1,8,0:0:0:0:
256,192,192927,1,8,0:0:0:0:
256,192,193027,1,0,0:0:0:0:
256,192,193127,1,0,0:0:0:0:
256,192,193227,1,8,0:0:0:0:
256,192,193327,1,0,0:0:0:0:
256,192,193427,1,8,0:0:0:0:
256,192,193527,1,8,0:0:0:0:
256,192,193627,1,0,0:0:0:0:
256,192,193727,1,8,0:0:0:0:
256,192,193827,1,0,0:0:0:0:
256,192,194027,1,0,0:0:0:0:
256,192,194127,1,8,0:0:0:0:
256,192,194227,1,0,0:0:0:0:
256,192,194327,1,0,0:0:0:0:
256,192,194427,1,12,0:0:0:0:
256,192,194727,1,4,0:0:0:0:
256,192,195027,1,8,0:0:0:0:
256,192,195127,1,0,0:0:0:0:
256,192,195227,1,0,0:0:0:0:
256,192,195327,1,8,0:0:0:0:
256,192,195427,1,8,0:0:0:0:
256,192,195527,1,8,0:0:0:0:
256,192,195627,1,0,0:0:0:0:
256,192,195827,1,0,0:0:0:0:
256,192,195927,1,8,0:0:0:0:
256,192,196027,1,0,0:0:0:0:
256,192,196127,1,8,0:0:0:0:
256,192,196227,1,8,0:0:0:0:
256,192,196327,1,8,0:0:0:0:
256,192,196427,1,0,0:0:0:0:
256,192,196527,1,8,0:0:0:0:
256,192,196627,1,0,0:0:0:0:
256,192,196727,1,0,0:0:0:0:
256,192,196827,1,8,0:0:0:0:
256,192,196927,1,0,0:0:0:0:
256,192,197027,1,8,0:0:0:0:
256,192,197127,1,8,0:0:0:0:
256,192,197227,1,0,0:0:0:0:
256,192,197327,1,8,0:0:0:0:
256,192,197427,1,0,0:0:0:0:
256,192,197627,1,0,0:0:0:0:
256,192,197727,1,8,0:0:0:0:
256,192,197827,1,0,0:0:0:0:
256,192,197927,1,8,0:0:0:0:
256,192,198027,1,8,0:0:0:0:
256,192,198127,1,8,0:0:0:0:
256,192,198227,1,8,0:0:0:0:
256,192,198327,1,0,0:0:0:0:
256,192,198527,1,8,0:0:0:0:
256,192,198627,1,0,0:0:0:0:
256,192,198727,1,0,0:0:0:0:
256,192,198827,1,0,0:0:0:0:
256,192,198927,1,12,0:0:0:0:
256,192,199227,1,0,0:0:0:0:
256,192,199327,1,0,0:0:0:0:
256,192,199427,1,0,0:0:0:0:
256,192,199527,1,8,0:0:0:0:
256,192,199627,1,8,0:0:0:0:
256,192,199727,1,8,0:0:0:0:
256,192,199827,1,0,0:0:0:0:
256,192,200027,1,0,0:0:0:0:
256,192,200127,1,8,0:0:0:0:
256,192,200227,1,8,0:0:0:0:
256,192,200327,1,8,0:0:0:0:
288,192,200427,1,0,0:0:0:0:
256,192,200627,1,0,0:0:0:0:
256,192,200727,1,8,0:0:0:0:
256,192,200827,1,0,0:0:0:0:
288,192,200927,1,8,0:0:0:0:
288,192,201027,1,0,0:0:0:0:
256,192,201227,1,0,0:0:0:0:
256,192,201327,1,8,0:0:0:0:
256,192,201427,1,8,0:0:0:0:
256,192,201527,1,8,0:0:0:0:
256,192,201627,1,0,0:0:0:0:
256,192,201827,1,0,0:0:0:0:
256,192,201927,1,8,0:0:0:0:
256,192,202027,1,8,0:0:0:0:
256,192,202127,1,0,0:0:0:0:
256,192,202227,1,8,0:0:0:0:
256,192,202427,1,8,0:0:0:0:
256,192,202527,1,0,0:0:0:0:
256,192,202627,1,0,0:0:0:0:
256,192,202727,1,0,0:0:0:0:
256,192,202827,1,8,0:0:0:0:
256,192,203027,1,0,0:0:0:0:
256,192,203127,1,8,0:0:0:0:
256,192,203227,1,0,0:0:0:0:
256,192,203427,1,8,0:0:0:0:
256,192,203527,1,8,0:0:0:0:
256,192,203627,1,0,0:0:0:0:
256,192,203727,1,8,0:0:0:0:
256,192,203827,1,0,0:0:0:0:
256,192,203927,1,0,0:0:0:0:
256,192,204027,1,8,0:0:0:0:
256,192,204127,1,8,0:0:0:0:
256,192,204227,1,0,0:0:0:0:
256,192,204327,1,8,0:0:0:0:
256,192,204427,1,8,0:0:0:0:
256,192,204527,1,8,0:0:0:0:
256,192,204627,1,4,0:0:0:0:
256,192,204827,1,0,0:0:0:0:
256,192,204927,1,8,0:0:0:0:
256,192,205027,1,0,0:0:0:0:
256,192,205127,1,0,0:0:0:0:
256,192,205227,1,8,0:0:0:0:
256,192,205427,1,8,0:0:0:0:
256,192,205527,1,8,0:0:0:0:
256,192,205627,1,0,0:0:0:0:
256,192,205727,1,0,0:0:0:0:
256,192,205827,1,8,0:0:0:0:
256,192,206027,1,0,0:0:0:0:
256,192,206127,1,8,0:0:0:0:
256,192,206227,1,8,0:0:0:0:
256,192,206327,1,8,0:0:0:0:
256,192,206427,1,0,0:0:0:0:
256,192,206627,1,0,0:0:0:0:
256,192,206727,1,8,0:0:0:0:
256,192,206827,1,8,0:0:0:0:
256,192,206927,1,0,0:0:0:0:
256,192,207027,1,8,0:0:0:0:
256,192,207127,1,0,0:0:0:0:
256,192,207227,1,0,0:0:0:0:
256,192,207327,1,8,0:0:0:0:
256,192,207527,1,0,0:0:0:0:
256,192,207627,1,8,0:0:0:0:
256,192,207727,1,0,0:0:0:0:
256,192,207827,1,0,0:0:0:0:
256,192,207927,1,8,0:0:0:0:
256,192,208127,1,8,0:0:0:0:
256,192,208227,1,0,0:0:0:0:
256,192,208327,1,0,0:0:0:0:
256,192,208427,1,0,0:0:0:0:
256,192,208527,1,0,0:0:0:0:
256,192,208627,1,0,0:0:0:0:
256,192,208727,1,0,0:0:0:0:
256,192,208827,1,8,0:0:0:0:
256,192,208927,1,8,0:0:0:0:
256,192,209027,1,8,0:0:0:0:
256,192,209127,1,0,0:0:0:0:
256,192,209227,1,0,0:0:0:0:
256,192,209327,1,0,0:0:0:0:
256,192,209427,1,12,0:0:0:0:
256,192,209627,1,0,0:0:0:0:
256,192,209727,1,8,0:0:0:0:
256,192,209927,1,0,0:0:0:0:
256,192,210027,1,0,0:0:0:0:
256,192,210227,1,0,0:0:0:0:
256,192,210327,1,8,0:0:0:0:
256,192,210527,1,8,0:0:0:0:
256,192,210627,1,0,0:0:0:0:
256,192,210827,1,8,0:0:0:0:
256,192,210927,1,8,0:0:0:0:
256,192,211127,1,8,0:0:0:0:
256,192,211227,1,0,0:0:0:0:
256,192,211427,1,0,0:0:0:0:
256,192,211527,1,8,0:0:0:0:
256,192,211727,1,0,0:0:0:0:
256,192,211827,1,0,0:0:0:0:
256,192,212027,1,0,0:0:0:0:
256,192,212127,1,8,0:0:0:0:
256,192,212327,1,8,0:0:0:0:
256,192,212427,1,0,0:0:0:0:
256,192,212627,1,8,0:0:0:0:
256,192,212727,1,8,0:0:0:0:
256,192,212927,1,0,0:0:0:0:
256,192,213027,1,8,0:0:0:0:
256,192,213127,1,8,0:0:0:0:
256,192,213227,1,8,0:0:0:0:
256,192,213327,1,0,0:0:0:0:
256,192,213527,1,0,0:0:0:0:
256,192,213627,1,8,0:0:0:0:
256,192,213727,1,8,0:0:0:0:
256,192,213827,1,0,0:0:0:0:
256,192,213927,1,8,0:0:0:0:
256,192,214027,1,8,0:0:0:0:
256,192,214127,1,8,0:0:0:0:
256,192,214227,1,0,0:0:0:0:
256,192,214427,1,8,0:0:0:0:
256,192,214527,1,8,0:0:0:0:
256,192,214727,1,0,0:0:0:0:
256,192,214827,1,0,0:0:0:0:
256,192,215027,1,0,0:0:0:0:
256,192,215127,1,8,0:0:0:0:
256,192,215327,1,8,0:0:0:0:
256,192,215427,1,0,0:0:0:0:
256,192,215627,1,0,0:0:0:0:
256,192,215727,1,8,0:0:0:0:
256,192,215927,1,0,0:0:0:0:
256,192,216027,1,0,0:0:0:0:
256,192,216227,1,0,0:0:0:0:
256,192,216327,1,8,0:0:0:0:
256,192,216527,1,8,0:0:0:0:
256,192,216627,1,0,0:0:0:0:
256,192,216827,1,8,0:0:0:0:
256,192,216927,1,8,0:0:0:0:
256,192,217127,1,8,0:0:0:0:
256,192,217227,1,0,0:0:0:0:
256,192,217427,1,0,0:0:0:0:
256,192,217527,1,8,0:0:0:0:
256,192,217727,1,0,0:0:0:0:
256,192,217827,1,8,0:0:0:0:
256,192,217927,1,8,0:0:0:0:
256,192,218027,1,8,0:0:0:0:
256,192,218127,1,0,0:0:0:0:
256,192,218327,1,0,0:0:0:0:
256,192,218427,1,8,0:0:0:0:
256,192,218527,1,8,0:0:0:0:
256,192,218627,1,0,0:0:0:0:
256,192,218727,1,8,0:0:0:0:
256,192,218827,1,8,0:0:0:0:
256,192,218927,1,8,0:0:0:0:
256,192,219027,1,0,0:0:0:0:
256,192,219227,1,0,0:0:0:0:
256,192,219327,1,8,0:0:0:0:
256,192,219527,1,0,0:0:0:0:
256,192,219627,1,0,0:0:0:0:
256,192,219827,1,0,0:0:0:0:
256,192,219927,1,8,0:0:0:0:
256,192,220127,1,8,0:0:0:0:
256,192,220227,1,0,0:0:0:0:
256,192,220427,1,8,0:0:0:0:
256,192,220527,1,8,0:0:0:0:
256,192,220727,1,8,0:0:0:0:
256,192,220827,1,0,0:0:0:0:
256,192,221027,1,0,0:0:0:0:
256,192,221127,1,8,0:0:0:0:
256,192,221327,1,0,0:0:0:0:
256,192,221427,1,0,0:0:0:0:
256,192,221627,1,0,0:0:0:0:
256,192,221727,1,8,0:0:0:0:
256,192,221927,1,8,0:0:0:0:
256,192,222027,1,0,0:0:0:0:
256,192,222227,1,8,0:0:0:0:
256,192,222327,1,8,0:0:0:0:
256,192,222527,1,0,0:0:0:0:
256,192,222627,1,8,0:0:0:0:
256,192,222727,1,0,0:0:0:0:
256,192,222827,1,0,0:0:0:0:
256,192,222927,1,8,0:0:0:0:
256,192,223027,1,8,0:0:0:0:
256,192,223127,1,8,0:0:0:0:
256,192,223227,1,4,0:0:0:0:
256,192,223527,1,4,0:0:0:0:
256,192,223827,1,8,0:0:0:0:
256,192,223927,1,0,0:0:0:0:
256,192,224027,1,0,0:0:0:0:
256,192,224127,1,8,0:0:0:0:
256,192,224327,1,0,0:0:0:0:
256,192,224427,1,8,0:0:0:0:
256,192,224527,1,0,0:0:0:0:
256,192,224627,1,0,0:0:0:0:
256,192,224727,1,8,0:0:0:0:
256,192,225027,1,8,0:0:0:0:
256,192,225127,1,0,0:0:0:0:
256,192,225227,1,0,0:0:0:0:
256,192,225327,1,8,0:0:0:0:
256,192,225527,1,0,0:0:0:0:
256,192,225627,1,8,0:0:0:0:
256,192,225727,1,0,0:0:0:0:
256,192,225827,1,0,0:0:0:0:
256,192,225927,1,8,0:0:0:0:
256,192,226227,1,8,0:0:0:0:
256,192,226327,1,8,0:0:0:0:
256,192,226427,1,8,0:0:0:0:
256,192,226527,1,8,0:0:0:0:
256,192,226627,1,8,0:0:0:0:
256,192,226727,1,8,0:0:0:0:
256,192,226827,1,8,0:0:0:0:
256,192,226927,1,8,0:0:0:0:
256,192,227027,1,0,0:0:0:0:
256,192,227127,1,0,0:0:0:0:
256,192,227227,1,0,0:0:0:0:
256,192,227327,1,0,0:0:0:0:
256,192,227427,1,0,0:0:0:0:
256,192,227527,1,0,0:0:0:0:
256,192,227627,1,8,0:0:0:0:
256,192,227727,1,8,0:0:0:0:
256,192,227827,1,0,0:0:0:0:
256,192,227927,1,0,0:0:0:0:
256,192,228027,1,0,0:0:0:0:
256,192,228127,1,0,0:0:0:0:
256,192,228227,1,0,0:0:0:0:
256,192,228327,1,8,0:0:0:0:
256,192,228427,1,8,0:0:0:0:
256,192,228527,1,8,0:0:0:0:
256,192,228627,1,4,0:0:0:0:
256,192,228827,1,0,0:0:0:0:
256,192,228927,1,8,0:0:0:0:
256,192,229127,1,0,0:0:0:0:
256,192,229227,1,8,0:0:0:0:
256,192,229327,1,8,0:0:0:0:
256,192,229427,1,0,0:0:0:0:
256,192,229527,1,8,0:0:0:0:
256,192,229627,1,0,0:0:0:0:
256,192,229727,1,0,0:0:0:0:
256,192,229827,1,8,0:0:0:0:
256,192,230027,1,8,0:0:0:0:
256,192,230127,1,0,0:0:0:0:
256,192,230327,1,0,0:0:0:0:
256,192,230427,1,8,0:0:0:0:
256,192,230527,1,0,0:0:0:0:
256,192,230627,1,0,0:0:0:0:
256,192,230727,1,8,0:0:0:0:
256,192,230827,1,8,0:0:0:0:
256,192,230927,1,0,0:0:0:0:
256,192,231027,1,8,0:0:0:0:
256,192,231227,1,8,0:0:0:0:
256,192,231327,1,8,0:0:0:0:
256,192,231527,1,0,0:0:0:0:
256,192,231627,1,8,0:0:0:0:
256,192,231727,1,0,0:0:0:0:
256,192,231827,1,0,0:0:0:0:
256,192,231927,1,8,0:0:0:0:
256,192,232027,1,8,0:0:0:0:
256,192,232127,1,8,0:0:0:0:
256,192,232227,1,0,0:0:0:0:
256,192,232327,1,0,0:0:0:0:
256,192,232427,1,0,0:0:0:0:
256,192,232527,1,8,0:0:0:0:
256,192,232627,1,0,0:0:0:0:
256,192,232727,1,0,0:0:0:0:
256,192,232827,1,12,0:0:0:0:
256,192,233127,1,12,0:0:0:0:
256,192,233427,1,4,0:0:0:0:
256,192,233627,1,0,0:0:0:0:
256,192,233727,1,8,0:0:0:0:
256,192,233927,1,8,0:0:0:0:
256,192,234027,1,0,0:0:0:0:
256,192,234127,1,0,0:0:0:0:
256,192,234227,1,0,0:0:0:0:
256,192,234327,1,8,0:0:0:0:
256,192,234427,1,8,0:0:0:0:
256,192,234527,1,0,0:0:0:0:
256,192,234627,1,8,0:0:0:0:
256,192,234827,1,8,0:0:0:0:
256,192,234927,1,0,0:0:0:0:
256,192,235127,1,0,0:0:0:0:
256,192,235227,1,8,0:0:0:0:
256,192,235327,1,0,0:0:0:0:
256,192,235427,1,8,0:0:0:0:
256,192,235527,1,8,0:0:0:0:
256,192,235627,1,0,0:0:0:0:
256,192,235727,1,0,0:0:0:0:
256,192,235827,1,8,0:0:0:0:
256,192,236027,1,0,0:0:0:0:
256,192,236127,1,8,0:0:0:0:
256,192,236227,1,0,0:0:0:0:
256,192,236327,1,0,0:0:0:0:
256,192,236427,1,8,0:0:0:0:
256,192,236527,1,8,0:0:0:0:
256,192,236627,1,8,0:0:0:0:
256,192,236727,1,0,0:0:0:0:
256,192,236827,1,0,0:0:0:0:
256,192,236927,1,0,0:0:0:0:
256,192,237027,1,8,0:0:0:0:
256,192,237127,1,0,0:0:0:0:
256,192,237227,1,0,0:0:0:0:
256,192,237327,1,8,0:0:0:0:
256,192,237527,1,0,0:0:0:0:
256,192,237627,1,8,0:0:0:0:
256,192,237727,1,0,0:0:0:0:
256,192,237827,1,0,0:0:0:0:
256,192,237927,1,8,0:0:0:0:
256,192,238027,1,8,0:0:0:0:
256,192,238127,1,8,0:0:0:0:
256,192,238227,1,0,0:0:0:0:
256,192,238427,1,0,0:0:0:0:
256,192,238527,1,8,0:0:0:0:
256,192,238727,1,8,0:0:0:0:
256,192,238827,1,0,0:0:0:0:
256,192,239027,1,0,0:0:0:0:
256,192,239127,1,8,0:0:0:0:
256,192,239327,1,8,0:0:0:0:
256,192,239427,1,8,0:0:0:0:
256,192,239627,1,0,0:0:0:0:
256,192,239727,1,0,0:0:0:0:
256,192,239927,1,0,0:0:0:0:
256,192,240027,1,8,0:0:0:0:
256,192,240227,1,8,0:0:0:0:
256,192,240327,1,0,0:0:0:0:
256,192,240527,1,0,0:0:0:0:
256,192,240627,1,8,0:0:0:0:
256,192,240827,1,0,0:0:0:0:
256,192,240927,1,0,0:0:0:0:
256,192,241127,1,8,0:0:0:0:
256,192,241227,1,8,0:0:0:0:
256,192,241427,1,0,0:0:0:0:
256,192,241527,1,8,0:0:0:0:
256,192,241727,1,8,0:0:0:0:
256,192,241827,1,0,0:0:0:0:
256,192,242027,1,0,0:0:0:0:
256,192,242127,1,8,0:0:0:0:
256,192,242327,1,8,0:0:0:0:
256,192,242427,1,0,0:0:0:0:
256,192,242627,1,0,0:0:0:0:
256,192,242727,1,8,0:0:0:0:
256,192,242827,1,8,0:0:0:0:
256,192,242927,1,8,0:0:0:0:
256,192,243027,1,4,0:0:0:0:
256,192,243227,1,8,0:0:0:0:
256,192,243327,1,8,0:0:0:0:
256,192,243427,1,0,0:0:0:0:
256,192,243527,1,0,0:0:0:0:
256,192,243627,1,8,0:0:0:0:
256,192,243727,1,0,0:0:0:0:
256,192,243827,1,0,0:0:0:0:
256,192,243927,1,8,0:0:0:0:
256,192,244127,1,8,0:0:0:0:
256,192,244227,1,0,0:0:0:0:
256,192,244427,1,0,0:0:0:0:
256,192,244527,1,8,0:0:0:0:
256,192,244727,1,0,0:0:0:0:
256,192,244827,1,8,0:0:0:0:
256,192,244927,1,0,0:0:0:0:
256,192,245027,1,0,0:0:0:0:
256,192,245127,1,8,0:0:0:0:
256,192,245227,1,8,0:0:0:0:
256,192,245327,1,8,0:0:0:0:
256,192,245427,1,0,0:0:0:0:
256,192,245527,1,0,0:0:0:0:
256,192,245627,1,0,0:0:0:0:
256,192,245727,1,8,0:0:0:0:
256,192,245927,1,8,0:0:0:0:
256,192,246027,1,0,0:0:0:0:
256,192,246127,1,0,0:0:0:0:
256,192,246227,1,0,0:0:0:0:
256,192,246327,1,8,0:0:0:0:
256,192,246527,1,0,0:0:0:0:
256,192,246627,1,8,0:0:0:0:
256,192,246727,1,0,0:0:0:0:
256,192,246827,1,0,0:0:0:0:
256,192,246927,1,8,0:0:0:0:
256,192,247027,1,0,0:0:0:0:
256,192,247127,1,0,0:0:0:0:
256,192,247227,1,8,0:0:0:0:
256,192,247327,1,8,0:0:0:0:
256,192,247427,1,0,0:0:0:0:
256,192,247527,1,8,0:0:0:0:
256,192,247627,1,0,0:0:0:0:
256,192,247727,1,0,0:0:0:0:
256,192,247827,1,12,0:0:0:0:
256,192,248027,1,8,0:0:0:0:
256,192,248127,1,8,0:0:0:0:
256,192,248227,1,0,0:0:0:0:
256,192,248327,1,0,0:0:0:0:
256,192,248427,1,8,0:0:0:0:
256,192,248527,1,0,0:0:0:0:
256,192,248627,1,0,0:0:0:0:
256,192,248727,1,8,0:0:0:0:
256,192,248927,1,8,0:0:0:0:
256,192,249027,1,0,0:0:0:0:
256,192,249227,1,0,0:0:0:0:
256,192,249327,1,8,0:0:0:0:
256,192,249527,1,0,0:0:0:0:
256,192,249627,1,8,0:0:0:0:
256,192,249727,1,0,0:0:0:0:
256,192,249827,1,0,0:0:0:0:
256,192,249927,1,8,0:0:0:0:
256,192,250027,1,8,0:0:0:0:
256,192,250127,1,8,0:0:0:0:
256,192,250227,1,0,0:0:0:0:
256,192,250327,1,0,0:0:0:0:
256,192,250427,1,0,0:0:0:0:
256,192,250527,1,8,0:0:0:0:
256,192,250727,1,8,0:0:0:0:
256,192,250827,1,0,0:0:0:0:
256,192,250927,1,0,0:0:0:0:
256,192,251027,1,0,0:0:0:0:
256,192,251127,1,8,0:0:0:0:
256,192,251327,1,0,0:0:0:0:
256,192,251427,1,8,0:0:0:0:
256,192,251527,1,8,0:0:0:0:
256,192,251627,1,0,0:0:0:0:
256,192,251727,1,8,0:0:0:0:
256,192,251827,1,8,0:0:0:0:
256,192,251927,1,0,0:0:0:0:
256,192,252027,1,12,0:0:0:0:
