osu file format v14

[General]
AudioFilename: audio.mp3
AudioLeadIn: 0
PreviewTime: 183456
Countdown: 0
SampleSet: Soft
StackLeniency: 0.7
Mode: 0
LetterboxInBreaks: 0
WidescreenStoryboard: 0

[Editor]
Bookmarks: 31064,52882,74700,96518,118336,140154,161973,172882,183791,205609,227427,249245,271256,298895,320713,346843
DistanceSpacing: 1.4
BeatDivisor: 4
GridSize: 4
TimelineZoom: 1.800006

[Metadata]
Title:Yami no Kanata e -NanosizeMir Ver.-
TitleUnicode:闇の彼方へ -NanosizeMir Ver.-
Artist:NanosizeMir
ArtistUnicode:NanosizeMir
Creator:timemon
Version:timeMun's Collab
Source:Rewrite
Tags:Mun den0saur mizutani runa tsukagoshi yuichiro 塚越雄一朗 リライト visual novel 水谷瑠奈 key ビジュアルアーツ visual arts the best
BeatmapID:1413563
BeatmapSetID:668107

[Difficulty]
HPDrainRate:6
CircleSize:4
OverallDifficulty:8
ApproachRate:9
SliderMultiplier:1.76
SliderTickRate:1

[Events]
//Background and Video events
0,0,"fea98f35183c764b2a96f78947239c9c3739dabe_s2_n1.jpg",0,0
//Break Periods
2,25809,29100
2,74900,95918
//Storyboard Layer 0 (Background)
//Storyboard Layer 1 (Fail)
//Storyboard Layer 2 (Pass)
//Storyboard Layer 3 (Foreground)
//Storyboard Sound Samples

[TimingPoints]
1064,340.909090909091,4,2,1,30,1,0
1064,-142.857142857143,4,2,1,30,0,0
11973,-125,4,2,1,30,0,0
31064,-83.3333333333333,4,2,1,30,0,0
41973,-71.4285714285714,4,2,1,30,0,0
44700,-83.3333333333333,4,2,1,30,0,0
50154,-100,4,2,1,30,0,0
52200,-166.666666666667,4,2,1,30,0,0
52882,-100,4,2,1,30,0,0
73166,-125,4,2,1,30,0,0
96518,-125,4,2,1,30,0,0
107427,-166.666666666667,4,2,1,30,0,0
115609,-200,4,2,1,30,0,0
115950,-125,4,2,1,30,0,0
268336,340.909090909091,4,2,1,30,1,0
269017,345.423143350605,4,2,1,30,1,0
269707,352.941176470588,4,2,1,30,1,0
270059,384.615384615385,4,2,1,30,1,0
270443,397.088021178028,4,2,1,30,1,0
270840,400,4,2,1,30,1,0
271040,432.276657060519,4,2,1,30,1,0
271256,638.297872340426,4,2,1,30,1,0
274447,508.474576271186,4,2,1,30,1,0
274701,500,4,2,1,30,1,0
276201,447.427293064877,4,2,1,30,1,0
277990,499.375780274657,4,2,1,30,1,0
278364,369.230769230769,4,2,1,30,1,0
278733,402.684563758389,4,2,1,30,1,0
280545,422.535211267606,4,2,1,30,1,0
280756,508.474576271186,4,2,1,30,1,0
281518,416.666666666667,4,2,1,30,1,0
281622,546.946216955333,4,2,1,30,1,0
282168,560.747663551402,4,2,1,30,1,0
282728,500,4,2,1,30,1,0
283478,413.793103448276,4,2,1,30,1,0
283684,500,4,2,1,30,1,0
284559,379.746835443038,4,2,1,30,1,0
284653,480,4,2,1,30,1,0
284893,560.747663551402,4,2,1,30,1,0
285173,521.739130434783,4,2,1,30,1,0
285694,495.049504950495,4,2,1,30,1,0
286189,499.583680266445,4,2,1,30,1,0
286688,500,4,2,1,30,1,0
287438,489.396411092985,4,2,1,30,1,0
288172,505.050505050505,4,2,1,30,1,0
288929,515.021459227468,4,2,1,30,1,0
289701,502.933780385583,4,2,1,30,1,0
290455,483.870967741935,4,2,1,30,1,0
291180,503.778337531486,4,2,1,30,1,0
292691,550.45871559633,4,2,1,30,1,0
293241,582.52427184466,4,2,1,30,1,0
293823,487.80487804878,4,2,1,30,1,0
294188,544.464609800363,4,2,1,30,1,0
294732,521.739130434783,4,2,1,30,1,0
295123,410.958904109589,4,2,1,30,1,0
295328,348.837209302326,4,2,1,30,1,0
295676,512.820512820513,4,2,1,30,1,0
296445,522.193211488251,4,2,1,30,1,0
297228,521.28583840139,4,2,1,30,1,0
298009,443.491758444822,4,2,1,30,1,0
298895,340.909090909091,4,2,1,30,1,0
341167,365.853658536585,4,2,1,30,1,0
342996,377.358490566038,4,2,1,30,1,0
344128,340.909090909091,4,2,1,30,1,0
346514,329.67032967033,4,2,1,30,1,0
346843,346.820809248555,4,2,1,30,1,0

[HitObjects]
102,130,1064,6,0,P|157:115|225:152,1,123.199996240234
284,271,1745,2,0,L|277:335,2,61.5999981201172
332,207,2257,2,0,P|387:192|455:229,1,123.199996240234
505,82,2939,1,0,0:0:0:0:
505,82,3109,2,0,L|442:77,2,61.5999981201172
419,14,3791,6,0,L|413:157,1,123.199996240234
295,47,4473,1,0,0:0:0:0:
295,47,4643,2,0,P|262:50|227:53,1,61.5999981201172
167,10,4984,2,0,P|197:44|211:127,1,123.199996240234
93,207,5666,1,0,0:0:0:0:
93,207,5836,2,0,P|130:208|169:210,2,61.5999981201172
48,143,6518,6,0,L|54:286,1,123.199996240234
240,281,7200,2,0,P|203:282|164:284,2,61.5999981201172
292,336,7711,2,0,P|314:302|276:214,1,123.199996240234
221,106,8393,1,0,0:0:0:0:
221,106,8564,2,0,P|260:103|301:99,2,61.5999981201172
120,0,9245,6,0,P|104:42|137:117,1,123.199996240234
272,16,9927,1,0,0:0:0:0:
272,16,10098,2,0,P|233:13|192:9,1,61.5999981201172
292,94,10439,2,0,P|362:88|436:81,1,123.199996240234
496,148,10950,2,0,P|478:146|460:144,3,30.7999990600586
450,158,11291,1,0,0:0:0:0:
397,0,11461,1,0,0:0:0:0:
315,91,11632,1,0,0:0:0:0:
489,70,11802,1,0,0:0:0:0:
489,70,11887,1,0,0:0:0:0:
489,70,11973,6,0,P|484:139|475:221,1,140.8
390,327,12654,2,0,P|353:321|313:316,2,70.4
278,238,13166,2,0,P|247:268|238:348,1,105.6
239,344,13507,1,0,0:0:0:0:
159,283,13677,1,0,0:0:0:0:
83,369,13848,1,0,0:0:0:0:
83,369,13933,1,0,0:0:0:0:
83,369,14018,2,0,P|81:332|77:293,2,70.4
144,248,14529,1,0,0:0:0:0:
144,248,14615,1,0,0:0:0:0:
144,248,14700,6,0,P|93:263|6:231,1,140.8
88,113,15382,1,0,0:0:0:0:
143,49,15552,2,0,L|219:57,1,70.4
258,127,15893,2,0,P|230:83|245:22,1,105.6
249,18,16234,1,0,0:0:0:0:
432,58,16404,2,0,L|356:66,1,70.4
335,69,16660,1,0,0:0:0:0:
335,69,16745,2,0,L|343:145,2,70.4
433,154,17257,1,0,0:0:0:0:
433,154,17342,1,0,0:0:0:0:
433,154,17427,6,0,L|415:318,1,140.8
345,351,17939,1,0,0:0:0:0:
345,351,18109,2,0,P|272:342|198:334,1,140.8
130,283,18620,1,0,0:0:0:0:
207,248,18791,1,0,0:0:0:0:
61,233,18961,1,0,0:0:0:0:
127,309,19132,1,0,0:0:0:0:
286,194,19302,1,0,0:0:0:0:
286,194,19387,1,0,0:0:0:0:
286,194,19473,2,0,P|246:198|187:200,1,70.4
349,246,19814,2,0,P|340:281|351:327,1,70.4
411,195,20154,6,0,P|364:168|281:201,1,140.8
127,164,20836,2,0,P|127:218|197:273,1,140.8
288,332,21348,2,0,B|259:333|259:333|208:355|208:355|168:353,1,105.6
166,354,21689,1,0,0:0:0:0:
80,174,21859,2,0,P|84:240|90:323,1,140.8
192,263,22370,2,0,P|190:230|187:188,2,70.4
132,120,22882,6,0,B|240:80|240:164|352:128,1,211.2
448,73,23564,1,0,0:0:0:0:
423,221,23734,1,0,0:0:0:0:
421,86,23904,1,0,0:0:0:0:
448,232,24075,2,0,P|396:235|319:239,1,105.6
330,268,24416,2,0,P|294:266|259:264,2,70.4
385,320,24842,1,0,0:0:0:0:
385,320,24927,2,0,P|391:345|394:378,2,46.9333333333333
450,280,25268,2,0,P|467:298|486:325,2,46.9333333333333
495,213,25609,5,0,0:0:0:0:
338,108,29700,6,0,L|335:178,2,46.9333333333333
254,149,30041,2,0,L|257:219,2,46.9333333333333
290,27,30382,5,0,0:0:0:0:
290,27,30723,2,0,L|349:28,1,35.2
450,111,30893,1,0,0:0:0:0:
400,111,30978,1,0,0:0:0:0:
350,112,31064,6,0,B|254:114|254:114|186:80,1,158.399995166016
128,27,31404,1,0,0:0:0:0:
394,210,31575,2,0,L|279:213,2,105.599996777344
495,211,32086,1,0,0:0:0:0:
175,222,32257,2,0,P|233:221|269:356,1,211.199993554688
276,147,32768,1,0,0:0:0:0:
97,316,32939,2,0,L|207:303,1,105.599996777344
276,345,33279,1,0,0:0:0:0:
17,240,33450,2,0,L|177:221,1,158.399995166016
294,200,33791,6,0,P|243:211|191:204,1,105.599996777344
134,117,34132,1,0,0:0:0:0:
292,119,34302,2,0,P|372:177|339:269,1,211.199993554688
470,339,34814,2,0,P|407:335|353:349,1,105.599996777344
184,337,35154,6,0,P|247:341|301:327,1,105.599996777344
339,269,35495,1,0,0:0:0:0:
120,275,35666,2,0,P|124:212|110:158,1,105.599996777344
52,120,36007,1,0,0:0:0:0:
196,149,36177,2,0,B|254:166|254:166|371:142,1,158.399995166016
400,215,36518,6,0,L|282:240,2,105.599996777344
196,149,37029,2,0,P|275:207|242:299,1,211.199993554688
122,191,37541,1,0,0:0:0:0:
194,231,37711,1,0,0:0:0:0:
59,309,37882,6,0,P|110:299|163:303,1,105.599996777344
207,369,38223,1,0,0:0:0:0:
285,160,38393,2,0,B|246:191|246:191|241:312,1,158.399995166016
284,364,38734,1,0,0:0:0:0:
157,177,38904,2,0,L|159:245,1,52.7999983886719
159,322,39075,1,0,0:0:0:0:
163,331,39160,1,0,0:0:0:0:
167,340,39245,6,0,L|164:225,2,105.599996777344
229,166,39757,2,0,P|130:147|71:227,1,211.199993554688
235,55,40268,2,0,P|163:67|110:46,1,105.599996777344
325,117,40609,5,0,0:0:0:0:
281,279,40779,1,0,0:0:0:0:
281,268,40865,1,0,0:0:0:0:
279,257,40950,2,0,B|281:159|281:159|324:117,1,158.399995166016
426,69,41291,1,0,0:0:0:0:
381,306,41461,5,0,0:0:0:0:
325,117,41632,1,0,0:0:0:0:
450,236,41802,1,0,0:0:0:0:
52,272,41973,6,0,B|164:246|164:246|235:292,1,184.799994360352
151,384,42314,2,0,L|150:307,1,61.5999981201172
154,127,42484,2,0,P|102:177|15:60,1,246.399992480469
52,272,42995,1,0,0:0:0:0:
102,29,43166,6,0,B|166:6|218:38|218:38|275:71|344:33,1,246.399992480469
154,127,43677,1,0,0:0:0:0:
331,159,43848,2,0,L|338:29,1,123.199996240234
323,260,44189,1,0,0:0:0:0:
420,15,44359,2,0,B|415:128|415:128|461:191,1,184.799994360352
503,270,44700,6,0,P|446:260|380:277,2,105.599996777344
512,282,45211,1,0,0:0:0:0:
361,186,45382,2,0,P|312:236|364:346,1,158.399995166016
226,280,45723,2,0,P|231:354|216:404,1,105.599996777344
163,200,46064,5,0,0:0:0:0:
233,267,46234,1,0,0:0:0:0:
239,66,46404,1,0,0:0:0:0:
241,253,46575,2,0,L|238:139,1,105.599996777344
317,190,46916,1,0,0:0:0:0:
153,133,47086,2,0,P|187:81|283:78,1,158.399995166016
317,190,47427,6,0,B|315:52|315:52|376:-4,1,211.199993554688
406,210,47939,2,0,L|402:79,1,105.599996777344
415,88,48279,1,0,0:0:0:0:
509,260,48450,2,0,L|512:154,1,105.599996777344
424,273,48791,6,0,P|456:328|566:327,1,158.399995166016
387,365,49132,1,0,0:0:0:0:
340,200,49302,2,0,B|343:307|343:307|302:349,1,158.399995166016
235,383,49643,1,0,0:0:0:0:
173,211,49814,2,0,L|175:275,1,52.7999983886719
127,384,49984,1,0,0:0:0:0:
126,373,50069,1,0,0:0:0:0:
123,364,50154,6,0,B|163:318|163:318|154:172,1,176
263,269,50666,2,0,L|256:158,1,88
346,289,51007,2,0,P|308:339|197:319,1,176
175,249,51433,1,0,0:0:0:0:
164,266,51518,6,0,L|99:271,2,58.6666666666667
313,214,51859,2,0,L|248:209,2,58.6666666666667
500,174,52200,2,0,L|383:149,1,105.599996777344
192,56,52882,6,0,B|284:32|284:108|384:68,1,176
459,157,53393,2,0,P|425:229|475:334,1,176
327,264,53904,1,0,0:0:0:0:
175,296,54075,2,0,L|360:292,1,176
113,233,54586,2,0,P|88:273|91:324,2,88
195,150,55098,1,0,0:0:0:0:
195,150,55268,1,0,0:0:0:0:
72,52,55439,1,0,0:0:0:0:
72,52,55524,1,0,0:0:0:0:
72,52,55609,6,0,B|136:48|136:48|208:72|208:72|268:68,1,176
316,167,56120,2,0,P|286:119|318:7,1,176
406,87,56632,1,0,0:0:0:0:
201,192,56802,2,0,L|378:190,1,176
245,293,57314,2,0,L|438:289,1,176
101,186,57995,1,0,0:0:0:0:
122,361,58166,1,0,0:0:0:0:
122,361,58251,1,0,0:0:0:0:
122,361,58336,6,0,L|100:175,1,176
216,20,58848,2,0,L|194:206,1,176
175,318,59359,1,0,0:0:0:0:
127,132,59529,2,0,P|182:107|281:163,1,176
340,231,60041,1,0,0:0:0:0:
492,72,60211,2,0,B|396:32|400:116|300:52,1,176
202,18,60723,1,0,0:0:0:0:
255,158,60893,1,0,0:0:0:0:
255,158,60978,1,0,0:0:0:0:
255,158,61064,6,0,P|206:167|150:157,1,88
38,88,61404,2,0,P|87:79|143:89,1,88
166,250,61745,2,0,P|166:202|170:144,1,88
75,0,62086,1,0,0:0:0:0:
87,176,62257,1,0,0:0:0:0:
292,108,62427,2,0,P|227:136|120:102,1,176
40,37,62939,1,0,0:0:0:0:
145,271,63109,6,0,L|131:146,1,88
195,21,63450,2,0,L|187:102,2,58.6666666666667
215,98,63791,6,0,P|298:80|392:110,1,176
456,187,64302,1,0,0:0:0:0:
456,187,64473,2,0,P|450:236|446:290,1,88
375,366,64814,1,0,0:0:0:0:
331,234,64984,1,0,0:0:0:0:
123,320,65154,2,0,P|178:303|259:336,1,132
262,338,65495,1,0,0:0:0:0:
308,158,65666,2,0,P|314:201|300:255,1,88
426,83,66007,2,0,P|383:89|329:75,1,88
480,41,66348,1,0,0:0:0:0:
480,41,66433,1,0,0:0:0:0:
480,41,66518,6,0,P|477:87|477:161,2,88
372,94,67029,1,0,0:0:0:0:
269,129,67200,2,0,P|268:85|265:41,1,88
265,41,67541,1,0,0:0:0:0:
372,94,67711,1,0,0:0:0:0:
317,215,67882,2,0,P|255:232|174:154,1,176
83,172,68393,2,0,P|99:109|207:78,1,176
278,138,68904,1,0,0:0:0:0:
176,164,69075,1,0,0:0:0:0:
140,304,69245,6,0,B|236:292|236:292|336:320,1,176
404,339,69757,1,0,0:0:0:0:
393,80,69927,2,0,B|405:176|405:176|383:252,1,176
216,96,70439,2,0,B|300:60|304:132|396:96,1,176
489,61,70950,1,0,0:0:0:0:
475,182,71120,1,0,0:0:0:0:
350,30,71291,2,0,L|359:196,1,132
358,180,71632,1,0,0:0:0:0:
234,98,71802,1,0,0:0:0:0:
234,98,71887,1,0,0:0:0:0:
234,98,71973,6,0,L|56:108,1,176
140,4,72484,1,0,0:0:0:0:
263,27,72654,2,0,P|237:87|271:202,1,176
375,257,73166,2,0,P|343:214|250:192,1,140.8
166,243,73677,2,0,L|171:299,2,46.9333333333333
160,151,74018,1,0,0:0:0:0:
83,323,74189,1,0,0:0:0:0:
22,231,74359,1,0,0:0:0:0:
285,350,74700,5,0,0:0:0:0:
431,92,96518,6,0,L|426:242,1,140.8
420,331,97029,1,0,0:0:0:0:
333,283,97200,2,0,P|285:266|198:298,1,140.8
124,353,97711,1,0,0:0:0:0:
124,353,98052,1,0,0:0:0:0:
126,236,98223,1,0,0:0:0:0:
35,302,98393,1,0,0:0:0:0:
37,185,98564,1,0,0:0:0:0:
128,119,98734,2,0,B|200:100|200:144|272:124,1,140.8
316,64,99160,1,0,0:0:0:0:
316,64,99245,6,0,L|411:65,1,70.4
501,134,99586,2,0,L|406:133,1,70.4
451,17,99927,1,0,0:0:0:0:
451,17,100268,1,0,0:0:0:0:
316,64,100439,2,0,P|310:99|319:137,1,70.4
354,249,100779,1,0,0:0:0:0:
430,133,100950,1,0,0:0:0:0:
361,356,101120,1,0,0:0:0:0:
353,223,101291,1,0,0:0:0:0:
451,292,101461,2,0,P|394:299|360:350,1,105.6
361,356,101802,1,0,0:0:0:0:
184,224,101973,6,0,B|264:196|264:256|344:228,1,140.8
385,158,102484,1,0,0:0:0:0:
315,88,102654,1,0,0:0:0:0:
457,16,102825,2,0,L|451:103,1,70.4
279,180,103166,2,0,L|285:93,1,70.4
299,14,103507,1,0,0:0:0:0:
177,66,103677,1,0,0:0:0:0:
283,109,103848,5,0,0:0:0:0:
299,14,104018,1,0,0:0:0:0:
279,139,104189,1,0,0:0:0:0:
58,18,104529,1,0,0:0:0:0:
58,18,104615,1,0,0:0:0:0:
58,18,104700,6,0,P|103:49|176:37,1,105.6
188,36,105041,1,0,0:0:0:0:
300,149,105211,1,0,0:0:0:0:
71,117,105382,2,0,L|76:196,1,70.4
167,322,105723,6,0,L|162:243,1,70.4
246,241,106064,2,0,L|241:162,1,70.4
234,62,106404,1,0,0:0:0:0:
365,104,106575,1,0,0:0:0:0:
202,72,106745,1,0,0:0:0:0:
377,74,106916,1,0,0:0:0:0:
377,74,107427,6,0,L|382:189,2,105.599996777344
237,23,108450,1,0,0:0:0:0:
237,23,108620,2,0,P|188:11|127:43,2,105.599996777344
291,74,109473,1,0,0:0:0:0:
200,191,109814,2,0,L|146:186,1,52.7999983886719
112,118,110154,2,0,P|78:154|88:228,2,105.599996777344
145,262,111177,1,0,0:0:0:0:
145,262,111348,2,0,P|179:298|169:372,2,105.599996777344
79,227,112200,1,0,0:0:0:0:
106,333,112370,1,0,0:0:0:0:
282,188,112882,6,0,P|226:191|177:166,1,105.599996777344
242,112,113393,1,0,0:0:0:0:
203,36,113564,2,0,P|259:33|308:58,1,105.599996777344
392,123,114075,6,0,L|380:230,1,105.599996777344
475,307,114586,1,0,0:0:0:0:
475,307,114757,2,0,L|468:237,1,52.7999983886719
397,366,115098,2,0,L|390:296,2,52.7999983886719
380,172,115609,6,0,L|305:180,1,66
241,117,115950,6,0,L|247:63,2,46.9333333333333
167,72,116291,2,0,L|173:18,2,46.9333333333333
99,121,116632,6,0,L|93:175,2,46.9333333333333
151,226,116973,1,0,0:0:0:0:
