osu file format v14

[General]
AudioFilename: audio.mp3
AudioLeadIn: 0
PreviewTime: 144430
Countdown: 0
SampleSet: Soft
StackLeniency: 0.7
Mode: 0
LetterboxInBreaks: 0
WidescreenStoryboard: 0

[Editor]
DistanceSpacing: 1.2
BeatDivisor: 8
GridSize: 32
TimelineZoom: 1.8

[Metadata]
Title:Philosophyz -NanosizeMir Ver.-
TitleUnicode:Philosophyz -NanosizeMir Ver.-
Artist:NanosizeMir
ArtistUnicode:NanosizeMir
Creator:timemon
Version:Hard
Source:Rewrite
Tags:Mizutani Runa Tsukagoshi Yuichiro 塚越雄一朗 リライト visual novel 水谷瑠奈 Key ビジュアルアーツ Visual Arts The Best
BeatmapID:1353253
BeatmapSetID:621677

[Difficulty]
HPDrainRate:5
CircleSize:4
OverallDifficulty:6.5
ApproachRate:7
SliderMultiplier:1.4
SliderTickRate:1

[Events]
//Background and Video events
0,0,"rewrite7745.jpg",0,0
//Break Periods
2,64382,66282
2,106382,117282
2,139382,141282
2,181382,186282
2,209132,211032
//Storyboard Layer 0 (Background)
//Storyboard Layer 1 (Fail)
//Storyboard Layer 2 (Pass)
//Storyboard Layer 3 (Foreground)
//Storyboard Sound Samples

[TimingPoints]
1182,375,4,2,1,60,1,0
16182,-111.111111111111,4,2,1,60,0,0
31182,-125,4,2,1,40,0,0
43182,-111.111111111111,4,2,1,60,0,0
53869,-100,4,2,1,60,0,0
55182,-99.9999999999999,4,2,1,60,0,0
64182,-166.666666666667,4,2,1,40,0,0
67182,-125,4,2,1,60,0,0
70182,-90.9090909090909,4,2,1,70,0,1
76182,-100,4,2,1,70,0,1
77119,-100,4,2,1,60,0,0
82182,-90.9090909090909,4,2,1,70,0,1
88182,-100,4,2,1,60,0,0
89494,-100,4,2,1,60,0,0
94182,-111.111111111111,4,2,1,60,0,0
106182,-125,4,2,1,40,0,0
118182,-111.111111111111,4,2,1,50,0,0
128869,-100,4,2,1,60,0,0
130182,-99.9999999999999,4,2,1,60,0,0
139182,-125,4,2,1,40,0,0
142182,-125,4,2,1,60,0,0
145182,-90.9090909090909,4,2,1,70,0,1
151182,-100,4,2,1,70,0,1
152119,-100,4,2,1,60,0,0
157182,-90.9090909090909,4,2,1,70,0,1
163182,-100,4,2,1,60,0,0
164494,-100,4,2,1,60,0,0
169182,-100,4,2,1,60,0,0
181182,-166.666666666667,4,2,1,60,0,0
187182,-125,4,2,1,50,0,0
190932,375,4,2,1,60,1,0
190932,-111.111111111111,4,2,1,60,0,0
199932,-125,4,2,1,60,0,0
202182,-111.111111111111,4,2,1,60,0,0
208932,-125,4,2,1,60,0,0
213994,-125,4,2,1,60,0,0
214932,-90.9090909090909,4,2,1,70,0,1
220932,-90.9090909090909,4,2,1,70,0,1
221869,-100,4,2,1,60,0,0
226932,-90.9090909090909,4,2,1,70,0,1
232932,-100,4,2,1,60,0,0
234244,-100,4,2,1,60,0,0
238932,-111.111111111111,4,2,1,60,0,0
257353,-125,4,2,1,60,0,0

[Colours]
Combo1 : 255,151,85
Combo2 : 255,85,170
Combo3 : 255,85,85
Combo4 : 170,85,255

[HitObjects]
394,283,16182,6,0,P|410:212|390:161,1,125.999996154785,4|8,0:0|0:0,0:0:0:0:
348,102,16744,2,0,P|281:124|224:91,1,125.999996154785,4|0,0:0|0:0,0:0:0:0:
233,101,17213,1,2,0:0:0:0:
233,101,17307,1,8,0:0:0:0:
171,58,17494,6,0,P|216:121|196:188,1,125.999996154785,4|2,0:0|0:0,0:0:0:0:
155,217,18057,1,8,0:0:0:0:
98,168,18244,2,0,P|161:142|221:180,1,125.999996154785,4|0,0:0|0:0,0:0:0:0:
209,165,18713,1,2,0:0:0:0:
209,165,18807,1,8,0:0:0:0:
155,217,18994,1,0,0:0:0:0:
213,265,19182,6,0,P|276:288|336:256,1,125.999996154785,2|8,0:0|0:0,0:0:0:0:
366,201,19744,2,0,L|360:53,1,125.999996154785,4|0,0:0|0:0,0:0:0:0:
360,75,20213,1,2,0:0:0:0:
360,75,20307,1,8,0:0:0:0:
271,133,20494,5,2,0:0:0:0:
271,133,20869,1,2,0:0:0:0:
177,340,21432,2,0,L|256:339,1,62.9999980773926,2|0,0:0|0:0,0:0:0:0:
291,283,21807,2,0,L|370:284,1,62.9999980773926,2|0,0:0|0:0,0:0:0:0:
416,349,22182,6,0,B|432:284|432:284|427:204,1,125.999996154785,4|8,0:0|0:0,0:0:0:0:
387,161,22744,2,0,P|309:133|256:150,1,125.999996154785,4|0,0:0|0:0,0:0:0:0:
269,142,23213,1,0,0:0:0:0:
269,142,23307,1,0,0:0:0:0:
219,199,23494,2,0,P|141:227|88:210,1,125.999996154785,4|2,0:0|0:0,0:0:0:0:
30,188,24057,1,8,0:0:0:0:
91,81,24244,6,0,L|224:78,1,125.999996154785,4|0,0:0|0:0,0:0:0:0:
275,126,24807,1,8,0:0:0:0:
349,66,24994,1,0,0:0:0:0:
349,66,25088,1,0,0:0:0:0:
348,65,25182,6,0,L|350:191,1,125.999996154785,2|8,0:0|0:0,0:0:0:0:
415,245,25744,2,0,P|355:273|296:252,1,125.999996154785,4|0,0:0|0:0,0:0:0:0:
300,255,26213,1,2,0:0:0:0:
300,255,26307,1,8,0:0:0:0:
251,169,26494,5,4,0:0:0:0:
251,169,27057,6,0,L|302:171,2,41.9999987182618,2|0|0,0:0|0:0|0:0,0:0:0:0:
180,216,27432,1,2,0:0:0:0:
180,216,27619,2,0,L|178:295,1,62.9999980773926,0|2,0:0|0:0,0:0:0:0:
257,320,27994,1,0,0:0:0:0:
257,320,28088,1,0,0:0:0:0:
257,320,28182,6,0,P|337:334|395:306,1,125.999996154785,2|8,0:0|0:0,0:0:0:0:
435,270,28744,1,4,0:0:0:0:
303,194,29119,1,4,0:0:0:0:
438,127,29494,5,6,0:0:0:0:
256,192,29682,12,0,31182,0:0:0:0:
326,164,31557,6,0,L|323:220,1,56
285,282,31932,2,0,P|225:299|176:270,1,112
148,214,32494,2,0,L|147:94,1,112
273,53,33244,2,0,L|340:50,1,56,0|0,0:0|0:0,0:0:0:0:
385,96,33619,2,0,P|396:161|378:205,1,112,0|0,0:0|0:0,0:0:0:0:
314,254,34182,5,2,0:0:0:0:
314,254,34557,2,0,P|259:271|207:243,1,112,0|0,0:0|0:0,0:0:0:0:
109,162,35307,2,0,L|46:158,2,56,0|0|0,0:0|0:0|0:0,0:0:0:0:
169,212,35869,2,0,P|186:275|162:339,1,112,0|0,0:0|0:0,0:0:0:0:
116,363,36432,1,2,0:0:0:0:
53,327,36619,2,0,P|36:264|60:200,1,112,0|0,0:0|0:0,0:0:0:0:
119,133,37182,5,2,0:0:0:0:
119,133,37557,2,0,L|185:130,1,56,0|0,0:0|0:0,0:0:0:0:
223,78,37932,2,0,P|247:142|217:187,1,112,0|0,0:0|0:0,0:0:0:0:
171,223,38494,2,0,L|98:225,1,56,0|0,0:0|0:0,0:0:0:0:
177,297,38869,2,0,L|250:295,1,56,0|0,0:0|0:0,0:0:0:0:
278,238,39244,2,0,L|351:240,1,56,0|0,0:0|0:0,0:0:0:0:
423,287,39619,6,0,L|422:156,1,112,2|0,0:0|0:0,0:0:0:0:
383,113,40182,2,0,P|323:92|270:112,1,112,0|0,0:0|0:0,0:0:0:0:
223,153,40744,1,0,0:0:0:0:
223,153,40932,2,0,P|163:174|110:154,1,112,0|0,0:0|0:0,0:0:0:0:
63,112,41494,1,0,0:0:0:0:
63,112,41682,5,0,0:0:0:0:
256,192,41775,12,0,43182,0:0:0:0:
186,56,43557,6,0,L|269:50,1,62.9999980773926,0|0,0:0|0:0,0:0:0:0:
314,88,43932,2,0,B|325:145|325:145|315:218,1,125.999996154785,8|0,0:0|0:0,0:0:0:0:
265,268,44494,2,0,P|227:275|196:268,1,62.9999980773926,0|2,0:0|0:0,0:0:0:0:
156,211,44869,2,0,P|91:198|29:226,1,125.999996154785,0|0,0:0|0:0,0:0:0:0:
0,278,45432,2,0,P|21:203|1:142,1,125.999996154785,8|0,0:0|0:0,0:0:0:0:
108,40,46182,5,2,0:0:0:0:
108,40,46557,2,0,L|182:35,1,62.9999980773926,0|0,0:0|0:0,0:0:0:0:
239,80,46932,2,0,P|273:147|260:204,1,125.999996154785,8|0,0:0|0:0,0:0:0:0:
212,258,47494,1,0,0:0:0:0:
212,258,47682,6,0,L|118:265,2,94.499997116089,2|2|2,0:0|0:0|0:0,0:0:0:0:
261,323,48432,1,8,0:0:0:0:
317,263,48619,2,0,L|356:264,2,31.4999990386963
437,170,49182,5,2,0:0:0:0:
437,170,49557,2,0,L|438:95,1,62.9999980773926,0|0,0:0|0:0,0:0:0:0:
387,50,49932,2,0,P|315:33|262:54,1,125.999996154785,8|0,0:0|0:0,0:0:0:0:
212,101,50494,2,0,L|139:97,1,62.9999980773926,0|2,0:0|0:0,0:0:0:0:
34,157,50869,2,0,L|107:153,1,62.9999980773926,0|0,0:0|0:0,0:0:0:0:
153,204,51244,1,0,0:0:0:0:
108,265,51432,2,0,P|164:224|236:247,1,125.999996154785,8|0,0:0|0:0,0:0:0:0:
293,265,51994,1,0,0:0:0:0:
293,265,52182,6,0,L|295:135,1,125.999996154785,2|0,0:0|0:0,0:0:0:0:
173,48,52932,2,0,B|104:36|104:36|45:50|46:50,1,125.999996154785,8|0,0:0|0:0,0:0:0:0:
6,111,53494,1,4,0:0:0:0:
114,239,53869,1,0,3:0:0:0:
114,239,53963,1,0,3:0:0:0:
114,239,54057,2,0,L|153:232,3,35,8|8|0|0,3:0|3:0|3:0|3:0,0:0:0:0:
172,198,54432,2,0,L|211:205,3,35,8|8|0|0,3:0|3:0|3:0|3:0,0:0:0:0:
247,214,54807,1,8,3:0:0:0:
372,325,55182,6,0,P|284:340|235:311,1,140,4|2,0:0|0:0,0:0:0:0:
157,261,55744,1,0,0:0:0:0:
157,261,55932,2,0,P|69:246|20:275,1,140,2|2,0:0|0:0,0:0:0:0:
94,339,56494,2,0,L|239:346,1,140
298,292,57057,1,0,0:0:0:0:
368,337,57244,2,0,P|436:356|503:313,1,140,0|0,0:0|0:0,0:0:0:0:
456,249,57807,1,2,0:0:0:0:
501,178,57994,1,0,0:0:0:0:
419,105,58182,6,0,P|347:95|313:107,2,105,2|0|0,0:0|0:0|0:0,0:0:0:0:
485,159,58932,2,0,L|485:229,1,70,2|0,0:0|0:0,0:0:0:0:
485,229,59213,1,0,0:0:0:0:
485,229,59307,1,8,0:0:0:0:
417,298,59494,2,0,L|336:289,1,70,4|0,0:0|0:0,0:0:0:0:
218,348,59869,2,0,L|299:339,1,70,0|2,0:0|0:0,0:0:0:0:
333,263,60244,2,0,B|340:191|340:191|333:119,1,140,0|0,0:0|0:0,0:0:0:0:
283,55,60807,1,2,0:0:0:0:
217,106,60994,1,0,0:0:0:0:
141,37,61182,6,0,P|63:28|15:67,1,140,2|2,0:0|0:0,0:0:0:0:
90,104,61744,1,0,0:0:0:0:
30,163,61932,2,0,L|32:237,1,70
105,273,62307,1,2,0:0:0:0:
62,345,62494,2,0,P|24:355|-11:342,1,70,0|2,0:0|0:0,0:0:0:0:
105,273,62869,2,0,P|143:263|178:276,1,70,0|2,0:0|0:0,0:0:0:0:
242,316,63244,2,0,P|316:333|375:303,1,140,0|0,0:0|0:0,0:0:0:0:
413,233,63807,1,2,0:0:0:0:
342,187,63994,1,0,0:0:0:0:
449,127,64182,5,0,1:0:0:0:
256,192,67182,12,4,68682,0:0:0:0:
73,66,69432,5,0,0:0:0:0:
205,44,69807,1,0,0:0:0:0:
276,138,70182,6,0,L|274:231,1,77.0000023498536,6|0,0:0|0:0,0:0:0:0:
208,280,70557,1,8,0:0:0:0:
137,220,70744,2,0,P|89:213|53:222,1,77.0000023498536,0|2,0:0|0:0,0:0:0:0:
123,309,71119,2,0,P|171:316|207:307,1,77.0000023498536,0|8,0:0|0:0,0:0:0:0:
301,227,71494,6,0,L|401:224,1,77.0000023498536,0|2,0:0|0:0,0:0:0:0:
473,147,71869,2,0,L|373:144,1,77.0000023498536,0|8,0:0|0:0,0:0:0:0:
303,69,72244,2,0,L|403:66,1,77.0000023498536,0|0,0:0|0:0,0:0:0:0:
473,147,72619,2,0,P|485:190|478:228,2,77.0000023498536,2|10|2,0:0|0:0|0:0,0:0:0:0:
397,201,73182,6,0,L|306:203,1,77.0000023498536,2|0,0:0|0:0,0:0:0:0:
238,156,73557,1,8,0:0:0:0:
183,285,73744,2,0,P|167:238|182:199,1,77.0000023498536,0|2,0:0|0:0,0:0:0:0:
248,128,74119,2,0,P|264:81|249:42,1,77.0000023498536,0|8,0:0|0:0,0:0:0:0:
169,83,74494,6,0,L|76:70,1,77.0000023498536,0|2,0:0|0:0,0:0:0:0:
18,147,74869,1,0,0:0:0:0:
94,212,75057,1,8,0:0:0:0:
18,280,75244,2,0,P|-15:203|32:140,1,154.000004699707
94,212,75807,1,8,0:0:0:0:
173,149,75994,1,0,0:0:0:0:
66,100,76182,6,0,L|67:239,1,140,2|8,0:0|0:0,0:0:0:0:
134,290,76744,2,0,L|177:288,3,35,0|0|0|0,3:0|3:0|3:0|3:0,0:0:0:0:
204,265,77119,2,0,B|217:313|217:313|203:377,2,105,4|4|4,1:0|1:0|1:0,0:0:0:0:
103,93,78057,6,0,L|106:177,1,70,8|0,0:0|0:0,0:0:0:0:
151,231,78432,2,0,P|192:241|235:230,1,70,2|0,0:0|0:0,0:0:0:0:
294,201,78807,2,0,P|328:191|362:195,1,70,8|0,0:0|0:0,0:0:0:0:
427,260,79182,6,0,P|454:191|429:127,1,140,2|8,0:0|0:0,0:0:0:0:
355,64,79744,2,0,L|213:69,1,140,4|0,0:0|0:0,0:0:0:0:
215,68,80213,1,0,0:0:0:0:
215,68,80307,1,8,0:0:0:0:
290,160,80494,1,4,0:0:0:0:
67,270,81057,5,8,0:0:0:0:
127,328,81244,1,0,0:0:0:0:
127,328,81338,1,0,0:0:0:0:
127,328,81432,1,2,0:0:0:0:
253,217,81807,1,2,0:0:0:0:
104,107,82182,6,0,P|89:62|99:18,1,77.0000023498536,4|0,0:0|0:0,0:0:0:0:
181,6,82557,1,8,0:0:0:0:
239,76,82744,2,0,L|323:70,1,77.0000023498536,0|2,0:0|0:0,0:0:0:0:
389,13,83119,2,0,L|473:19,1,77.0000023498536,0|8,0:0|0:0,0:0:0:0:
457,119,83494,6,0,P|472:160|476:199,1,77.0000023498536,0|2,0:0|0:0,0:0:0:0:
380,266,83869,2,0,P|395:225|399:186,1,77.0000023498536,0|8,0:0|0:0,0:0:0:0:
302,120,84244,2,0,P|317:161|321:200,1,77.0000023498536,0|2,0:0|0:0,0:0:0:0:
161,173,84619,2,0,L|244:177,2,77.0000023498536,2|8|2,0:0|0:0|0:0,0:0:0:0:
302,120,85182,6,0,L|394:112,1,77.0000023498536,2|0,0:0|0:0,0:0:0:0:
452,76,85557,1,8,0:0:0:0:
373,27,85744,2,0,L|281:19,1,77.0000023498536,0|2,0:0|0:0,0:0:0:0:
207,69,86119,1,0,0:0:0:0:
252,167,86307,1,8,0:0:0:0:
175,268,86494,6,0,L|87:263,1,77.0000023498536,0|2,0:0|0:0,0:0:0:0:
29,201,86869,1,0,0:0:0:0:
116,149,87057,1,8,0:0:0:0:
41,83,87244,1,0,0:0:0:0:
41,83,87338,1,0,0:0:0:0:
41,83,87432,6,0,P|79:65|121:59,1,77.0000023498536,2|0,0:0|0:0,0:0:0:0:
188,113,87807,1,8,0:0:0:0:
254,49,87994,1,0,0:0:0:0:
330,118,88182,6,0,L|333:270,1,140,2|8,0:0|0:0,0:0:0:0:
264,306,88744,2,0,L|224:310,2,35,2|2|2,0:0|0:0|0:0,0:0:0:0:
325,363,89119,1,2,0:0:0:0:
373,293,89307,1,8,0:0:0:0:
255,279,89494,5,4,0:0:0:0:
224,269,90432,6,0,P|182:254|115:271,2,105,0|0|0,0:0|0:0|0:0,0:0:0:0:
275,194,91182,6,0,L|278:113,1,70,4|0,0:0|0:0,0:0:0:0:
204,43,91557,2,0,P|166:33|125:42,1,70,8|0,0:0|0:0,0:0:0:0:
88,112,91932,2,0,L|-5:108,1,70,2|0,0:0|0:0,0:0:0:0:
58,35,92307,1,8,0:0:0:0:
137,38,92494,6,0,P|207:58|287:33,1,140,4|0,0:0|0:0,0:0:0:0:
354,22,93057,1,2,3:0:0:0:
354,22,93150,1,2,3:0:0:0:
354,22,93244,1,2,3:0:0:0:
404,89,93432,2,0,L|400:128,3,35,2|2|2|2,3:0|3:0|3:0|3:0,0:0:0:0:
426,156,93807,2,0,L|422:195,3,35,2|2|2|2,0:0|0:0|0:0|0:0,0:0:0:0:
438,225,94182,6,0,P|372:245|324:211,1,125.999996154785,4|8,0:0|0:0,0:0:0:0:
276,160,94744,2,0,P|209:141|154:159,1,125.999996154785,4|2,0:0|0:0,0:0:0:0:
156,157,95213,1,2,0:0:0:0:
156,157,95307,1,8,0:0:0:0:
91,220,95494,6,0,L|87:353,1,125.999996154785,4|2,0:0|0:0,0:0:0:0:
159,369,96057,1,8,0:0:0:0:
214,317,96244,2,0,P|275:308|341:355,1,125.999996154785,4|0,0:0|0:0,0:0:0:0:
329,338,96713,1,2,0:0:0:0:
329,338,96807,1,8,0:0:0:0:
402,291,96994,1,0,0:0:0:0:
357,213,97182,6,0,L|351:85,1,125.999996154785,2|8,0:0|0:0,0:0:0:0:
300,31,97744,2,0,B|229:22|229:22|167:36,1,125.999996154785,4|0,0:0|0:0,0:0:0:0:
175,33,98213,1,0,0:0:0:0:
175,33,98307,1,8,0:0:0:0:
126,108,98494,6,0,P|81:119|7:72,1,125.999996154785,4|0,0:0|0:0,0:0:0:0:
13,82,98963,1,0,0:0:0:0:
13,82,99057,1,8,0:0:0:0:
158,39,99432,2,0,L|231:35,1,62.9999980773926,2|0,0:0|0:0,0:0:0:0:
280,82,99807,1,2,0:0:0:0:
372,42,99994,1,0,0:0:0:0:
372,42,100088,1,0,0:0:0:0:
372,42,100182,6,0,L|363:123,1,62.9999980773926,4|0,0:0|0:0,0:0:0:0:
418,179,100557,1,8,0:0:0:0:
344,227,100744,2,0,P|277:243|222:208,1,125.999996154785,4|2,0:0|0:0,0:0:0:0:
229,216,101213,1,2,0:0:0:0:
229,216,101307,1,8,0:0:0:0:
212,146,101494,6,0,P|161:187|165:256,1,125.999996154785,4|2,0:0|0:0,0:0:0:0:
203,305,102057,1,8,0:0:0:0:
152,361,102244,2,0,L|23:368,1,125.999996154785,4|0,0:0|0:0,0:0:0:0:
26,367,102713,1,2,0:0:0:0:
26,367,102807,1,8,0:0:0:0:
68,292,102994,1,0,0:0:0:0:
23,214,103182,6,0,P|6:147|26:95,1,125.999996154785,4|8,0:0|0:0,0:0:0:0:
75,39,103744,2,0,L|215:36,1,125.999996154785,4|0,0:0|0:0,0:0:0:0:
200,36,104213,1,2,0:0:0:0:
200,36,104307,1,8,0:0:0:0:
302,104,104494,6,0,L|298:253,1,125.999996154785,6|0,0:0|0:0,0:0:0:0:
298,229,104963,1,0,0:0:0:0:
298,229,105057,1,0,0:0:0:0:
256,192,105150,12,0,106182,0:0:0:0:
409,58,118182,6,0,L|331:53,1,62.9999980773926,2|0,0:0|0:0,0:0:0:0:
292,107,118557,2,0,P|231:122|177:89,1,125.999996154785,0|0,0:0|0:0,0:0:0:0:
40,30,119307,1,0,0:0:0:0:
79,93,119494,2,0,P|103:154|79:211,1,125.999996154785,0|0,0:0|0:0,0:0:0:0:
148,344,120244,2,0,P|179:349|210:342,1,62.9999980773926
277,288,120619,2,0,L|409:298,1,125.999996154785,0|0,0:0|0:0,0:0:0:0:
454,242,121182,5,2,0:0:0:0:
454,242,121557,2,0,L|458:171,1,62.9999980773926,0|0,0:0|0:0,0:0:0:0:
383,87,121932,2,0,L|387:158,1,62.9999980773926,0|0,0:0|0:0,0:0:0:0:
342,211,122307,1,0,0:0:0:0:
289,147,122494,2,0,P|216:135|169:164,1,125.999996154785,0|0,0:0|0:0,0:0:0:0:
76,339,123244,2,0,L|78:277,1,62.9999980773926
143,231,123619,2,0,B|210:227|210:227|285:258,1,125.999996154785,0|0,0:0|0:0,0:0:0:0:
343,299,124182,5,2,0:0:0:0:
343,299,124557,2,0,P|338:261|342:230,1,62.9999980773926,0|0,0:0|0:0,0:0:0:0:
429,278,124932,2,0,P|434:316|430:347,1,62.9999980773926,0|0,0:0|0:0,0:0:0:0:
362,372,125307,1,0,0:0:0:0:
314,308,125494,6,0,L|248:304,1,62.9999980773926,0|0,0:0|0:0,0:0:0:0:
158,240,125869,2,0,L|224:236,1,62.9999980773926,0|0,0:0|0:0,0:0:0:0:
302,167,126244,2,0,L|236:163,1,62.9999980773926,0|0,0:0|0:0,0:0:0:0:
182,100,126619,2,0,P|125:78|60:113,1,125.999996154785,0|0,0:0|0:0,0:0:0:0:
1,73,127182,6,0,P|38:109|29:189,1,125.999996154785,2|0,0:0|0:0,0:0:0:0:
141,287,127932,2,0,L|277:297,1,125.999996154785,2|0,0:0|0:0,0:0:0:0:
328,237,128494,1,4,0:0:0:0:
215,93,128869,5,2,3:0:0:0:
215,93,128963,1,2,3:0:0:0:
215,93,129057,2,0,L|170:91,3,35,8|8|2|2,3:0|3:0|3:0|3:0,0:0:0:0:
144,114,129432,2,0,L|99:116,3,35,8|8|2|2,3:0|3:0|3:0|3:0,0:0:0:0:
74,139,129807,1,8,3:0:0:0:
171,255,130182,6,0,P|241:247|292:298,1,140,4|8,0:0|0:0,0:0:0:0:
329,364,130744,1,0,0:0:0:0:
391,307,130932,2,0,L|393:234,1,70,0|0,0:0|0:0,0:0:0:0:
447,172,131307,1,8,0:0:0:0:
379,107,131494,6,0,P|312:88|251:127,1,140,2|2,0:0|0:0,0:0:0:0:
213,195,132057,1,8,0:0:0:0:
130,159,132244,1,2,0:0:0:0:
130,159,132338,1,8,0:0:0:0:
130,159,132432,2,0,P|88:154|56:160,1,70,0|2,0:0|0:0,0:0:0:0:
146,234,132807,2,0,P|188:239|220:233,1,70,8|0,0:0|0:0,0:0:0:0:
277,153,133182,6,0,L|364:151,1,70,2|0,0:0|0:0,0:0:0:0:
463,219,133557,2,0,L|376:217,1,70,8|0,0:0|0:0,0:0:0:0:
337,281,133932,2,0,P|266:302|210:274,1,140,0|8,0:0|0:0,0:0:0:0:
157,208,134494,1,4,0:0:0:0:
273,78,134869,6,0,L|318:76,2,35,0|2|8,0:0|0:0|0:0,0:0:0:0:
372,131,135244,1,2,0:0:0:0:
372,131,135338,2,0,L|368:239,1,105,8|2,0:0|0:0,0:0:0:0:
311,298,135807,1,8,0:0:0:0:
224,208,135994,1,0,3:0:0:0:
224,208,136088,1,0,3:0:0:0:
224,208,136182,6,0,P|181:201|107:267,1,140,4|8,0:0|0:0,0:0:0:0:
95,365,136744,1,0,0:0:0:0:
31,309,136932,2,0,P|98:284|171:322,1,140,2|8,0:0|0:0,0:0:0:0:
215,369,137494,6,0,L|357:361,1,140,2|0,0:0|0:0,0:0:0:0:
409,296,138057,1,8,0:0:0:0:
349,237,138244,1,2,0:0:0:0:
349,237,138338,2,0,L|343:122,1,105,8|2,0:0|0:0,0:0:0:0:
282,74,138807,2,0,B|209:71|210:71,1,70,8|2,0:0|0:0,0:0:0:0:
135,138,139182,5,0,1:0:0:0:
256,192,142182,12,4,143682,0:0:0:0:
396,130,144432,5,0,0:0:0:0:
449,253,144807,1,0,0:0:0:0:
280,328,145182,6,0,L|200:322,1,77.0000023498536,6|0,0:0|0:0,0:0:0:0:
150,246,145557,1,8,0:0:0:0:
205,172,145744,2,0,P|253:159|291:172,1,77.0000023498536,0|2,0:0|0:0,0:0:0:0:
352,221,146119,2,0,P|400:234|438:221,1,77.0000023498536,0|8,0:0|0:0,0:0:0:0:
278,165,146494,6,0,L|274:254,1,77.0000023498536,0|2,0:0|0:0,0:0:0:0:
355,144,146869,2,0,L|359:55,1,77.0000023498536,0|8,0:0|0:0,0:0:0:0:
272,6,147244,2,0,L|276:95,1,77.0000023498536,0|2,0:0|0:0,0:0:0:0:
199,161,147619,2,0,P|150:169|113:156,2,77.0000023498536,2|8|2,0:0|0:0|0:0,0:0:0:0:
275,82,148182,6,0,P|319:76|352:89,1,77.0000023498536,2|0,0:0|0:0,0:0:0:0:
427,136,148557,1,8,0:0:0:0:
375,213,148744,2,0,L|378:307,1,77.0000023498536,0|2,0:0|0:0,0:0:0:0:
317,360,149119,2,0,P|272:370|236:358,1,77.0000023498536,0|8,0:0|0:0,0:0:0:0:
172,289,149494,6,0,L|84:283,1,77.0000023498536,0|2,0:0|0:0,0:0:0:0:
24,192,149869,1,0,0:0:0:0:
158,143,150057,1,8,0:0:0:0:
63,58,150244,2,0,L|55:212,1,154.000004699707
158,143,150807,1,8,0:0:0:0:
63,58,150994,1,0,0:0:0:0:
159,40,151182,6,0,L|309:47,1,140,2|8,0:0|0:0,0:0:0:0:
352,110,151744,2,0,L|353:153,3,35,0|0|0|0,3:0|3:0|3:0|3:0,0:0:0:0:
325,177,152119,2,0,P|269:196|223:176,2,105,4|4|4,1:0|1:0|1:0,0:0:0:0:
457,231,153057,6,0,L|456:318,1,70,8|0,0:0|0:0,0:0:0:0:
393,359,153432,2,0,L|315:349,1,70,2|0,0:0|0:0,0:0:0:0:
283,273,153807,2,0,L|213:281,1,70,8|0,0:0|0:0,0:0:0:0:
166,196,154182,6,0,L|21:205,1,140,2|8,0:0|0:0,0:0:0:0:
85,291,154744,2,0,B|166:285|166:285|234:320,1,140,4|0,0:0|0:0,0:0:0:0:
218,311,155213,1,2,0:0:0:0:
218,311,155307,1,8,0:0:0:0:
296,253,155494,6,0,L|298:103,1,140,4|2,0:0|0:0,0:0:0:0:
351,47,156057,1,8,0:0:0:0:
412,103,156244,1,0,0:0:0:0:
412,103,156338,1,0,0:0:0:0:
412,103,156432,1,2,0:0:0:0:
276,202,156807,1,2,0:0:0:0:
191,37,157182,6,0,L|110:32,1,77.0000023498536,6|0,0:0|0:0,0:0:0:0:
38,85,157557,1,8,0:0:0:0:
102,150,157744,2,0,P|111:193|101:229,1,77.0000023498536,0|2,0:0|0:0,0:0:0:0:
31,268,158119,2,0,P|22:225|32:189,1,77.0000023498536,0|8,0:0|0:0,0:0:0:0:
123,132,158494,6,0,P|164:117|203:113,1,77.0000023498536,0|2,0:0|0:0,0:0:0:0:
270,210,158869,2,0,P|229:195|190:191,1,77.0000023498536,0|8,0:0|0:0,0:0:0:0:
124,287,159244,2,0,P|165:272|204:268,1,77.0000023498536,0|2,0:0|0:0,0:0:0:0:
262,334,159619,2,0,L|348:345,2,77.0000023498536,2|8|2,0:0|0:0|0:0,0:0:0:0:
197,268,160182,6,0,P|186:223|193:186,1,77.0000023498536,2|0,0:0|0:0,0:0:0:0:
232,110,160557,1,8,0:0:0:0:
163,48,160744,2,0,P|115:41|79:55,1,77.0000023498536,0|2,0:0|0:0,0:0:0:0:
22,127,161119,1,0,0:0:0:0:
151,174,161307,1,8,0:0:0:0:
28,236,161494,6,0,L|21:142,1,77.0000023498536,0|2,0:0|0:0,0:0:0:0:
107,76,161869,1,0,0:0:0:0:
151,174,162057,1,8,0:0:0:0:
218,111,162244,1,0,0:0:0:0:
218,111,162338,1,0,0:0:0:0:
218,111,162432,6,0,P|264:122|303:107,1,77.0000023498536,2|0,0:0|0:0,0:0:0:0:
368,63,162807,1,8,0:0:0:0:
425,135,162994,1,0,0:0:0:0:
505,61,163182,6,0,L|502:222,1,140,2|8,0:0|0:0,0:0:0:0:
408,261,163744,2,0,L|369:252,2,35
488,306,164119,1,0,0:0:0:0:
406,350,164307,1,0,0:0:0:0:
372,229,164494,5,4,0:0:0:0:
220,127,165432,6,0,P|173:112|117:127,2,105,0|0|0,0:0|0:0|0:0,0:0:0:0:
285,180,166182,6,0,L|277:256,1,70,6|0,0:0|0:0,0:0:0:0:
208,328,166557,2,0,L|200:252,1,70,8|0,0:0|0:0,0:0:0:0:
137,205,166932,2,0,P|95:202|64:216,1,70,0|0,0:0|0:0,0:0:0:0:
6,267,167307,1,8,0:0:0:0:
113,278,167494,5,4,0:0:0:0:
256,192,167588,12,0,168807,0:0:0:0:
103,91,169182,6,0,L|97:175,1,70,6|0,0:0|0:0,0:0:0:0:
150,227,169557,2,0,P|185:240|220:232,1,70,8|0,0:0|0:0,0:0:0:0:
286,187,169932,2,0,P|321:174|356:182,1,70,2|0,0:0|0:0,0:0:0:0:
425,220,170307,1,8,0:0:0:0:
465,146,170494,6,0,P|473:106|460:68,1,70,0|2,0:0|0:0,0:0:0:0:
399,26,170869,1,0,0:0:0:0:
399,26,170963,1,0,0:0:0:0:
399,26,171057,2,0,L|322:17,1,70,8|0,0:0|0:0,0:0:0:0:
231,98,171432,2,0,L|308:89,1,70,2|0,0:0|0:0,0:0:0:0:
370,136,171807,2,0,L|366:227,1,70,8|0,0:0|0:0,0:0:0:0:
258,275,172182,5,2,0:0:0:0:
177,224,172369,1,0,0:0:0:0:
177,224,172463,1,0,0:0:0:0:
177,224,172557,2,0,L|97:218,1,70,8|0,0:0|0:0,0:0:0:0:
224,154,172932,2,0,L|304:148,1,70,2|0,0:0|0:0,0:0:0:0:
354,89,173307,1,8,0:0:0:0:
260,23,173494,1,0,0:0:0:0:
260,23,173682,6,0,P|215:43|122:12,1,140,2|8,0:0|0:0,0:0:0:0:
60,66,174244,1,0,0:0:0:0:
60,66,174338,1,0,0:0:0:0:
60,66,174432,2,0,L|56:110,3,35,2|0|0|0,0:0|0:0|0:0|0:0,0:0:0:0:
81,135,174807,2,0,L|84:169,3,35,8|0|0|0,0:0|0:0|0:0|0:0,0:0:0:0:
58,202,175182,6,0,B|36:272|36:272|66:350,1,140,0|8,0:0|0:0,0:0:0:0:
219,279,175932,2,0,L|298:278,1,70,2|0,0:0|0:0,0:0:0:0:
356,327,176307,1,8,0:0:0:0:
421,255,176494,6,0,L|423:104,1,140,4|0,0:0|0:0,0:0:0:0:
422,115,176963,1,0,0:0:0:0:
422,115,177057,1,8,0:0:0:0:
359,60,177244,2,0,P|296:41|227:65,1,140,2|0,0:0|0:0,0:0:0:0:
171,127,177807,2,0,L|175:209,1,70,8|0,0:0|0:0,0:0:0:0:
250,233,178182,6,0,P|186:214|116:253,1,140,2|8,0:0|0:0,0:0:0:0:
75,313,178744,2,0,L|33:309,3,35,0|0|0|0,0:0|0:0|0:0|0:0,0:0:0:0:
100,338,179119,1,8,0:0:0:0:
91,239,179307,1,0,0:0:0:0:
208,222,179494,1,4,0:0:0:0:
208,222,180057,6,0,L|204:139,1,70,8|0,0:0|0:0,0:0:0:0:
269,77,180432,2,0,P|325:65|384:88,2,105,2|0|0,0:0|0:0|0:0,0:0:0:0:
204,152,181182,5,4,0:0:0:0:
255,192,187182,5,0,0:0:0:0:
256,192,187275,12,0,189994,0:0:0:0:
185,37,190932,6,0,P|257:17|307:39,1,125.999996154785,4|8,0:0|0:0,0:0:0:0:
425,100,191682,2,0,P|417:141|424:169,1,62.9999980773926,2|0,0:0|0:0,0:0:0:0:
480,208,192057,2,0,P|488:249|481:277,1,62.9999980773926,8|0,0:0|0:0,0:0:0:0:
468,343,192432,2,0,L|384:364,1,62.9999980773926,2|0,0:0|0:0,0:0:0:0:
335,266,192807,2,0,L|419:287,1,62.9999980773926,8|0,0:0|0:0,0:0:0:0:
391,194,193182,1,2,0:0:0:0:
317,237,193369,2,0,P|256:255|192:219,1,125.999996154785,0|0,0:0|0:0,0:0:0:0:
151,173,193932,6,0,P|179:236|148:297,2,125.999996154785,0|8|2,0:0|0:0|0:0,0:0:0:0:
68,29,195057,1,8,0:0:0:0:
125,77,195244,1,0,0:0:0:0:
200,50,195432,2,0,P|237:62|329:33,1,125.999996154785,2|8,0:0|0:0,0:0:0:0:
385,77,195994,1,0,0:0:0:0:
385,77,196182,2,0,L|378:210,1,125.999996154785,2|8,0:0|0:0,0:0:0:0:
309,234,196744,1,0,0:0:0:0:
353,295,196932,6,0,P|318:273|229:307,1,125.999996154785,2|8,0:0|0:0,0:0:0:0:
116,359,197682,2,0,L|46:349,1,62.9999980773926,2|0,0:0|0:0,0:0:0:0:
141,287,198057,2,0,L|217:300,1,62.9999980773926,8|0,0:0|0:0,0:0:0:0:
264,352,198432,2,0,L|340:339,1,62.9999980773926,2|0,0:0|0:0,0:0:0:0:
355,264,198807,2,0,P|367:222|362:183,1,62.9999980773926,8|0,0:0|0:0,0:0:0:0:
331,128,199182,1,2,0:0:0:0:
260,169,199369,2,0,P|190:181|140:143,1,125.999996154785,0|0,0:0|0:0,0:0:0:0:
123,68,199932,6,0,L|213:57,2,84,2|0|0,0:0|0:0|0:0,0:0:0:0:
342,130,201432,6,0,L|252:119,2,84,2|0|0,0:0|0:0|0:0,0:0:0:0:
399,179,202182,5,2,0:0:0:0:
342,228,202369,1,0,0:0:0:0:
342,228,202463,1,0,0:0:0:0:
342,228,202557,1,2,0:0:0:0:
448,335,202932,6,0,L|453:229,2,94.499997116089,4|4|4,0:0|0:0|0:0,0:0:0:0:
382,205,204057,2,0,P|352:191|312:196,1,62.9999980773926,2|0,0:0|0:0,0:0:0:0:
262,237,204432,2,0,P|232:251|192:246,1,62.9999980773926,2|0,0:0|0:0,0:0:0:0:
143,201,204807,2,0,L|139:69,1,125.999996154785,2|2,0:0|0:0,0:0:0:0:
196,25,205369,2,0,P|271:13|323:39,1,125.999996154785,0|0,0:0|0:0,0:0:0:0:
375,78,205932,6,0,P|450:90|502:64,1,125.999996154785,2|2,0:0|0:0,0:0:0:0:
496,156,206494,1,0,0:0:0:0:
496,156,206682,2,0,L|482:306,1,125.999996154785,2|2,0:0|0:0,0:0:0:0:
355,360,207432,2,0,L|341:210,1,125.999996154785,2|2,0:0|0:0,0:0:0:0:
247,123,208182,2,0,B|181:117|181:117|145:132,2,94.499997116089,2|0|0,0:0|0:0|0:0,0:0:0:0:
316,184,208932,5,4,0:0:0:0:
256,192,211932,12,0,213432,0:0:0:0:
343,259,214182,5,0,0:0:0:0:
222,319,214557,1,0,0:0:0:0:
145,159,214932,6,0,P|136:109|142:66,1,77.0000023498536,6|0,0:0|0:0,0:0:0:0:
201,13,215307,1,8,0:0:0:0:
273,69,215494,2,0,L|352:63,1,77.0000023498536,0|2,0:0|0:0,0:0:0:0:
440,146,215869,2,0,L|361:140,1,77.0000023498536,0|8,0:0|0:0,0:0:0:0:
239,209,216244,6,0,P|285:221|311:243,1,77.0000023498536,0|2,0:0|0:0,0:0:0:0:
431,266,216619,2,0,P|385:278|359:300,1,77.0000023498536,0|8,0:0|0:0,0:0:0:0:
235,320,216994,2,0,P|281:332|307:354,1,77.0000023498536,0|2,0:0|0:0,0:0:0:0:
431,266,217369,2,0,B|427:186|427:189,2,77.0000023498536,2|8|2,0:0|0:0|0:0,0:0:0:0:
270,247,217932,6,0,L|188:241,1,77.0000023498536,2|2,0:0|0:0,0:0:0:0:
109,204,218307,1,8,0:0:0:0:
169,134,218494,2,0,L|251:128,1,77.0000023498536,0|2,0:0|0:0,0:0:0:0:
178,54,218869,2,0,L|96:48,1,77.0000023498536,0|8,0:0|0:0,0:0:0:0:
24,121,219244,6,0,P|11:163|21:199,1,77.0000023498536,0|2,0:0|0:0,0:0:0:0:
113,158,219619,1,0,0:0:0:0:
81,266,219807,1,8,0:0:0:0:
161,345,219994,2,0,L|319:322,1,154.000004699707
336,192,220557,1,8,0:0:0:0:
412,265,220744,1,0,0:0:0:0:
306,175,220932,6,0,P|265:159|167:198,1,154.000004699707,0|0,0:0|0:0,0:0:0:0:
224,270,221494,2,0,L|216:323,3,38.5000011749268,0|0|0|0,3:0|3:0|3:0|3:0,0:0:0:0:
194,342,221869,2,0,B|155:328|155:328|85:340,2,105,4|4|4,1:0|1:0|1:0,0:0:0:0:
304,215,222807,2,0,L|306:134,1,70,8|0,0:0|0:0,0:0:0:0:
249,81,223182,2,0,L|168:79,1,70,2|0,0:0|0:0,0:0:0:0:
67,149,223557,2,0,L|148:147,1,70,8|0,0:0|0:0,0:0:0:0:
224,185,223932,6,0,P|244:257|220:319,1,140,2|8,0:0|0:0,0:0:0:0:
154,365,224494,2,0,B|15:357,1,140,4|0,0:0|0:0,0:0:0:0:
14,356,224963,1,2,0:0:0:0:
14,356,225057,1,8,0:0:0:0:
82,261,225244,1,4,0:0:0:0:
280,127,225807,5,8,0:0:0:0:
211,78,225994,1,0,0:0:0:0:
211,78,226088,1,0,0:0:0:0:
211,78,226182,1,8,0:0:0:0:
373,34,226557,1,2,0:0:0:0:
314,201,226932,6,0,P|271:209|231:193,1,77.0000023498536,6|0,0:0|0:0,0:0:0:0:
167,141,227307,1,8,0:0:0:0:
119,219,227494,2,0,L|126:306,1,77.0000023498536,0|2,0:0|0:0,0:0:0:0:
34,196,227869,2,0,L|41:109,1,77.0000023498536,0|8,0:0|0:0,0:0:0:0:
121,26,228244,6,0,P|168:19|202:35,1,77.0000023498536,0|2,0:0|0:0,0:0:0:0:
249,104,228619,2,0,P|256:151|240:185,1,77.0000023498536,0|8,0:0|0:0,0:0:0:0:
177,239,228994,2,0,P|130:246|96:230,1,77.0000023498536,0|2,0:0|0:0,0:0:0:0:
31,119,229369,2,0,L|34:208,2,77.0000023498536,2|8|2,0:0|0:0|0:0,0:0:0:0:
94,52,229932,6,0,P|139:37|174:47,1,77.0000023498536,2|0,0:0|0:0,0:0:0:0:
237,103,230307,1,8,0:0:0:0:
193,184,230494,2,0,L|106:181,1,77.0000023498536,0|0,0:0|0:0,0:0:0:0:
37,230,230869,1,0,0:0:0:0:
113,324,231057,1,8,0:0:0:0:
202,221,231244,6,0,L|289:218,1,77.0000023498536,0|2,0:0|0:0,0:0:0:0:
335,291,231619,1,0,0:0:0:0:
404,229,231807,1,8,0:0:0:0:
351,328,231994,1,0,0:0:0:0:
351,328,232088,1,0,0:0:0:0:
351,328,232182,6,0,P|312:346|269:336,1,77.0000023498536,0|0,0:0|0:0,0:0:0:0:
207,282,232557,1,8,0:0:0:0:
283,230,232744,1,0,0:0:0:0:
192,184,232932,6,0,P|146:182|82:266,1,140,2|8,0:0|0:0,0:0:0:0:
126,317,233494,2,0,L|165:313,2,35,0|0|2,0:0|0:0|0:0,0:0:0:0:
60,369,233869,1,2,0:0:0:0:
23,292,234057,1,8,0:0:0:0:
174,337,234244,5,4,0:0:0:0:
241,260,235182,6,0,L|237:145,2,105,0|0|0,0:0|0:0|0:0,0:0:0:0:
305,313,235932,2,0,P|342:326|378:319,1,70,4|0,0:0|0:0,0:0:0:0:
459,251,236307,2,0,P|422:238|386:245,1,70,8|0,0:0|0:0,0:0:0:0:
331,183,236682,2,0,L|326:108,2,70,2|0|8,0:0|0:0|0:0,0:0:0:0:
275,262,237244,6,0,P|202:283|136:240,1,140,4|0,0:0|0:0,0:0:0:0:
108,180,237807,1,2,3:0:0:0:
108,180,237900,1,2,3:0:0:0:
108,180,237994,1,2,3:0:0:0:
167,119,238182,2,0,L|210:118,3,35,2|2|2|2,3:0|3:0|3:0|3:0,0:0:0:0:
222,81,238557,2,0,L|265:80,3,35,0|0|0|0,3:0|3:0|3:0|3:0,0:0:0:0:
279,49,238932,6,0,L|280:183,1,125.999996154785,4|8,0:0|0:0,0:0:0:0:
275,250,239494,2,0,P|208:272|151:239,1,125.999996154785,4|0,0:0|0:0,0:0:0:0:
160,249,239963,1,2,0:0:0:0:
160,249,240057,1,8,0:0:0:0:
98,206,240244,6,0,P|143:269|123:336,1,125.999996154785,4|0,0:0|0:0,0:0:0:0:
82,365,240807,1,8,0:0:0:0:
25,316,240994,2,0,P|88:290|148:328,1,125.999996154785,4|0,0:0|0:0,0:0:0:0:
136,313,241463,1,2,0:0:0:0:
136,313,241557,1,8,0:0:0:0:
213,269,241744,1,0,0:0:0:0:
149,208,241932,6,0,L|143:67,1,125.999996154785,0|8,0:0|0:0,0:0:0:0:
197,28,242494,2,0,B|268:19|268:19|344:39,1,125.999996154785,4|0,0:0|0:0,0:0:0:0:
320,32,242963,1,2,0:0:0:0:
320,32,243057,1,8,0:0:0:0:
396,96,243244,5,0,0:0:0:0:
343,237,243619,1,2,0:0:0:0:
175,95,244182,2,0,L|100:92,1,62.9999980773926,2|0,0:0|0:0,0:0:0:0:
18,164,244557,2,0,L|93:161,1,62.9999980773926,2|0,0:0|0:0,0:0:0:0:
150,198,244932,6,0,L|144:335,1,125.999996154785,4|8,0:0|0:0,0:0:0:0:
209,361,245494,2,0,P|282:381|336:344,1,125.999996154785,4|0,0:0|0:0,0:0:0:0:
323,359,245963,1,2,0:0:0:0:
323,359,246057,1,8,0:0:0:0:
374,303,246244,2,0,L|370:162,1,125.999996154785,4|2,0:0|0:0,0:0:0:0:
316,122,246807,1,8,0:0:0:0:
366,65,246994,6,0,P|429:49|486:78,1,125.999996154785,4|0,0:0|0:0,0:0:0:0:
481,73,247463,1,2,0:0:0:0:
481,73,247557,1,8,0:0:0:0:
440,136,247744,1,0,0:0:0:0:
489,193,247932,6,0,L|482:331,1,125.999996154785,2|8,0:0|0:0,0:0:0:0:
422,364,248494,2,0,P|351:376|292:345,1,125.999996154785,4|0,0:0|0:0,0:0:0:0:
303,354,248963,1,2,0:0:0:0:
303,354,249057,1,8,0:0:0:0:
367,287,249244,1,2,0:0:0:0:
188,146,249807,6,0,L|139:143,2,41.9999987182618,2|0|0,0:0|0:0|0:0,0:0:0:0:
250,96,250182,1,2,0:0:0:0:
250,96,250369,2,0,L|323:103,1,62.9999980773926,0|2,0:0|0:0,0:0:0:0:
369,163,250744,1,0,0:0:0:0:
369,163,250838,1,0,0:0:0:0:
369,163,250932,6,0,P|384:227|358:280,1,125.999996154785,2|8,0:0|0:0,0:0:0:0:
296,321,251494,1,4,0:0:0:0:
148,286,251869,1,6,0:0:0:0:
196,227,252057,1,2,0:0:0:0:
144,171,252244,5,6,0:0:0:0:
256,192,252338,12,0,255619,0:0:0:0:
256,194,257353,5,2,0:0:0:0:
256,194,257635,1,4,0:0:0:0:
