osu file format v14

[General]
AudioFilename: audio.mp3
AudioLeadIn: 0
PreviewTime: 144430
Countdown: 0
SampleSet: Soft
StackLeniency: 0.7
Mode: 0
LetterboxInBreaks: 0
WidescreenStoryboard: 0

[Editor]
DistanceSpacing: 1
BeatDivisor: 8
GridSize: 8
TimelineZoom: 1.8

[Metadata]
Title:Philosophyz -NanosizeMir Ver.-
TitleUnicode:Philosophyz -NanosizeMir Ver.-
Artist:NanosizeMir
ArtistUnicode:NanosizeMir
Creator:timemon
Version:Normal
Source:Rewrite
Tags:Mizutani Runa Tsukagoshi Yuichiro 塚越雄一朗 リライト visual novel 水谷瑠奈 Key ビジュアルアーツ Visual Arts The Best
BeatmapID:1354179
BeatmapSetID:621677

[Difficulty]
HPDrainRate:4
CircleSize:3.4
OverallDifficulty:4.5
ApproachRate:5
SliderMultiplier:1
SliderTickRate:1

[Events]
//Background and Video events
0,0,"rewrite7745.jpg",0,0
//Break Periods
2,31382,41982
2,64382,65982
2,106382,116982
2,139382,140982
2,181382,185982
2,209132,210732
//Storyboard Layer 0 (Background)
//Storyboard Layer 1 (Fail)
//Storyboard Layer 2 (Pass)
//Storyboard Layer 3 (Foreground)
//Storyboard Sound Samples

[TimingPoints]
1182,375,4,2,1,60,1,0
16182,-100,4,2,1,60,0,0
31182,-100,4,2,1,40,0,0
43182,-100,4,2,1,60,0,0
53869,-100,4,2,1,60,0,0
55182,-100,4,2,1,60,0,0
64182,-100,4,2,1,40,0,0
67182,-100,4,2,1,60,0,0
70182,-100,4,2,1,70,0,1
76182,-100,4,2,1,70,0,1
77119,-100,4,2,1,60,0,0
82182,-100,4,2,1,70,0,1
88182,-100,4,2,1,60,0,0
89494,-100,4,2,1,60,0,0
94182,-100,4,2,1,60,0,0
106182,-100,4,2,1,40,0,0
118182,-100,4,2,1,50,0,0
128869,-100,4,2,1,60,0,0
130182,-100,4,2,1,60,0,0
139182,-100,4,2,1,40,0,0
142182,-100,4,2,1,60,0,0
145182,-100,4,2,1,70,0,1
151182,-100,4,2,1,70,0,1
152119,-100,4,2,1,60,0,0
157182,-100,4,2,1,70,0,1
163182,-100,4,2,1,70,0,0
164494,-100,4,2,1,60,0,0
169182,-100,4,2,1,60,0,0
181182,-100,4,2,1,60,0,0
187182,-100,4,2,1,50,0,0
190932,375,4,2,1,60,1,0
190932,-100,4,2,1,60,0,0
199932,-100,4,2,1,60,0,0
202182,-100,4,2,1,60,0,0
208932,-100,4,2,1,60,0,0
213994,-100,4,2,1,60,0,0
214932,-100,4,2,1,70,0,1
220932,-100,4,2,1,70,0,1
221869,-100,4,2,1,60,0,0
226932,-100,4,2,1,70,0,1
232932,-100,4,2,1,60,0,0
234244,-100,4,2,1,60,0,0
238932,-100,4,2,1,60,0,0
257353,-100,4,2,1,60,0,0

[Colours]
Combo1 : 255,151,85
Combo2 : 255,85,170
Combo3 : 255,85,85
Combo4 : 170,85,255

[HitObjects]
123,87,16182,6,0,P|186:69|235:88,1,100,4|8,0:0|0:0,0:0:0:0:
260,103,16744,2,0,L|364:101,1,100,4|0,0:0|0:0,0:0:0:0:
437,164,17494,2,0,L|435:277,1,100,4|2,0:0|0:0,0:0:0:0:
351,318,18244,2,0,P|270:328|213:293,1,150,4|0,0:0|0:0,0:0:0:0:
151,215,19182,6,0,B|140:161|140:161|152:106,1,100,2|8,0:0|0:0,0:0:0:0:
168,70,19744,2,0,P|226:58|280:77,1,100,4|0,0:0|0:0,0:0:0:0:
343,128,20494,2,0,P|364:186|354:228,1,100,2|2,0:0|0:0,0:0:0:0:
240,314,21432,1,2,0:0:0:0:
174,238,21807,1,2,0:0:0:0:
267,201,22182,6,0,L|264:91,1,100,4|8,0:0|0:0,0:0:0:0:
240,57,22744,2,0,P|186:48|139:73,1,100,4|0,0:0|0:0,0:0:0:0:
95,152,23494,2,0,B|86:209|86:209|102:266,1,100,4|2,0:0|0:0,0:0:0:0:
159,327,24244,2,0,P|243:339|317:310,1,150,4|8,0:0|0:0,0:0:0:0:
364,236,25182,6,0,L|365:117,1,100,2|8,0:0|0:0,0:0:0:0:
333,96,25744,2,0,P|279:82|228:101,1,100,4|0,0:0|0:0,0:0:0:0:
158,156,26494,1,2,0:0:0:0:
293,219,27057,2,0,L|287:336,1,100,2|2,0:0|0:0,0:0:0:0:
196,358,27807,1,2,0:0:0:0:
126,285,28182,6,0,P|97:232|105:183,1,100,2|8,0:0|0:0,0:0:0:0:
117,147,28744,1,2,0:0:0:0:
170,62,29119,1,2,0:0:0:0:
236,136,29494,1,6,0:0:0:0:
355,59,31182,5,0,0:0:0:0:
82,109,43182,6,0,L|80:220,1,100
152,278,43932,2,0,B|204:293|204:293|261:287,1,100,8|0,0:0|0:0,0:0:0:0:
328,226,44682,2,0,P|344:177|332:127,1,100,2|0,0:0|0:0,0:0:0:0:
259,63,45432,2,0,B|197:55|197:55|143:66,1,100,8|0,0:0|0:0,0:0:0:0:
77,119,46182,5,2,0:0:0:0:
140,196,46557,2,0,L|141:253,1,50
158,292,46932,2,0,P|206:315|263:291,1,100,8|0,0:0|0:0,0:0:0:0:
299,216,47682,6,0,L|301:130,2,75,0|2|2,0:0|0:0|0:0,0:0:0:0:
334,250,48432,2,0,B|394:264|394:264|444:253,1,100,8|0,0:0|0:0,0:0:0:0:
469,162,49182,6,0,L|475:53,1,100,2|0,0:0|0:0,0:0:0:0:
380,28,49932,2,0,P|315:19|272:37,1,100,8|0,0:0|0:0,0:0:0:0:
211,98,50682,1,2,0:0:0:0:
125,46,51057,1,0,0:0:0:0:
36,92,51432,2,0,L|33:201,1,100,8|0,0:0|0:0,0:0:0:0:
114,250,52182,6,0,P|172:262|216:241,1,100,2|0,0:0|0:0,0:0:0:0:
289,187,52932,2,0,P|347:175|391:196,1,100,8|0,0:0|0:0,0:0:0:0:
416,226,53494,1,4,0:0:0:0:
334,283,53869,6,0,L|267:278,2,50,0|8|0,3:0|3:0|3:0,0:0:0:0:
366,321,54432,2,0,P|416:343|472:323,1,100,8|8,3:0|3:0,0:0:0:0:
487,236,55182,6,0,L|487:135,1,100,4|0,0:0|0:0,0:0:0:0:
407,76,55932,2,0,P|351:64|305:84,1,100,2|0,0:0|0:0,0:0:0:0:
273,109,56494,2,0,L|158:99,1,100,0|0,0:0|0:0,0:0:0:0:
103,171,57244,2,0,L|106:292,2,100
138,134,58182,6,0,P|185:126|226:135,2,75,0|0|0,0:0|0:0|0:0,0:0:0:0:
88,128,58932,2,0,L|91:7,1,100,0|8,0:0|0:0,0:0:0:0:
137,12,59494,5,4,0:0:0:0:
201,88,59869,1,0,0:0:0:0:
279,25,60244,2,0,P|331:25|381:61,1,100,2|0,0:0|0:0,0:0:0:0:
398,91,60807,1,0,0:0:0:0:
326,159,61182,6,0,P|300:218|314:270,1,100,2|2,0:0|0:0,0:0:0:0:
385,311,61932,2,0,P|349:344|286:346,1,100,2|2,0:0|0:0,0:0:0:0:
249,347,62494,1,0,0:0:0:0:
198,260,62869,1,0,0:0:0:0:
131,334,63244,2,0,L|14:320,1,100
18,273,63807,1,2,0:0:0:0:
72,189,64182,5,0,1:0:0:0:
256,192,67182,12,4,68682,0:0:0:0:
176,319,69432,5,0,0:0:0:0:
114,240,69807,1,0,0:0:0:0:
182,166,70182,6,0,L|185:111,2,50,6|0|8,0:0|0:0|0:0,0:0:0:0:
216,201,70744,2,0,P|267:219|323:192,1,100,0|0,0:0|0:0,0:0:0:0:
396,156,71494,1,2,0:0:0:0:
320,90,71869,1,2,0:0:0:0:
401,32,72244,1,2,0:0:0:0:
460,112,72619,2,0,P|473:177|441:218,1,100,2|2,0:0|0:0,0:0:0:0:
422,239,73182,6,0,L|304:229,1,100,2|8,0:0|0:0,0:0:0:0:
272,227,73744,1,0,0:0:0:0:
307,320,74119,1,0,0:0:0:0:
213,355,74494,2,0,P|149:363|108:334,1,100,0|0,0:0|0:0,0:0:0:0:
87,307,75057,1,8,0:0:0:0:
87,307,75244,2,0,P|67:221|109:155,1,150,0|8,0:0|0:0,0:0:0:0:
169,103,76182,6,0,P|227:94|267:117,1,100,2|8,0:0|0:0,0:0:0:0:
331,184,76932,1,0,3:0:0:0:
331,184,77119,2,0,L|330:276,2,75,4|4|4,1:0|1:0|1:0,0:0:0:0:
249,125,78057,6,0,P|191:97|144:111,1,100,8|0,0:0|0:0,0:0:0:0:
130,199,78807,1,8,0:0:0:0:
44,147,79182,2,0,L|35:260,1,100,2|8,0:0|0:0,0:0:0:0:
53,293,79744,2,0,P|101:313|160:307,1,100,4|0,0:0|0:0,0:0:0:0:
240,273,80494,1,4,0:0:0:0:
139,129,81432,5,2,0:0:0:0:
232,160,81807,1,2,0:0:0:0:
321,114,82182,6,0,P|376:105|420:129,1,100,4|8,0:0|0:0,0:0:0:0:
445,163,82744,2,0,L|441:266,1,100,0|0,0:0|0:0,0:0:0:0:
365,327,83494,1,2,0:0:0:0:
292,255,83869,1,2,0:0:0:0:
248,344,84244,1,2,0:0:0:0:
173,277,84619,2,0,P|121:265|69:287,1,100,2|2,0:0|0:0,0:0:0:0:
43,315,85182,5,2,0:0:0:0:
17,218,85557,1,8,0:0:0:0:
17,218,85744,2,0,L|25:114,1,100,0|0,0:0|0:0,0:0:0:0:
105,59,86494,2,0,P|163:47|212:68,1,100,2|0,0:0|0:0,0:0:0:0:
241,88,87057,1,8,0:0:0:0:
241,88,87244,2,0,L|401:80,1,150,0|8,0:0|0:0,0:0:0:0:
459,153,88182,6,0,P|480:205|468:253,1,100,2|8,0:0|0:0,0:0:0:0:
384,295,88932,2,0,L|277:287,1,100,2|8,0:0|0:0,0:0:0:0:
234,282,89494,1,4,0:0:0:0:
107,119,91182,6,0,L|102:227,1,100,4|8,0:0|0:0,0:0:0:0:
168,293,91932,2,0,P|217:316|275:299,1,100,2|8,0:0|0:0,0:0:0:0:
295,272,92494,2,0,L|290:164,1,100,4|0,0:0|0:0,0:0:0:0:
329,80,93244,6,0,L|391:75,2,50,2|2|2,3:0|3:0|3:0,0:0:0:0:
297,40,93807,2,0,L|241:42,1,50,2|2,0:0|0:0,0:0:0:0:
204,68,94182,6,0,B|213:119|213:119|205:174,1,100,4|8,0:0|0:0,0:0:0:0:
186,212,94744,2,0,P|122:236|81:217,1,100,4|2,0:0|0:0,0:0:0:0:
11,170,95494,2,0,P|45:215|38:274,1,100,4|2,0:0|0:0,0:0:0:0:
101,339,96244,2,0,P|175:358|236:321,1,150,4|8,0:0|0:0,0:0:0:0:
297,243,97182,6,0,P|353:234|396:263,1,100,2|8,0:0|0:0,0:0:0:0:
433,277,97744,2,0,L|431:158,1,100,4|0,0:0|0:0,0:0:0:0:
350,117,98494,2,0,B|299:103|299:103|244:105,1,100,4|0,0:0|0:0,0:0:0:0:
202,109,99057,1,8,0:0:0:0:
113,155,99432,1,2,0:0:0:0:
186,223,99807,1,2,0:0:0:0:
108,286,100182,6,0,P|58:299|4:268,1,100,4|8,0:0|0:0,0:0:0:0:
3,231,100744,2,0,L|-2:114,1,100,4|2,0:0|0:0,0:0:0:0:
67,58,101494,2,0,L|166:53,1,100,4|2,0:0|0:0,0:0:0:0:
258,93,102244,2,0,P|284:161|251:235,1,150,4|8,0:0|0:0,0:0:0:0:
300,319,103182,6,0,P|353:342|406:314,1,100,4|8,0:0|0:0,0:0:0:0:
428,296,103744,2,0,L|422:191,1,100,4|0,0:0|0:0,0:0:0:0:
330,154,104494,2,0,B|242:122|250:186|170:146,1,150,4|0,0:0|0:0,0:0:0:0:
184,152,106182,5,2,0:0:0:0:
399,80,118182,6,0,L|395:194,1,100,2|0,0:0|0:0,0:0:0:0:
332,257,118932,2,0,P|265:274|226:248,1,100,0|0,0:0|0:0,0:0:0:0:
199,232,119494,2,0,P|132:215|93:241,1,100,0|0,0:0|0:0,0:0:0:0:
33,159,120244,2,0,L|26:102,1,50,0|0,0:0|0:0,0:0:0:0:
48,64,120619,2,0,P|130:38|190:70,1,150,0|2,0:0|0:0,0:0:0:0:
252,136,121557,5,0,0:0:0:0:
324,67,121932,2,0,P|390:58|430:87,1,100,0|0,0:0|0:0,0:0:0:0:
455,105,122494,2,0,L|447:218,1,100,0|0,0:0|0:0,0:0:0:0:
371,268,123244,2,0,L|317:275,1,50,0|0,0:0|0:0,0:0:0:0:
273,259,123619,2,0,P|211:243|134:289,1,150,0|2,0:0|0:0,0:0:0:0:
67,212,124557,5,0,0:0:0:0:
15,126,124932,2,0,P|0:73|25:26,1,100,0|0,0:0|0:0,0:0:0:0:
67,31,125494,2,0,L|180:40,1,100,0|0,0:0|0:0,0:0:0:0:
248,96,126244,2,0,L|238:207,1,100,0|0,0:0|0:0,0:0:0:0:
294,278,126994,1,0,0:0:0:0:
294,278,127182,6,0,P|345:308|397:287,1,100,2|0,0:0|0:0,0:0:0:0:
446,222,127932,2,0,L|441:118,1,100,2|0,0:0|0:0,0:0:0:0:
406,85,128494,1,4,0:0:0:0:
315,42,128869,6,0,L|252:37,2,50,2|8|2,3:0|3:0|3:0,0:0:0:0:
354,72,129432,2,0,P|370:127|353:174,1,100,8|8,3:0|3:0,0:0:0:0:
279,228,130182,6,0,L|176:218,1,100,4|8,0:0|0:0,0:0:0:0:
96,162,130932,2,0,P|74:106|84:62,1,100,0|8,0:0|0:0,0:0:0:0:
106,25,131494,2,0,B|153:52|153:52|219:52,1,100,2|2,0:0|0:0,0:0:0:0:
283,104,132244,2,0,P|303:159|292:204,1,100,2|2,0:0|0:0,0:0:0:0:
265,238,132807,1,8,0:0:0:0:
191,306,133182,6,0,P|146:297|111:305,2,75,2|0|0,0:0|0:0|0:0,0:0:0:0:
229,337,133932,2,0,P|282:354|336:331,1,100,0|8,0:0|0:0,0:0:0:0:
363,311,134494,1,4,0:0:0:0:
320,220,134869,1,0,0:0:0:0:
401,162,135244,2,0,L|409:52,1,100,2|2,0:0|0:0,0:0:0:0:
316,21,135994,1,0,3:0:0:0:
316,21,136182,6,0,L|204:12,1,100,4|8,0:0|0:0,0:0:0:0:
132,65,136932,2,0,P|120:119|142:162,1,100,2|8,0:0|0:0,0:0:0:0:
174,192,137494,2,0,L|289:187,1,100,2|0,0:0|0:0,0:0:0:0:
324,183,138057,1,8,0:0:0:0:
395,252,138432,2,0,L|387:360,1,100,0|8,0:0|0:0,0:0:0:0:
288,338,139182,5,0,1:0:0:0:
256,192,142182,12,4,143682,0:0:0:0:
298,44,144432,5,0,0:0:0:0:
362,120,144807,1,0,0:0:0:0:
294,194,145182,6,0,L|243:188,2,50,6|0|8,0:0|0:0|0:0,0:0:0:0:
332,226,145744,2,0,P|350:281|336:328,1,100,0|0,0:0|0:0,0:0:0:0:
249,278,146494,1,2,0:0:0:0:
207,368,146869,1,2,0:0:0:0:
132,300,147244,1,2,0:0:0:0:
56,365,147619,2,0,P|37:311|40:264,1,100,2|2,0:0|0:0,0:0:0:0:
64,225,148182,6,0,L|170:220,1,100,2|8,0:0|0:0,0:0:0:0:
213,221,148744,1,0,0:0:0:0:
282,148,149119,1,0,0:0:0:0:
208,80,149494,2,0,P|154:62|103:88,1,100,0|0,0:0|0:0,0:0:0:0:
75,106,150057,1,8,0:0:0:0:
75,106,150244,2,0,L|65:268,1,150,0|8,0:0|0:0,0:0:0:0:
135,327,151182,6,0,P|190:349|239:330,1,100,2|8,0:0|0:0,0:0:0:0:
305,275,151932,1,0,3:0:0:0:
305,275,152119,2,0,L|386:266,2,75,4|4|4,1:0|1:0|1:0,0:0:0:0:
227,211,153057,6,0,P|217:155|234:113,1,100,8|2,0:0|0:0,0:0:0:0:
312,56,153807,1,8,0:0:0:0:
385,123,154182,2,0,P|395:179|378:221,1,100,2|8,0:0|0:0,0:0:0:0:
363,265,154744,2,0,L|253:274,1,100,4|0,0:0|0:0,0:0:0:0:
205,191,155494,1,4,0:0:0:0:
78,314,156432,5,2,0:0:0:0:
44,219,156807,1,2,0:0:0:0:
103,138,157182,6,0,P|160:128|211:146,1,100,6|8,0:0|0:0,0:0:0:0:
240,168,157744,2,0,L|343:163,1,100,0|0,0:0|0:0,0:0:0:0:
421,221,158494,1,2,0:0:0:0:
395,317,158869,1,2,0:0:0:0:
313,258,159244,1,2,0:0:0:0:
237,323,159619,2,0,P|215:266|221:213,1,100,2|2,0:0|0:0,0:0:0:0:
230,179,160182,5,2,0:0:0:0:
307,116,160557,1,8,0:0:0:0:
307,116,160744,2,0,L|414:113,1,100,0|0,0:0|0:0,0:0:0:0:
466,193,161494,2,0,P|479:249|467:295,1,100,2|0,0:0|0:0,0:0:0:0:
434,325,162057,1,8,0:0:0:0:
434,325,162244,2,0,P|361:334|283:310,1,150
216,243,163182,6,0,L|111:254,1,100,2|8,0:0|0:0,0:0:0:0:
45,182,163932,2,0,P|28:129|42:82,1,100,2|8,0:0|0:0,0:0:0:0:
70,48,164494,1,4,0:0:0:0:
121,78,166182,6,0,L|227:85,1,100,6|8,0:0|0:0,0:0:0:0:
294,153,166932,2,0,P|309:211|291:268,1,100,0|8,0:0|0:0,0:0:0:0:
275,292,167494,1,4,0:0:0:0:
61,197,168807,5,2,3:0:0:0:
129,124,169182,6,0,L|241:122,1,100,6|8,0:0|0:0,0:0:0:0:
314,174,169932,2,0,P|339:230|337:279,1,100,2|8,0:0|0:0,0:0:0:0:
328,316,170494,2,0,B|260:309|260:309|211:324,1,100,0|0,0:0|0:0,0:0:0:0:
183,338,171057,1,8,0:0:0:0:
109,269,171432,2,0,P|95:213|110:167,1,100,2|8,0:0|0:0,0:0:0:0:
141,137,171994,6,0,L|244:134,1,100
291,131,172557,1,8,0:0:0:0:
362,200,172932,2,0,P|388:150|379:88,1,100,2|8,0:0|0:0,0:0:0:0:
309,42,173682,2,0,L|194:45,1,100,2|8,0:0|0:0,0:0:0:0:
118,87,174432,1,2,0:0:0:0:
207,131,174807,1,8,0:0:0:0:
142,207,175182,6,0,L|30:214,1,100,2|8,0:0|0:0,0:0:0:0:
48,113,175932,2,0,L|-1:120,2,50,2|0|8,0:0|0:0|0:0,0:0:0:0:
86,81,176494,2,0,P|139:97|196:75,1,100,4|0,0:0|0:0,0:0:0:0:
276,56,177244,2,0,P|329:40|386:62,1,100,2|0,0:0|0:0,0:0:0:0:
411,80,177807,1,8,0:0:0:0:
435,176,178182,6,0,L|433:285,1,100,0|8,0:0|0:0,0:0:0:0:
358,343,178932,2,0,P|300:353|262:333,1,100
223,307,179494,1,4,0:0:0:0:
151,177,180057,6,0,L|144:65,1,100,8|2,0:0|0:0,0:0:0:0:
223,15,180807,1,8,0:0:0:0:
298,80,181182,1,4,0:0:0:0:
191,141,187182,5,0,0:0:0:0:
256,192,187275,12,0,189994,0:0:0:0:
308,66,190932,6,0,L|421:64,1,100,2|8,0:0|0:0,0:0:0:0:
474,139,191682,2,0,P|486:196|474:243,1,100,2|8,0:0|0:0,0:0:0:0:
410,310,192432,2,0,P|354:325|302:300,1,100,2|8,0:0|0:0,0:0:0:0:
232,256,193182,1,2,0:0:0:0:
232,256,193369,2,0,P|172:247|124:265,1,100,0|0,0:0|0:0,0:0:0:0:
88,277,193932,6,0,L|87:175,1,100,2|8,0:0|0:0,0:0:0:0:
149,98,194682,2,0,B|207:89|207:89|251:98,1,100,2|8,0:0|0:0,0:0:0:0:
338,138,195432,2,0,P|394:152|440:127,1,100,2|8,0:0|0:0,0:0:0:0:
501,207,196182,2,0,L|496:327,1,100,2|8,0:0|0:0,0:0:0:0:
407,352,196932,6,0,P|353:367|311:344,1,100,2|8,0:0|0:0,0:0:0:0:
238,284,197682,2,0,L|126:280,1,100,2|8,0:0|0:0,0:0:0:0:
59,218,198432,2,0,P|41:160|47:106,1,100,2|8,0:0|0:0,0:0:0:0:
114,51,199182,1,2,0:0:0:0:
114,51,199369,2,0,P|173:37|229:59,1,100,0|0,0:0|0:0,0:0:0:0:
254,70,199932,6,0,L|248:147,2,75,2|0|0,0:0|0:0|0:0,0:0:0:0:
436,111,201432,2,0,L|430:34,2,75,2|0|0,0:0|0:0|0:0,0:0:0:0:
411,154,202182,6,0,P|363:178|310:158,1,100,0|4,0:0|0:0,0:0:0:0:
230,123,202932,2,0,L|140:121,2,75,4|4|4,0:0|0:0|0:0,0:0:0:0:
333,229,204057,2,0,L|327:338,1,100,8|2,0:0|0:0,0:0:0:0:
231,358,204807,2,0,P|173:373|124:348,1,100,8|2,0:0|0:0,0:0:0:0:
99,327,205369,2,0,P|72:270|85:222,1,100,0|0,0:0|0:0,0:0:0:0:
106,193,205932,6,0,L|209:188,1,100,2|8,0:0|0:0,0:0:0:0:
283,251,206682,2,0,L|386:256,1,100,2|8,0:0|0:0,0:0:0:0:
435,170,207432,2,0,B|430:56,1,100,2|8,0:0|0:0,0:0:0:0:
336,34,208182,2,0,P|289:21|252:27,2,75,2|0|0,0:0|0:0|0:0,0:0:0:0:
378,60,208932,1,4,0:0:0:0:
256,192,211932,12,0,213432,0:0:0:0:
121,291,214182,5,0,0:0:0:0:
150,195,214557,1,0,0:0:0:0:
53,158,214932,6,0,L|55:211,2,50,6|0|8,0:0|0:0|0:0,0:0:0:0:
76,113,215494,2,0,P|128:99|181:115,1,100,0|0,0:0|0:0,0:0:0:0:
250,171,216244,1,2,0:0:0:0:
325,105,216619,1,2,0:0:0:0:
382,187,216994,1,2,0:0:0:0:
455,119,217369,2,0,P|472:62|455:17,1,100,2|2,0:0|0:0,0:0:0:0:
411,11,217932,6,0,L|298:6,1,100,2|8,0:0|0:0,0:0:0:0:
271,36,218494,1,0,0:0:0:0:
341,106,218869,1,0,0:0:0:0:
276,182,219244,2,0,P|217:205|173:185,1,100
137,177,219807,1,8,0:0:0:0:
137,177,219994,2,0,L|147:21,1,150
246,24,220932,6,0,L|351:29,1,100,2|8,0:0|0:0,0:0:0:0:
411,103,221682,1,0,3:0:0:0:
411,103,221869,2,0,L|405:185,2,75,4|4|4,1:0|1:0|1:0,0:0:0:0:
335,37,222807,6,0,P|283:19|237:33,1,100,8|2,0:0|0:0,0:0:0:0:
167,98,223557,1,8,0:0:0:0:
213,186,223932,2,0,L|325:183,1,100,2|8,0:0|0:0,0:0:0:0:
362,191,224494,2,0,P|379:245|367:292,1,100,4|0,0:0|0:0,0:0:0:0:
301,359,225244,1,4,0:0:0:0:
104,198,226182,5,8,0:0:0:0:
183,136,226557,1,2,0:0:0:0:
247,212,226932,6,0,P|299:232|356:207,1,100,6|8,0:0|0:0,0:0:0:0:
379,189,227494,2,0,L|374:84,1,100,0|0,0:0|0:0,0:0:0:0:
297,24,228244,1,2,0:0:0:0:
239,105,228619,1,2,0:0:0:0:
169,33,228994,1,2,0:0:0:0:
101,106,229369,2,0,L|107:215,1,100,2|2,0:0|0:0,0:0:0:0:
108,255,229932,5,2,0:0:0:0:
193,306,230307,1,8,0:0:0:0:
193,306,230494,2,0,P|252:320|297:294,1,100,0|0,0:0|0:0,0:0:0:0:
333,216,231244,2,0,L|329:100,1,100,2|0,0:0|0:0,0:0:0:0:
296,78,231807,1,8,0:0:0:0:
296,78,231994,2,0,B|143:87,1,150
75,158,232932,6,0,L|79:276,1,100,2|8,0:0|0:0,0:0:0:0:
155,321,233682,2,0,P|216:339|259:318,1,100,2|8,0:0|0:0,0:0:0:0:
289,298,234244,1,4,0:0:0:0:
194,82,235932,6,0,L|92:79,1,100,4|8,0:0|0:0,0:0:0:0:
35,159,236682,2,0,B|23:208|23:208|32:273,1,100,2|8,0:0|0:0,0:0:0:0:
45,304,237244,1,4,0:0:0:0:
234,268,238182,6,0,L|291:265,1,50,2|2,3:0|3:0,0:0:0:0:
314,304,238557,2,0,L|371:307,1,50,0|0,3:0|3:0,0:0:0:0:
400,272,238932,6,0,B|409:218|409:218|403:161,1,100,4|8,0:0|0:0,0:0:0:0:
375,131,239494,2,0,P|321:115|263:127,1,100,4|0,0:0|0:0,0:0:0:0:
207,191,240244,2,0,P|155:198|105:178,1,100,4|0,0:0|0:0,0:0:0:0:
167,99,240994,2,0,L|323:91,1,150,4|8,0:0|0:0,0:0:0:0:
391,155,241932,6,0,B|399:209|399:209|392:262,1,100,0|8,0:0|0:0,0:0:0:0:
367,297,242494,2,0,P|308:316|257:297,1,100,4|0,0:0|0:0,0:0:0:0:
185,257,243244,1,2,0:0:0:0:
245,177,243619,1,2,0:0:0:0:
140,69,244182,5,2,0:0:0:0:
79,148,244557,1,2,0:0:0:0:
162,203,244932,2,0,P|175:258|163:315,1,100,4|8,0:0|0:0,0:0:0:0:
149,346,245494,2,0,L|257:332,1,100,4|0,0:0|0:0,0:0:0:0:
327,272,246244,2,0,B|334:233|334:233|327:173,1,100,4|2,0:0|0:0,0:0:0:0:
257,101,246994,2,0,L|107:111,1,150,4|8,0:0|0:0,0:0:0:0:
44,189,247932,6,0,P|41:238|62:283,1,100,2|8,0:0|0:0,0:0:0:0:
99,317,248494,2,0,L|198:325,1,100,4|0,0:0|0:0,0:0:0:0:
281,270,249244,1,2,0:0:0:0:
219,132,249807,2,0,P|207:94|220:21,1,100
304,76,250557,1,2,0:0:0:0:
375,146,250932,6,0,L|379:245,1,100,2|8,0:0|0:0,0:0:0:0:
357,290,251494,1,4,0:0:0:0:
434,353,251869,1,6,0:0:0:0:
490,270,252244,5,6,0:0:0:0:
256,192,252432,12,0,255619,0:0:0:0:
256,192,257353,6,0,L|256:112,1,75,2|4,0:0|0:0,0:0:0:0:
