osu file format v14

[General]
AudioFilename: audio.mp3
AudioLeadIn: 0
PreviewTime: 20972
Countdown: 0
SampleSet: None
StackLeniency: 0.6
Mode: 0
LetterboxInBreaks: 0
WidescreenStoryboard: 1

[Editor]
DistanceSpacing: 1.2
BeatDivisor: 4
GridSize: 4
TimelineZoom: 1

[Metadata]
Title:Tsukimade Todoke, Fushi no Kemuri
TitleUnicode:月まで届け、不死の煙
Artist:Nanoka
ArtistUnicode:七日
Creator:ktgster
Version:Extra Stage (CS 4.3)
Source:東方永夜抄 ~ Imperishable Night.
Tags:fujiwara no mokou moko 藤原妹紅 妹紅
BeatmapID:2824618
BeatmapSetID:792997

[Difficulty]
HPDrainRate:5
CircleSize:4.3
OverallDifficulty:10
ApproachRate:10
SliderMultiplier:1.7
SliderTickRate:1

[Events]
//Background and Video events
0,0,"Mokou.jpg",0,0
//Break Periods
//Storyboard Layer 0 (Background)
//Storyboard Layer 1 (Fail)
//Storyboard Layer 2 (Pass)
//Storyboard Layer 3 (Foreground)
//Storyboard Layer 4 (Overlay)
//Storyboard Sound Samples

[TimingPoints]
197,500,4,2,1,50,1,8
697,500,4,2,1,50,1,0
697,-200,4,2,1,50,0,0
4697,428.571428571429,4,2,1,50,1,0
4697,-171.428571428571,4,2,1,50,0,0
5554,375,4,2,1,50,1,8
5554,-150,4,2,1,50,0,8
6304,352.941176470588,4,2,1,50,1,0
6304,-141.176470588235,4,2,1,50,0,0
7009,333.333333333333,4,2,1,50,1,8
7009,-133.333333333333,4,2,1,50,0,8
7675,300,4,2,1,50,1,0
7675,-120,4,2,1,50,0,0
10075,292.682926829268,4,2,1,50,1,0
10075,-85.4166666666668,4,2,1,50,0,0
10367,285.714285714286,4,2,1,50,1,8
10367,-87.4999999999999,4,2,1,50,0,8
10652,279.06976744186,4,2,1,50,1,8
10652,-89.5833333333335,4,2,1,50,0,8
10931,272.727272727273,4,2,1,50,1,8
10931,-91.6666666666666,4,2,1,50,0,8
11203,266.666666666667,4,2,1,50,1,0
11203,-93.7499999999999,4,2,1,50,0,0
11469,260.869565217391,4,2,1,50,1,8
11469,-95.8333333333334,4,2,1,50,0,8
11729,255.31914893617,4,2,1,50,1,8
11729,-97.9166666666668,4,2,1,50,0,8
12240,250,4,2,1,60,1,0
12240,-100,4,2,1,60,0,0
18239,300,4,2,1,70,1,0
18239,-83.3333333333333,4,2,1,70,0,0
18839,352.941176470588,4,2,1,70,1,8
18839,-70.8333333333334,4,2,1,70,0,8
19544,428.571428571429,4,2,1,70,1,0
19544,-58.3333333333333,4,2,1,70,0,0
19972,500,4,2,1,70,1,8
19972,-50,4,2,1,70,0,8
20972,428.571428571429,4,2,1,70,1,8
20972,-58.3333333333333,4,2,1,70,0,8
21401,300,4,2,1,60,1,0
21401,-83.3333333333333,4,2,1,60,0,0
31001,272.727272727273,4,2,1,70,1,0
31001,-91.6666666666666,4,2,1,70,0,0
39182,-91.6666666666666,4,2,1,50,0,0
39729,250,4,2,1,60,1,0
39729,-100,4,2,1,60,0,0
49729,230.769230769231,4,2,1,60,1,0
49729,-108.333333333333,4,2,1,60,0,0
53421,214.285714285714,4,2,1,60,1,0
53421,-116.666666666667,4,2,1,60,0,0
55135,500,4,2,1,85,1,0
55135,-50,4,2,1,85,0,0
55635,428.571428571429,4,2,2,70,1,8
55635,-58.3333333333333,4,2,2,70,0,8
56063,375,4,2,2,70,1,8
56063,-66.6666666666667,4,2,2,70,0,8
56438,333.333333333333,4,2,2,70,1,8
56438,-75.0000000000001,4,2,2,70,0,8
56771,300,4,2,2,70,1,0
56771,-83.3333333333333,4,2,2,70,0,0
59171,285.714285714286,4,2,2,70,1,0
59171,-87.4999999999999,4,2,2,70,0,0
61456,272.727272727273,4,2,2,70,1,0
61456,-91.6666666666666,4,2,2,70,0,0
62546,260.869565217391,4,2,2,70,1,0
62546,-95.8333333333334,4,2,2,70,0,0
63589,250,4,2,2,70,1,0
63589,-100,4,2,2,70,0,0
65214,-100,4,2,1,70,0,0
65590,300,4,2,1,70,1,0
65590,-83.3333333333333,4,2,1,70,0,0
66790,333.333333333333,4,2,1,70,1,0
66790,-75.0000000000001,4,2,1,70,0,0
68123,375,4,2,1,70,1,0
68123,-66.6666666666667,4,2,1,70,0,0
69623,333.333333333333,4,2,1,70,1,0
69623,-75.0000000000001,4,2,1,70,0,0
70956,300,4,2,1,70,1,0
70956,-83.3333333333333,4,2,1,70,0,0
71556,285.714285714286,4,2,1,70,1,8
71556,-87.4999999999999,4,2,1,70,0,8
72127,272.727272727273,4,2,1,70,1,0
72127,-91.6666666666666,4,2,1,70,0,0
72672,260.869565217391,4,2,1,70,1,8
72672,-95.8333333333334,4,2,1,70,0,8
73193,250,4,2,1,70,1,0
73193,-100,4,2,1,70,0,0
74193,230.769230769231,4,2,1,70,1,0
74193,-108.333333333333,4,2,1,70,0,0
74423,214.285714285714,4,2,1,70,1,8
74423,-116.666666666667,4,2,1,70,0,8
74637,200,4,2,1,70,1,8
74637,-125,4,2,1,70,0,8
75037,272.727272727273,4,2,2,70,1,0
75037,-91.6666666666666,4,2,2,70,0,0
83764,250,4,2,2,70,1,0
83764,-100,4,2,2,70,0,0
87139,-100,4,2,1,60,0,0
87764,-100,4,2,2,70,0,0
91389,-100,4,2,1,50,0,0
91764,300,4,2,1,60,1,0
91764,-83.3333333333333,4,2,1,60,0,0
92964,272.727272727273,4,2,2,70,1,0
92964,-183.48623853211,4,2,2,70,0,0
95145,-91.743119266055,4,2,2,70,0,0
96236,-183.48623853211,4,2,2,70,0,0
101692,250,4,2,2,80,1,0
101692,-100,4,2,2,80,0,0
105067,-100,4,2,1,70,0,0
105692,-100,4,2,2,80,0,0
108692,-100,4,2,1,80,0,0
109442,-100,4,2,1,60,0,0
109693,230.769230769231,4,2,1,85,1,1
109693,-108.333333333333,4,2,1,85,0,1
116616,-108.333333333333,4,2,1,70,0,1
117078,214.285714285714,4,2,1,90,1,1
117078,-116.666666666667,4,2,1,90,0,1
123507,333.333333333333,4,2,1,80,1,9
123507,-75.0000000000001,4,2,1,80,0,9
124173,375,4,2,1,80,1,8
124173,-66.6666666666667,4,2,1,80,0,8
124548,375,4,2,1,70,1,0
124548,-133.333333333333,4,2,1,70,0,0

[Colours]
Combo1 : 202,202,202
Combo2 : 255,40,40
Combo3 : 18,124,255
Combo4 : 0,198,99

[HitObjects]
64,320,197,5,0,0:2:0:0:
64,320,447,1,0,0:2:0:0:
15,239,697,5,0,0:2:0:0:
62,222,947,1,0,0:2:0:0:
109,239,1197,1,0,0:2:0:0:
156,222,1447,1,0,0:2:0:0:
158,301,1697,5,0,0:2:0:0:
205,284,1947,1,0,0:2:0:0:
252,301,2197,1,0,0:2:0:0:
299,284,2447,1,0,0:2:0:0:
301,363,2697,5,0,0:2:0:0:
348,346,2947,1,0,0:2:0:0:
395,363,3197,1,0,0:2:0:0:
442,346,3447,1,0,0:2:0:0:
442,346,3947,1,0,0:2:0:0:
395,363,4197,1,0,0:2:0:0:
348,346,4447,1,0,0:2:0:0:
393,260,4697,5,0,0:2:0:0:
346,243,4911,1,0,0:2:0:0:
299,260,5125,1,0,0:2:0:0:
252,243,5339,1,0,0:2:0:0:
250,164,5554,5,0,0:2:0:0:
203,147,5741,1,0,0:2:0:0:
156,164,5929,1,0,0:2:0:0:
109,147,6116,1,0,0:2:0:0:
107,68,6304,5,0,0:2:0:0:
149,36,6480,1,0,0:2:0:0:
201,34,6656,1,0,0:2:0:0:
246,61,6833,1,0,0:2:0:0:
286,133,7009,5,0,0:2:0:0:
328,165,7175,1,0,0:2:0:0:
380,167,7342,1,0,0:2:0:0:
425,140,7508,1,0,0:2:0:0:
489,215,7675,5,0,0:2:0:0:
506,262,7825,1,0,0:2:0:0:
489,309,7975,1,0,0:2:0:0:
506,356,8125,1,0,0:2:0:0:
388,349,8275,5,0,0:2:0:0:
405,302,8425,1,0,0:2:0:0:
388,255,8575,1,0,0:2:0:0:
405,208,8725,1,0,0:2:0:0:
343,113,8875,5,0,0:2:0:0:
301,81,9025,1,0,0:2:0:0:
249,79,9175,1,0,0:2:0:0:
204,106,9325,1,0,0:2:0:0:
164,178,9475,5,0,0:2:0:0:
122,210,9625,1,0,0:2:0:0:
70,212,9775,1,0,0:2:0:0:
25,185,9925,1,0,0:2:0:0:
9,347,10075,5,0,0:2:0:0:
65,333,10221,1,0,0:2:0:0:
122,343,10367,1,0,0:2:0:0:
171,371,10509,1,0,0:2:0:0:
258,317,10652,5,0,0:2:0:0:
307,345,10791,1,0,0:2:0:0:
364,355,10931,1,0,0:2:0:0:
420,341,11067,1,0,0:2:0:0:
497,251,11203,5,0,0:2:0:0:
444,256,11336,1,0,0:2:0:0:
396,231,11469,1,0,3:2:0:0:
391,205,11534,1,0,0:2:0:0:
386,179,11599,1,0,0:2:0:0:
406,68,11729,1,0,0:2:0:0:
256,32,11856,5,8,0:2:0:0:
203,302,11984,1,8,0:2:0:0:
133,126,12111,1,0,0:2:0:0:
122,124,12175,1,0,0:2:0:0:
111,122,12239,5,4,0:3:0:0:
77,141,12302,1,0,0:2:0:0:
63,177,12365,1,0,0:2:0:0:
67,214,12427,1,0,0:2:0:0:
94,241,12490,2,0,L|139:252,3,42.5,8|0|0|0,0:2|0:2|0:2|0:2,0:2:0:0:
218,231,12740,5,4,0:3:0:0:
252,250,12803,1,0,0:2:0:0:
266,286,12866,1,0,0:2:0:0:
262,323,12928,1,0,0:2:0:0:
235,350,12991,2,0,L|190:361,3,42.5,8|0|0|0,0:2|0:2|0:2|0:2,0:2:0:0:
112,380,13240,5,4,0:3:0:0:
82,355,13302,1,0,0:2:0:0:
73,317,13365,1,0,0:2:0:0:
83,280,13427,1,0,0:2:0:0:
111,254,13490,1,8,0:2:0:0:
139,228,13553,1,0,0:2:0:0:
149,191,13615,1,0,0:2:0:0:
140,153,13678,1,0,0:2:0:0:
110,128,13740,2,0,L|65:117,3,42.5,4|0|0|0,0:3|0:2|0:2|0:2,0:2:0:0:
98,37,13990,2,0,L|53:26,3,42.5,8|0|0|0,0:2|0:2|0:2|0:2,0:2:0:0:
186,22,14240,5,4,0:3:0:0:
223,19,14302,1,0,0:2:0:0:
258,34,14365,1,0,3:2:0:0:
284,60,14427,1,0,0:2:0:0:
294,97,14490,2,0,L|299:170,3,42.5,8|0|0|0,0:2|0:2|3:2|0:2,0:2:0:0:
357,199,14740,5,4,0:3:0:0:
394,202,14802,1,0,0:2:0:0:
429,187,14865,1,0,3:2:0:0:
455,161,14927,1,0,0:2:0:0:
465,124,14990,2,0,L|467:81,3,42.5,8|0|0|0,3:2|0:2|3:2|0:2,0:2:0:0:
506,245,15240,6,0,L|508:287,3,42.5,4|0|0|0,3:0|0:2|3:2|0:2,0:2:0:0:
397,319,15490,2,0,L|399:361,3,42.5,8|0|0|0,3:2|0:2|3:2|0:2,0:2:0:0:
429,187,15740,2,0,L|431:229,3,42.5,4|0|0|0,3:0|0:2|3:2|0:2,0:2:0:0:
320,261,15990,1,8,3:2:0:0:
321,282,16052,1,2,3:0:0:0:
322,303,16115,1,2,3:0:0:0:
323,324,16177,1,2,3:0:0:0:
324,345,16240,5,4,3:1:0:0:
137,308,16365,1,8,0:2:0:0:
242,232,16490,1,0,3:2:0:0:
243,253,16552,1,0,0:2:0:0:
244,274,16615,1,8,0:2:0:0:
212,372,16740,5,0,3:2:0:0:
10,284,16865,1,8,0:2:0:0:
163,177,16990,1,0,3:2:0:0:
164,198,17052,1,0,0:2:0:0:
165,219,17115,1,8,0:2:0:0:
61,384,17240,5,4,3:1:0:0:
62,363,17302,1,0,0:2:0:0:
63,342,17365,1,8,0:2:0:0:
28,155,17490,1,0,3:2:0:0:
29,176,17552,1,0,0:2:0:0:
30,197,17615,1,8,0:2:0:0:
135,350,17740,5,0,3:2:0:0:
136,329,17802,1,0,0:2:0:0:
137,308,17865,1,8,0:2:0:0:
102,121,17990,1,0,3:2:0:0:
103,142,18052,1,0,0:2:0:0:
104,163,18115,1,8,0:2:0:0:
243,334,18239,6,0,L|245:273,3,50.9999984436036,4|0|0|0,3:1|0:2|3:2|0:2,0:2:0:0:
195,206,18539,1,0,3:2:0:0:
245,212,18614,1,0,3:2:0:0:
294,197,18689,1,8,3:2:0:0:
327,158,18764,1,0,3:2:0:0:
340,108,18839,6,0,L|342:47,3,59.9999978458181,4|0|0|0,3:1|0:2|3:2|0:2,0:2:0:0:
464,15,19191,1,0,3:2:0:0:
492,57,19280,1,0,3:2:0:0:
495,106,19368,1,8,3:2:0:0:
473,152,19456,1,0,3:2:0:0:
431,176,19544,5,4,3:1:0:0:
374,160,19651,1,0,3:2:0:0:
316,171,19758,1,8,3:2:0:0:
269,206,19865,1,0,3:2:0:0:
244,258,19972,5,0,3:2:0:0:
257,345,20097,1,0,3:2:0:0:
177,294,20222,5,8,3:2:0:0:
164,381,20347,1,0,3:2:0:0:
105,272,20472,6,0,P|83:317|30:342,1,85,4|0,3:1|3:2,0:2:0:0:
23,259,20722,1,8,3:2:0:0:
23,259,20847,1,0,3:2:0:0:
75,194,20972,5,0,3:2:0:0:
75,194,21186,1,0,0:2:0:0:
164,381,21400,5,4,0:2:0:0:
250,348,21551,1,0,0:2:0:0:
340,366,21701,2,0,P|394:370|449:344,1,101.999996887207,8|0,0:2|0:2,0:2:0:0:
512,192,22001,1,0,3:2:0:0:
433,144,22151,1,0,0:2:0:0:
347,176,22301,1,8,0:2:0:0:
302,188,22376,1,0,0:2:0:0:
256,185,22451,1,0,0:2:0:0:
214,166,22526,1,0,0:2:0:0:
190,126,22601,5,0,3:2:0:0:
179,34,22751,1,0,0:2:0:0:
106,167,22901,1,8,0:2:0:0:
95,75,23051,1,0,0:2:0:0:
264,70,23201,5,0,3:2:0:0:
95,75,23351,1,0,0:2:0:0:
49,66,23426,1,0,3:0:0:0:
18,32,23501,1,8,0:2:0:0:
214,166,23651,1,0,0:2:0:0:
229,210,23726,1,0,3:2:0:0:
215,254,23801,6,0,B|151:254|151:254|87:222|87:222|-9:222,1,203.999993774414,0|8,3:2|0:2,0:2:0:0:
118,366,24251,1,0,3:2:0:0:
236,174,24401,2,0,B|172:174|172:174|108:142|108:142|12:142,1,203.999993774414,0|8,3:2|0:2,0:2:0:0:
13,103,24776,1,0,0:2:0:0:
15,57,24851,1,0,3:2:0:0:
51,28,24926,1,0,0:2:0:0:
96,31,25001,5,0,3:2:0:0:
80,237,25151,1,0,0:2:0:0:
181,91,25301,1,8,0:2:0:0:
80,237,25451,1,0,0:2:0:0:
181,91,25601,1,0,3:2:0:0:
165,297,25751,1,0,3:2:0:0:
191,259,25826,1,0,3:2:0:0:
173,216,25901,1,8,3:2:0:0:
71,45,26051,1,0,3:2:0:0:
45,83,26126,1,0,0:2:0:0:
63,126,26201,6,0,B|127:126|127:126|191:94|191:94|287:94,1,203.999993774414,4|8,0:2|0:2,0:2:0:0:
173,216,26651,1,0,3:2:0:0:
107,24,26801,1,0,3:2:0:0:
54,257,26951,1,0,3:2:0:0:
40,300,27026,1,0,3:2:0:0:
56,342,27101,1,8,3:2:0:0:
270,248,27251,1,0,3:2:0:0:
284,205,27326,1,0,0:2:0:0:
268,163,27401,5,0,3:2:0:0:
163,339,27551,1,0,3:2:0:0:
365,266,27701,2,0,B|399:229|399:229|405:145,1,101.999996887207,8|0,0:2|0:2,0:2:0:0:
184,223,28001,5,0,3:2:0:0:
486,253,28151,1,0,3:2:0:0:
486,253,28226,1,0,3:2:0:0:
486,253,28301,1,8,3:2:0:0:
275,328,28451,1,0,0:2:0:0:
411,354,28601,5,4,0:2:0:0:
275,328,28751,1,0,0:2:0:0:
139,354,28901,1,8,0:2:0:0:
3,328,29051,1,0,0:2:0:0:
184,223,29201,5,0,3:2:0:0:
212,368,29351,1,0,0:2:0:0:
76,269,29501,5,8,0:2:0:0:
104,124,29651,1,0,0:2:0:0:
299,280,29801,5,0,3:2:0:0:
12,185,29951,1,0,3:2:0:0:
12,185,30026,1,0,3:2:0:0:
12,185,30101,1,8,3:2:0:0:
288,15,30251,1,0,3:2:0:0:
143,361,30401,5,8,3:2:0:0:
112,326,30476,1,8,3:2:0:0:
103,280,30551,1,8,3:2:0:0:
109,234,30626,1,8,3:2:0:0:
142,202,30701,1,8,3:2:0:0:
175,170,30776,1,8,3:2:0:0:
181,124,30851,1,8,3:2:0:0:
172,78,30926,1,8,3:2:0:0:
141,43,31001,5,4,0:1:0:0:
0,85,31137,1,8,0:2:0:0:
248,100,31273,1,0,3:2:0:0:
107,142,31409,1,8,0:2:0:0:
307,18,31546,1,0,3:2:0:0:
339,51,31614,1,0,0:2:0:0:
340,97,31682,1,8,0:2:0:0:
191,276,31819,2,0,P|181:231|205:168,1,92.727275299829,0|8,3:2|0:2,0:2:0:0:
500,106,32091,5,4,0:1:0:0:
291,181,32227,1,8,0:2:0:0:
467,215,32363,1,0,3:2:0:0:
339,51,32501,1,8,0:2:0:0:
374,281,32637,1,0,3:2:0:0:
450,17,32773,1,8,0:2:0:0:
240,254,32910,1,0,3:2:0:0:
208,221,32978,1,0,0:2:0:0:
207,175,33046,1,8,0:2:0:0:
467,215,33182,6,0,L|491:344,1,92.727275299829,4|8,0:1|0:2,0:2:0:0:
248,91,33455,2,0,L|272:-38,1,92.727275299829,0|8,3:2|0:2,0:2:0:0:
477,84,33728,5,0,3:2:0:0:
207,175,33864,1,8,0:2:0:0:
467,215,34001,1,0,3:2:0:0:
248,91,34137,1,8,0:2:0:0:
350,305,34273,5,4,0:1:0:0:
351,64,34410,1,8,0:2:0:0:
230,270,34546,1,0,3:2:0:0:
477,84,34683,1,8,0:2:0:0:
486,372,34819,1,0,3:2:0:0:
322,165,34955,1,8,0:2:0:0:
322,165,35023,1,0,0:2:0:0:
322,165,35091,1,0,3:2:0:0:
512,226,35228,1,8,0:2:0:0:
145,290,35364,5,4,0:1:0:0:
361,340,35501,1,8,0:2:0:0:
230,159,35637,1,0,3:2:0:0:
192,378,35773,1,8,0:2:0:0:
20,246,35910,1,0,3:2:0:0:
277,268,36046,1,8,0:2:0:0:
318,247,36114,1,0,0:2:0:0:
338,205,36182,1,0,3:2:0:0:
310,11,36319,1,8,0:2:0:0:
150,137,36455,5,4,0:1:0:0:
461,73,36591,1,8,0:2:0:0:
212,77,36728,1,0,3:2:0:0:
399,133,36864,1,8,0:2:0:0:
194,220,37001,5,0,3:2:0:0:
505,284,37137,1,8,0:2:0:0:
256,280,37274,1,0,3:2:0:0:
443,224,37410,1,8,0:2:0:0:
359,365,37546,5,4,0:1:0:0:
295,155,37682,1,8,0:2:0:0:
173,303,37819,1,0,3:2:0:0:
443,224,37955,1,8,0:2:0:0:
251,382,38091,5,0,3:2:0:0:
191,162,38228,1,8,0:2:0:0:
191,162,38296,1,0,0:2:0:0:
191,162,38363,1,0,3:2:0:0:
111,351,38500,1,8,0:2:0:0:
383,194,38637,5,4,0:1:0:0:
376,148,38705,1,0,0:2:0:0:
369,102,38773,1,8,0:2:0:0:
123,11,38910,1,4,3:1:0:0:
116,57,38978,1,0,0:2:0:0:
109,103,39046,1,8,0:2:0:0:
480,192,39182,2,0,L|512:192,14,23.1818188249572,8|8|8|8|8|8|8|8|8|8|8|8|8|8|8,0:2|0:2|0:2|0:2|0:2|0:2|0:2|0:2|0:2|0:2|0:2|0:2|0:2|0:2|0:2,0:2:0:0:
466,78,39728,5,0,3:2:0:0:
423,59,39791,1,0,0:2:0:0:
380,66,39854,1,0,0:2:0:0:
346,91,39916,1,0,0:2:0:0:
328,129,39979,2,0,L|322:196,3,42.5,0|0|0|0,0:2|0:2|0:2|0:2,0:2:0:0:
263,231,40229,1,0,3:2:0:0:
220,250,40292,1,0,0:2:0:0:
177,243,40355,1,0,0:2:0:0:
143,218,40417,1,0,0:2:0:0:
125,180,40480,2,0,L|121:137,3,42.5,0|0|0|0,0:2|0:2|0:2|0:2,0:2:0:0:
142,56,40729,5,0,3:2:0:0:
174,29,40791,1,0,0:2:0:0:
216,24,40854,1,0,0:2:0:0:
256,34,40916,1,0,0:2:0:0:
283,67,40979,1,0,0:2:0:0:
310,100,41042,1,0,0:2:0:0:
350,110,41104,1,0,0:2:0:0:
392,105,41167,1,0,0:2:0:0:
424,78,41229,2,0,L|447:32,3,42.5,0|0|0|0,3:2|0:2|0:2|0:2,0:2:0:0:
480,149,41479,2,0,L|503:103,3,42.5,0|0|0|0,0:2|0:2|0:2|0:2,0:2:0:0:
439,250,41729,5,2,3:2:0:0:
396,269,41792,1,0,0:2:0:0:
353,262,41855,1,0,0:2:0:0:
319,237,41917,1,0,0:2:0:0:
301,199,41980,2,0,L|295:132,3,42.5,0|0|0|0,0:2|0:2|0:2|0:2,0:2:0:0:
236,97,42229,1,0,3:2:0:0:
193,78,42291,1,0,0:2:0:0:
150,85,42354,1,0,0:2:0:0:
116,110,42416,1,0,0:2:0:0:
98,148,42479,2,0,L|94:191,3,42.5,0|0|0|0,0:2|0:2|0:2|0:2,0:2:0:0:
115,272,42730,5,0,3:2:0:0:
147,299,42792,1,0,0:2:0:0:
189,304,42855,1,0,0:2:0:0:
229,294,42917,1,0,0:2:0:0:
256,261,42980,1,0,0:2:0:0:
283,228,43041,1,0,0:2:0:0:
323,218,43105,1,0,0:2:0:0:
365,223,43166,1,0,0:2:0:0:
397,250,43229,2,0,L|420:296,3,42.5,0|0|0|0,3:2|0:2|0:2|0:2,0:2:0:0:
453,179,43480,2,0,L|476:225,3,42.5,0|0|0|0,0:2|0:2|0:2|0:2,0:2:0:0:
497,70,43729,5,2,3:2:0:0:
456,59,43791,1,0,0:2:0:0:
414,68,43854,1,0,0:2:0:0:
385,99,43916,1,0,0:2:0:0:
369,139,43979,2,0,L|369:197,3,42.5,0|0|0|0,0:2|0:2|0:2|0:2,0:2:0:0:
308,242,44229,1,0,3:2:0:0:
267,253,44291,1,0,0:2:0:0:
225,244,44354,1,0,0:2:0:0:
196,213,44416,1,0,0:2:0:0:
180,173,44479,2,0,L|180:130,3,42.5,0|0|0|0,0:2|0:2|0:2|0:2,0:2:0:0:
119,69,44729,5,0,3:2:0:0:
78,81,44791,1,0,0:2:0:0:
54,116,44854,1,0,0:2:0:0:
51,158,44916,1,0,0:2:0:0:
74,194,44979,1,0,0:2:0:0:
97,230,45042,1,0,0:2:0:0:
94,272,45104,1,0,0:2:0:0:
70,307,45167,1,0,0:2:0:0:
29,319,45229,2,0,L|20:274,3,42.5,0|0|0|0,3:2|0:2|0:2|0:2,0:2:0:0:
159,332,45479,2,0,L|150:377,3,42.5,0|0|0|0,0:2|0:2|0:2|0:2,0:2:0:0:
184,213,45729,5,2,3:2:0:0:
225,202,45791,1,0,0:2:0:0:
267,211,45854,1,0,0:2:0:0:
296,242,45916,1,0,0:2:0:0:
312,282,45979,2,0,L|312:340,3,42.5,0|0|0|0,0:2|0:2|0:2|0:2,0:2:0:0:
383,373,46229,1,2,3:2:0:0:
424,384,46291,1,0,0:2:0:0:
466,375,46354,1,0,0:2:0:0:
495,344,46416,1,0,0:2:0:0:
511,304,46479,2,0,L|511:261,3,42.5,0|0|0|0,0:2|0:2|0:2|0:2,0:2:0:0:
500,147,46729,5,2,3:2:0:0:
488,106,46791,1,0,0:2:0:0:
453,82,46854,1,0,0:2:0:0:
411,79,46916,1,0,0:2:0:0:
375,102,46979,1,0,0:2:0:0:
339,125,47042,1,0,0:2:0:0:
297,122,47104,1,0,0:2:0:0:
262,98,47167,1,0,0:2:0:0:
250,57,47229,2,0,L|295:48,3,42.5,2|0|0|0,3:2|0:2|0:2|0:2,0:2:0:0:
237,187,47479,2,0,L|192:178,3,42.5,2|0|0|0,3:0|0:2|3:2|0:2,0:2:0:0:
79,83,47729,5,8,3:2:0:0:
39,97,47791,1,0,0:2:0:0:
19,134,47854,1,0,0:2:0:0:
25,175,47916,1,0,0:2:0:0:
59,201,47979,2,0,L|102:212,3,42.5,0|0|0|0,3:2|0:2|0:2|0:2,0:2:0:0:
237,187,48229,5,8,3:2:0:0:
277,201,48291,1,0,0:2:0:0:
297,238,48354,1,0,0:2:0:0:
291,279,48416,1,0,0:2:0:0:
257,305,48479,2,0,L|214:316,3,42.5,0|0|0|0,3:2|0:2|0:2|0:2,0:2:0:0:
90,338,48729,5,8,3:2:0:0:
60,308,48791,1,0,0:2:0:0:
53,265,48854,1,0,0:2:0:0:
63,224,48916,1,0,0:2:0:0:
98,200,48979,1,0,3:2:0:0:
133,176,49042,1,0,0:2:0:0:
143,135,49104,1,0,0:2:0:0:
136,92,49167,1,0,0:2:0:0:
106,62,49229,1,8,3:2:0:0:
139,36,49291,1,0,0:2:0:0:
181,33,49354,1,0,0:2:0:0:
219,49,49416,1,0,0:2:0:0:
246,81,49479,2,0,L|255:137,3,42.5,0|0|0|0,3:2|0:2|0:2|0:2,0:2:0:0:
216,207,49729,5,8,3:2:0:0:
230,247,49786,1,0,0:2:0:0:
267,267,49844,1,0,0:2:0:0:
308,261,49902,1,0,0:2:0:0:
334,227,49959,2,0,L|345:184,3,39.2307683098246,0|0|0|0,3:2|0:2|0:2|0:2,0:2:0:0:
371,106,50190,5,8,3:2:0:0:
385,66,50248,1,0,0:2:0:0:
422,46,50305,1,0,0:2:0:0:
463,52,50364,1,0,0:2:0:0:
489,86,50421,2,0,L|500:129,3,39.2307683098246,0|0|0|0,3:2|0:2|0:2|0:2,0:2:0:0:
499,238,50652,5,8,3:2:0:0:
469,268,50709,1,0,0:2:0:0:
426,275,50767,1,0,0:2:0:0:
385,265,50825,1,0,0:2:0:0:
361,230,50882,1,0,3:2:0:0:
337,195,50940,1,0,0:2:0:0:
296,185,50998,1,0,0:2:0:0:
253,192,51055,1,0,0:2:0:0:
223,222,51113,1,8,3:2:0:0:
197,189,51171,1,0,0:2:0:0:
194,147,51229,1,0,0:2:0:0:
210,109,51286,1,0,0:2:0:0:
242,82,51344,2,0,L|298:73,3,39.2307683098246,0|0|0|0,3:2|0:2|0:2|0:2,0:2:0:0:
422,46,51575,5,8,3:2:0:0:
462,60,51633,1,0,0:2:0:0:
482,97,51690,1,0,0:2:0:0:
476,138,51749,1,0,0:2:0:0:
442,164,51806,2,0,L|399:175,3,39.2307683098246,0|0|0|0,3:2|0:2|0:2|0:2,0:2:0:0:
298,204,52036,5,8,3:2:0:0:
258,218,52094,1,0,0:2:0:0:
238,255,52151,1,0,0:2:0:0:
244,296,52210,1,0,0:2:0:0:
278,322,52267,2,0,L|321:333,3,39.2307683098246,0|0|0|0,3:2|0:2|0:2|0:2,0:2:0:0:
446,335,52498,5,8,3:2:0:0:
476,305,52555,1,0,0:2:0:0:
483,262,52613,1,0,0:2:0:0:
473,221,52671,1,0,0:2:0:0:
438,197,52728,1,0,3:2:0:0:
403,173,52786,1,0,0:2:0:0:
393,132,52844,1,0,0:2:0:0:
400,89,52901,1,0,0:2:0:0:
430,59,52959,1,8,3:2:0:0:
397,33,53017,1,0,0:2:0:0:
355,30,53075,1,0,0:2:0:0:
317,46,53132,1,0,0:2:0:0:
290,78,53190,2,0,L|281:134,3,39.2307683098246,0|0|0|0,3:2|0:2|0:2|0:2,0:2:0:0:
365,203,53421,6,0,L|438:197,1,72.8571444453026,8|0,3:2|0:2,0:2:0:0:
500,102,53635,1,0,3:2:0:0:
504,302,53742,2,0,L|431:295,1,72.8571444453026,8|0,3:2|3:2,0:2:0:0:
210,278,53956,1,8,3:2:0:0:
210,278,54009,1,0,3:2:0:0:
210,278,54063,1,0,3:2:0:0:
334,379,54171,1,8,3:2:0:0:
281,180,54278,5,8,0:2:0:0:
279,161,54331,1,0,0:2:0:0:
277,143,54385,1,8,0:2:0:0:
167,122,54492,1,0,3:2:0:0:
165,103,54545,1,8,0:2:0:0:
163,85,54599,1,8,0:2:0:0:
199,229,54706,1,0,3:2:0:0:
197,248,54759,1,8,0:2:0:0:
195,266,54813,1,8,0:2:0:0:
193,285,54867,1,8,0:2:0:0:
191,303,54921,2,8,L|187:339,4,36.4285722226513,8|8|8|8|4,0:2|0:2|0:2|0:2|0:2,0:2:0:0:
191,303,55849,5,8,0:2:0:0:
191,303,56250,5,0,3:2:0:0:
195,266,56344,1,0,3:2:0:0:
199,229,56438,1,8,3:2:0:0:
330,270,56604,1,8,3:2:0:0:
334,307,56688,1,0,3:2:0:0:
338,344,56771,5,0,3:2:0:0:
382,367,56846,1,0,0:2:0:0:
432,363,56921,1,0,0:2:0:0:
473,333,56996,1,0,0:2:0:0:
492,287,57071,1,8,0:2:0:0:
484,237,57146,1,0,0:2:0:0:
450,199,57221,1,0,0:2:0:0:
402,184,57296,1,0,0:2:0:0:
354,197,57371,1,0,3:2:0:0:
305,210,57446,1,0,0:2:0:0:
257,196,57521,1,0,0:2:0:0:
224,158,57596,1,0,0:2:0:0:
216,108,57671,1,8,0:2:0:0:
234,61,57746,1,0,0:2:0:0:
275,32,57821,1,0,0:2:0:0:
325,28,57896,1,0,0:2:0:0:
370,51,57971,5,0,3:2:0:0:
363,58,58046,1,0,0:2:0:0:
354,63,58121,1,0,0:2:0:0:
344,66,58196,1,0,0:2:0:0:
334,69,58271,1,8,0:2:0:0:
323,70,58346,1,0,0:2:0:0:
312,70,58421,1,0,0:2:0:0:
272,60,58496,1,0,0:2:0:0:
231,57,58571,1,0,3:2:0:0:
194,74,58646,1,0,0:2:0:0:
178,111,58721,1,0,0:2:0:0:
187,150,58796,1,0,0:2:0:0:
219,174,58871,1,8,0:2:0:0:
269,181,58946,1,0,0:2:0:0:
315,161,59021,1,0,0:2:0:0:
365,162,59096,1,0,0:2:0:0:
408,189,59171,5,0,3:2:0:0:
440,224,59242,1,0,0:2:0:0:
452,270,59313,1,0,0:2:0:0:
439,317,59385,1,0,0:2:0:0:
406,351,59456,1,8,0:2:0:0:
360,365,59528,1,0,0:2:0:0:
313,356,59599,1,0,0:2:0:0:
277,324,59671,1,0,0:2:0:0:
236,298,59742,1,0,3:2:0:0:
187,294,59813,1,0,0:2:0:0:
139,303,59885,1,0,0:2:0:0:
98,328,59956,1,0,0:2:0:0:
69,368,60028,1,8,0:2:0:0:
33,334,60099,1,0,0:2:0:0:
21,286,60171,1,0,0:2:0:0:
35,240,60242,1,0,0:2:0:0:
74,211,60313,5,0,3:2:0:0:
113,182,60385,1,0,0:2:0:0:
127,136,60456,1,0,0:2:0:0:
115,88,60528,1,0,0:2:0:0:
79,54,60599,1,8,0:2:0:0:
95,100,60671,1,0,0:2:0:0:
127,136,60742,1,0,0:2:0:0:
174,144,60813,1,0,0:2:0:0:
221,133,60885,1,0,3:2:0:0:
269,134,60956,1,0,0:2:0:0:
309,162,61028,1,0,0:2:0:0:
324,207,61099,1,0,0:2:0:0:
313,254,61171,1,8,0:2:0:0:
270,277,61242,1,0,0:2:0:0:
223,263,61313,1,0,0:2:0:0:
201,219,61385,1,0,0:2:0:0:
215,172,61456,5,0,3:2:0:0:
412,238,61592,1,0,0:2:0:0:
257,376,61728,1,8,0:2:0:0:
347,112,61865,1,0,0:2:0:0:
328,69,61933,1,0,0:2:0:0:
287,46,62001,1,0,3:2:0:0:
241,52,62069,1,0,0:2:0:0:
211,87,62137,1,0,0:2:0:0:
181,122,62206,1,0,0:2:0:0:
135,128,62274,1,8,0:2:0:0:
94,105,62342,1,0,0:2:0:0:
75,62,62410,1,0,0:2:0:0:
56,105,62478,1,0,0:2:0:0:
15,128,62546,5,0,3:2:0:0:
40,164,62611,1,0,0:2:0:0:
49,207,62676,1,0,0:2:0:0:
44,250,62741,1,0,0:2:0:0:
21,288,62806,1,8,0:2:0:0:
73,277,62872,1,0,0:2:0:0:
125,285,62937,1,0,0:2:0:0:
173,306,63002,1,0,0:2:0:0:
205,348,63067,1,0,3:2:0:0:
252,371,63132,1,0,0:2:0:0:
305,371,63198,1,0,0:2:0:0:
351,345,63263,1,0,0:2:0:0:
362,293,63328,1,8,0:2:0:0:
338,255,63393,1,0,0:2:0:0:
296,237,63459,1,0,0:2:0:0:
253,248,63524,1,0,0:2:0:0:
231,286,63589,5,0,3:2:0:0:
227,278,63651,1,0,0:2:0:0:
224,269,63714,1,0,0:2:0:0:
222,260,63776,1,0,0:2:0:0:
221,251,63839,1,8,0:2:0:0:
221,242,63901,1,0,0:2:0:0:
221,233,63964,1,0,0:2:0:0:
222,224,64026,1,0,0:2:0:0:
236,183,64089,5,0,3:2:0:0:
240,175,64151,1,0,0:2:0:0:
243,166,64214,1,8,0:2:0:0:
245,157,64276,1,0,0:2:0:0:
246,148,64339,1,8,0:2:0:0:
246,139,64401,1,0,0:2:0:0:
246,130,64464,1,0,0:2:0:0:
245,121,64526,1,0,0:2:0:0:
229,81,64589,5,4,3:0:0:0:
187,75,64651,1,0,0:2:0:0:
144,69,64714,1,0,0:2:0:0:
85,192,64839,1,4,3:0:0:0:
43,186,64901,1,0,3:2:0:0:
0,180,64964,1,8,3:2:0:0:
135,332,65089,1,8,3:2:0:0:
329,374,65214,5,8,0:2:0:0:
382,104,65339,2,0,L|389:53,3,42.5,8|0|0|0,0:2|0:2|0:2|0:2,0:2:0:0:
468,28,65590,5,4,0:1:0:0:
500,67,65665,1,0,0:2:0:0:
505,117,65740,1,8,0:2:0:0:
494,166,65815,1,0,0:2:0:0:
453,196,65890,1,0,3:2:0:0:
412,226,65965,1,0,0:2:0:0:
401,275,66040,1,8,0:2:0:0:
406,325,66115,1,0,0:2:0:0:
438,364,66190,1,0,3:2:0:0:
387,373,66265,1,0,0:2:0:0:
337,359,66340,1,8,0:2:0:0:
303,320,66415,1,0,0:2:0:0:
294,269,66490,1,0,3:2:0:0:
285,218,66565,1,0,0:2:0:0:
251,179,66640,1,8,0:2:0:0:
201,165,66715,1,0,0:2:0:0:
150,174,66790,5,4,0:1:0:0:
130,193,66873,1,0,0:2:0:0:
122,220,66956,1,8,0:2:0:0:
127,248,67040,1,0,0:2:0:0:
142,271,67123,1,0,3:2:0:0:
167,282,67206,1,0,0:2:0:0:
195,282,67290,1,8,0:2:0:0:
221,272,67373,1,0,0:2:0:0:
239,250,67456,1,0,3:2:0:0:
257,228,67539,1,0,0:2:0:0:
283,218,67622,1,8,0:2:0:0:
311,218,67706,1,0,0:2:0:0:
336,229,67789,1,0,3:2:0:0:
351,252,67872,1,0,0:2:0:0:
356,280,67956,1,8,0:2:0:0:
348,307,68039,1,0,0:2:0:0:
328,326,68122,5,4,0:1:0:0:
321,315,68216,1,0,0:2:0:0:
316,303,68310,1,8,0:2:0:0:
313,290,68404,1,0,0:2:0:0:
312,277,68498,1,0,3:2:0:0:
312,264,68591,1,0,0:2:0:0:
314,251,68685,1,8,0:2:0:0:
319,239,68779,1,0,0:2:0:0:
326,228,68873,1,0,3:2:0:0:
333,217,68966,1,0,0:2:0:0:
338,205,69060,1,8,0:2:0:0:
340,192,69154,1,0,0:2:0:0:
340,179,69247,1,0,3:2:0:0:
339,166,69341,1,0,0:2:0:0:
336,153,69435,1,8,0:2:0:0:
331,141,69529,1,0,0:2:0:0:
324,130,69623,5,4,0:1:0:0:
298,142,69706,1,0,0:2:0:0:
269,143,69789,1,8,0:2:0:0:
241,134,69873,1,0,0:2:0:0:
221,114,69956,1,0,3:2:0:0:
201,94,70039,1,0,0:2:0:0:
173,85,70123,1,8,0:2:0:0:
144,86,70206,1,0,0:2:0:0:
118,98,70289,1,0,3:2:0:0:
99,120,70373,1,0,0:2:0:0:
90,147,70456,1,8,0:2:0:0:
95,174,70539,1,0,0:2:0:0:
109,198,70623,1,0,3:2:0:0:
133,212,70706,1,0,0:2:0:0:
161,215,70789,1,8,0:2:0:0:
188,206,70873,1,0,0:2:0:0:
207,186,70956,5,4,0:1:0:0:
226,232,71031,1,0,0:2:0:0:
224,283,71106,1,8,0:2:0:0:
200,327,71181,1,0,0:2:0:0:
159,357,71256,1,0,3:2:0:0:
110,367,71331,1,0,0:2:0:0:
61,355,71406,1,8,0:2:0:0:
22,323,71481,1,0,0:2:0:0:
0,277,71556,5,0,3:2:0:0:
43,256,71627,1,0,0:2:0:0:
91,251,71698,1,8,0:2:0:0:
139,260,71770,1,0,0:2:0:0:
176,290,71841,1,0,3:2:0:0:
213,320,71913,1,0,0:2:0:0:
261,329,71985,1,8,0:2:0:0:
309,324,72056,1,0,0:2:0:0:
352,303,72127,5,4,0:1:0:0:
378,264,72195,1,0,0:2:0:0:
374,217,72263,1,8,0:2:0:0:
346,180,72331,1,0,0:2:0:0:
303,160,72399,1,0,3:2:0:0:
260,140,72468,1,0,0:2:0:0:
232,103,72536,1,8,0:2:0:0:
228,56,72604,1,0,0:2:0:0:
254,17,72672,5,0,3:2:0:0:
211,6,72737,1,0,0:2:0:0:
170,23,72802,1,8,0:2:0:0:
142,57,72867,1,0,0:2:0:0:
133,100,72933,1,0,3:2:0:0:
124,143,72998,1,0,0:2:0:0:
96,177,73063,1,8,0:2:0:0:
55,194,73128,1,0,0:2:0:0:
12,183,73193,5,4,0:1:0:0:
8,191,73255,1,0,0:2:0:0:
5,200,73318,1,8,0:2:0:0:
3,209,73380,1,0,0:2:0:0:
2,218,73443,1,0,3:2:0:0:
2,227,73505,1,0,0:2:0:0:
2,236,73568,1,8,0:2:0:0:
3,245,73630,1,0,0:2:0:0:
33,275,73693,5,4,0:1:0:0:
37,283,73755,1,0,0:2:0:0:
40,292,73818,1,8,0:2:0:0:
42,301,73880,1,0,0:2:0:0:
43,310,73943,1,0,3:2:0:0:
43,319,74005,1,0,0:2:0:0:
43,328,74068,1,8,0:2:0:0:
42,337,74130,1,0,0:2:0:0:
19,373,74193,5,4,0:1:0:0:
57,378,74250,1,0,0:2:0:0:
95,371,74308,1,0,0:2:0:0:
212,323,74423,1,8,3:2:0:0:
250,318,74476,1,0,3:2:0:0:
288,325,74530,1,0,0:2:0:0:
423,357,74637,5,0,3:2:0:0:
429,356,74687,1,0,3:2:0:0:
435,355,74737,1,0,3:2:0:0:
441,354,74787,1,0,3:2:0:0:
447,353,74837,1,8,3:2:0:0:
453,352,74887,1,0,3:2:0:0:
459,351,74937,1,0,3:2:0:0:
465,350,74987,1,0,3:2:0:0:
471,349,75037,6,0,P|488:255|458:134,1,185.454550599658,4|8,0:1|0:2,0:2:0:0:
401,106,75446,1,0,0:2:0:0:
319,273,75582,1,0,3:2:0:0:
246,215,75718,1,0,0:2:0:0:
218,125,75855,2,0,P|214:93|234:24,1,92.727275299829,8|0,0:2|0:2,0:2:0:0:
15,23,76127,5,0,3:2:0:0:
80,88,76264,1,0,0:2:0:0:
14,153,76400,1,8,0:2:0:0:
79,218,76537,2,0,P|83:250|63:319,1,92.727275299829,0|0,0:2|3:2,0:2:0:0:
5,375,76809,1,0,0:2:0:0:
183,355,76946,1,8,0:2:0:0:
183,355,77082,1,0,0:2:0:0:
382,362,77218,6,0,B|424:362|424:362|440:353|440:353|481:353,1,92.727275299829,0|0,3:2|0:2,0:2:0:0:
253,213,77491,2,0,P|210:231|184:271,1,92.727275299829,8|0,0:2|0:2,0:2:0:0:
424,257,77764,2,0,B|424:215|424:215|433:199|433:199|433:158,1,92.727275299829,0|0,3:2|0:2,0:2:0:0:
307,14,78037,2,0,P|299:56|323:126,1,92.727275299829,8|0,0:2|0:2,0:2:0:0:
507,246,78309,5,0,3:2:0:0:
342,214,78446,1,0,0:2:0:0:
512,330,78582,1,8,0:2:0:0:
347,298,78719,1,0,0:2:0:0:
433,166,78855,1,0,3:2:0:0:
271,260,78991,1,0,0:2:0:0:
250,270,79059,1,0,0:2:0:0:
226,270,79127,1,8,0:2:0:0:
203,262,79196,1,0,0:2:0:0:
180,254,79264,1,0,3:2:0:0:
156,254,79332,1,0,0:2:0:0:
135,264,79400,5,4,0:1:0:0:
113,354,79537,1,8,3:2:0:0:
106,188,79673,5,0,3:2:0:0:
61,269,79810,1,8,3:2:0:0:
97,107,79945,5,0,3:2:0:0:
33,173,80082,1,8,3:2:0:0:
109,26,80218,5,0,3:2:0:0:
30,74,80355,1,8,3:2:0:0:
336,76,80491,5,0,3:2:0:0:
257,28,80628,1,8,3:2:0:0:
333,175,80764,5,0,3:2:0:0:
269,109,80901,1,8,3:2:0:0:
305,271,81036,5,0,3:2:0:0:
260,190,81173,1,8,3:2:0:0:
253,356,81309,5,0,3:2:0:0:
231,266,81446,1,8,3:2:0:0:
30,352,81582,5,4,3:1:0:0:
120,372,81718,1,8,3:2:0:0:
140,282,81855,1,0,3:2:0:0:
50,262,81991,1,8,3:2:0:0:
211,356,82127,5,0,3:2:0:0:
301,376,82263,1,8,3:2:0:0:
321,286,82400,1,0,3:2:0:0:
231,266,82536,1,8,3:2:0:0:
392,360,82673,5,0,3:2:0:0:
140,282,82809,1,8,3:2:0:0:
471,207,82946,1,0,3:2:0:0:
219,129,83082,1,8,3:2:0:0:
223,151,83150,1,0,3:2:0:0:
227,173,83218,1,0,3:2:0:0:
329,70,83355,1,8,3:2:0:0:
151,18,83491,1,8,3:2:0:0:
147,40,83559,1,0,3:2:0:0:
143,62,83627,1,0,3:2:0:0:
118,320,83764,5,4,0:1:0:0:
147,349,83826,1,0,0:2:0:0:
188,357,83889,1,8,0:2:0:0:
228,346,83951,1,0,0:2:0:0:
255,312,84014,1,0,3:2:0:0:
282,278,84076,1,0,0:2:0:0:
322,267,84138,1,8,0:2:0:0:
363,275,84201,1,0,0:2:0:0:
392,304,84263,1,0,3:2:0:0:
365,338,84327,1,0,0:2:0:0:
325,349,84389,1,8,0:2:0:0:
284,341,84452,1,0,0:2:0:0:
255,312,84514,1,0,3:2:0:0:
243,271,84576,1,0,0:2:0:0:
252,229,84639,1,8,0:2:0:0:
282,199,84701,1,0,0:2:0:0:
323,188,84764,6,0,L|383:182,3,42.5,0|0|8|0,3:2|0:2|0:2|0:2,0:2:0:0:
330,105,85014,2,0,L|270:99,3,42.5,0|0|8|0,3:2|0:2|0:2|0:2,0:2:0:0:
227,40,85264,1,0,3:2:0:0:
193,65,85326,1,0,0:2:0:0:
150,71,85389,1,8,0:2:0:0:
108,63,85451,1,0,0:2:0:0:
77,32,85514,1,0,3:2:0:0:
46,63,85577,1,0,0:2:0:0:
38,105,85639,1,8,0:2:0:0:
44,148,85702,1,0,0:2:0:0:
69,182,85764,5,4,0:1:0:0:
98,211,85826,1,0,0:2:0:0:
139,219,85889,1,8,0:2:0:0:
179,208,85951,1,0,0:2:0:0:
206,174,86014,1,0,3:2:0:0:
233,140,86076,1,0,0:2:0:0:
273,129,86138,1,8,0:2:0:0:
314,137,86201,1,0,0:2:0:0:
343,166,86263,1,0,3:2:0:0:
360,205,86326,1,0,0:2:0:0:
353,247,86389,1,8,0:2:0:0:
327,280,86451,1,0,0:2:0:0:
287,295,86514,1,0,3:2:0:0:
304,333,86576,1,0,0:2:0:0:
342,352,86639,1,8,0:2:0:0:
383,359,86701,1,0,0:2:0:0:
425,350,86764,5,0,3:2:0:0:
457,322,86826,1,0,0:2:0:0:
481,288,86889,1,8,0:2:0:0:
497,248,86951,1,0,0:2:0:0:
502,206,87014,1,0,3:2:0:0:
496,164,87076,1,0,0:2:0:0:
481,125,87139,1,8,0:2:0:0:
456,90,87201,1,8,3:2:0:0:
417,73,87264,1,8,3:2:0:0:
234,134,87389,1,8,0:2:0:0:
362,177,87514,1,8,0:2:0:0:
362,177,87576,1,8,0:2:0:0:
362,177,87639,1,8,0:2:0:0:
294,319,87764,5,4,0:1:0:0:
265,348,87826,1,0,0:2:0:0:
224,356,87889,1,8,0:2:0:0:
184,345,87951,1,0,0:2:0:0:
157,311,88014,1,0,3:2:0:0:
130,277,88076,1,0,0:2:0:0:
90,266,88138,1,8,0:2:0:0:
49,274,88201,1,0,0:2:0:0:
20,303,88263,1,0,3:2:0:0:
62,296,88326,1,0,0:2:0:0:
104,289,88389,1,8,0:2:0:0:
145,282,88451,1,0,0:2:0:0:
187,275,88514,1,0,3:2:0:0:
228,269,88576,1,0,0:2:0:0:
270,263,88639,1,8,0:2:0:0:
312,257,88701,1,0,0:2:0:0:
354,251,88764,5,0,3:2:0:0:
325,222,88826,1,0,0:2:0:0:
284,214,88889,1,8,0:2:0:0:
244,225,88951,1,0,0:2:0:0:
217,259,89014,1,0,3:2:0:0:
190,293,89076,1,0,0:2:0:0:
150,304,89138,1,8,0:2:0:0:
109,296,89201,1,0,0:2:0:0:
80,267,89263,1,0,3:2:0:0:
122,274,89326,1,0,0:2:0:0:
164,281,89389,1,8,0:2:0:0:
205,288,89451,1,0,0:2:0:0:
247,295,89514,1,0,3:2:0:0:
288,301,89576,1,0,0:2:0:0:
330,307,89639,1,8,0:2:0:0:
372,313,89701,1,0,0:2:0:0:
414,319,89764,5,4,0:1:0:0:
434,315,89826,1,0,0:2:0:0:
455,312,89889,1,8,0:2:0:0:
404,209,90014,1,0,3:2:0:0:
337,384,90139,1,8,0:2:0:0:
270,257,90264,5,0,3:2:0:0:
290,253,90326,1,0,0:2:0:0:
311,250,90389,1,8,0:2:0:0:
260,147,90514,1,0,3:2:0:0:
193,322,90639,1,8,0:2:0:0:
133,138,90764,5,4,3:0:0:0:
137,118,90826,1,0,0:2:0:0:
140,97,90889,1,8,0:2:0:0:
8,187,91014,1,4,0:3:0:0:
4,167,91076,1,0,0:2:0:0:
1,146,91139,1,8,0:2:0:0:
99,274,91264,1,4,0:3:0:0:
99,274,91326,1,0,0:2:0:0:
99,274,91389,2,0,L|105:312,10,21.25,8|8|8|8|8|8|8|8|8|8|8,0:2|0:2|0:2|0:2|0:2|0:2|0:2|0:2|0:2|0:2|0:2,0:2:0:0:
170,328,91764,6,0,L|160:381,3,50.9999984436036,8|8|8|8,3:3|3:3|3:3|3:3,0:2:0:0:
257,340,92064,1,8,0:2:0:0:
304,322,92139,1,8,0:2:0:0:
351,304,92214,1,8,0:2:0:0:
399,287,92289,1,8,0:2:0:0:
447,270,92364,1,8,0:2:0:0:
399,253,92439,1,8,0:2:0:0:
351,236,92514,1,8,0:2:0:0:
304,218,92589,1,8,0:2:0:0:
257,200,92664,1,8,0:2:0:0:
305,183,92739,1,8,0:2:0:0:
353,166,92814,1,8,0:2:0:0:
400,148,92889,1,8,0:2:0:0:
447,130,92964,6,0,P|470:85|368:46,1,185.300001979218,4|0,0:2|0:2,0:2:0:0:
297,90,93645,1,0,0:2:0:0:
214,47,93782,1,8,0:2:0:0:
214,47,94054,2,0,P|185:129|214:229,1,185.300001979218,0|0,3:2|0:2,0:2:0:0:
386,278,94737,1,0,0:2:0:0:
293,271,94873,1,8,0:2:0:0:
211,315,95009,1,0,0:2:0:0:
68,347,95145,6,0,P|39:265|24:164,1,185.300001979218,0|8,3:2|0:2,0:2:0:0:
124,214,95691,2,0,P|153:132|168:31,1,185.300001979218,0|8,3:2|0:2,0:2:0:0:
330,21,96236,6,0,P|375:43|375:255,1,277.950002968826,0|8,3:2|0:2,0:2:0:0:
258,293,97327,5,0,3:2:0:0:
258,293,97600,1,8,3:2:0:0:
82,233,97873,1,0,3:2:0:0:
43,149,98009,1,0,0:2:0:0:
84,66,98145,1,8,3:2:0:0:
84,66,98418,6,0,L|96:157,1,92.6500009896088,0|8,3:2|3:2,3:2:0:0:
182,197,98964,2,0,L|194:106,1,92.6500009896088,0|8,3:2|3:2,3:2:0:0:
280,66,99509,5,0,3:2:0:0:
321,44,99645,1,0,0:2:0:0:
367,44,99782,1,8,3:2:0:0:
408,65,99918,1,0,0:2:0:0:
348,157,100054,5,0,3:2:0:0:
389,179,100190,1,0,0:2:0:0:
435,179,100327,1,8,3:2:0:0:
476,158,100463,1,0,0:2:0:0:
497,282,100600,5,0,3:2:0:0:
406,261,100736,1,0,0:2:0:0:
314,280,100873,1,8,3:2:0:0:
247,344,101009,1,0,0:2:0:0:
376,351,101145,5,0,3:2:0:0:
195,242,101282,2,0,L|160:246,5,23.1625002474022,0|0|0|0|0|0,0:2|0:2|0:2|0:2|0:2|0:2,0:2:0:0:
108,315,101692,6,0,P|84:277|79:227,1,85,4|0,3:1|0:2,0:2:0:0:
297,103,101942,2,0,P|290:144|266:180,1,85,8|0,3:2|0:2,0:2:0:0:
130,48,102192,1,0,3:2:0:0:
130,48,102317,1,0,0:2:0:0:
401,3,102442,2,0,L|413:103,1,85,8|0,3:2|0:2,0:2:0:0:
314,324,102692,6,0,L|326:224,1,85,0|0,3:2|0:2,0:2:0:0:
397,384,102942,2,0,L|409:284,1,85,8|0,3:2|0:2,0:2:0:0:
478,228,103192,1,0,3:2:0:0:
242,376,103317,1,0,0:2:0:0:
333,141,103442,1,8,3:2:0:0:
407,299,103567,1,0,0:2:0:0:
170,259,103692,6,0,L|70:247,1,85,4|0,3:1|0:2,0:2:0:0:
403,208,103942,2,0,L|503:196,1,85,8|0,3:2|0:2,0:2:0:0:
132,343,104192,2,0,L|32:331,1,85,0|0,3:2|0:2,0:2:0:0:
365,124,104442,2,0,L|465:112,1,85,8|0,3:2|0:2,0:2:0:0:
252,32,104692,5,0,3:2:0:0:
243,51,104754,1,0,0:2:0:0:
241,72,104817,1,0,0:2:0:0:
245,92,104879,1,0,0:2:0:0:
255,110,104942,1,8,3:2:0:0:
265,128,105004,1,0,0:2:0:0:
269,148,105066,1,8,0:2:0:0:
267,169,105129,1,8,0:2:0:0:
258,188,105191,1,8,0:2:0:0:
75,121,105317,1,8,0:2:0:0:
371,82,105442,1,8,0:2:0:0:
368,103,105504,1,8,0:2:0:0:
365,124,105567,1,8,0:2:0:0:
101,274,105692,6,0,P|139:250|189:245,1,85,4|0,3:1|0:2,0:2:0:0:
465,276,105942,2,0,P|427:300|377:305,1,85,8|0,3:2|0:2,0:2:0:0:
255,110,106192,1,0,3:2:0:0:
255,110,106317,1,0,0:2:0:0:
274,299,106442,2,0,L|262:399,1,85,8|0,3:2|0:2,0:2:0:0:
504,192,106692,6,0,B|472:192|472:192|452:184|452:184|405:183,1,85,0|0,3:2|0:2,0:2:0:0:
91,238,106942,1,8,3:2:0:0:
91,238,107067,1,0,0:2:0:0:
512,107,107192,6,0,B|480:107|480:107|460:99|460:99|413:98,1,85,0|0,3:2|0:2,0:2:0:0:
98,152,107442,1,8,3:2:0:0:
98,152,107567,1,0,0:2:0:0:
372,292,107692,5,4,0:1:0:0:
256,204,107817,1,0,0:2:0:0:
140,292,107942,1,8,3:2:0:0:
256,204,108067,1,0,0:2:0:0:
372,212,108192,5,0,3:2:0:0:
256,124,108317,1,0,0:2:0:0:
140,212,108442,1,8,3:2:0:0:
256,124,108567,1,0,0:2:0:0:
477,18,108692,6,0,L|489:118,1,85,8|0,3:2|0:2,0:2:0:0:
35,366,108942,2,0,L|23:266,1,85,8|0,3:2|0:2,0:2:0:0:
256,28,109192,1,8,3:2:0:0:
377,327,109317,1,8,0:2:0:0:
377,327,109379,1,8,0:2:0:0:
377,327,109442,2,0,L|372:362,5,21.25,8|8|8|8|8|8,0:2|0:2|0:2|0:2|0:2|0:2,0:2:0:0:
286,373,109693,5,4,0:1:0:0:
328,196,109808,1,8,0:2:0:0:
460,320,109924,1,0,3:2:0:0:
462,339,109981,1,0,0:2:0:0:
464,358,110039,1,8,0:2:0:0:
241,269,110154,5,0,3:2:0:0:
283,92,110269,1,8,0:2:0:0:
415,216,110385,1,0,3:2:0:0:
417,235,110442,1,0,0:2:0:0:
419,254,110500,1,8,0:2:0:0:
151,368,110616,5,4,0:1:0:0:
153,349,110673,1,0,0:2:0:0:
155,330,110731,1,8,0:2:0:0:
47,238,110846,1,0,3:2:0:0:
45,219,110903,1,0,0:2:0:0:
43,200,110961,1,8,0:2:0:0:
232,344,111077,5,0,3:2:0:0:
234,325,111135,1,0,0:2:0:0:
236,306,111192,1,8,0:2:0:0:
128,214,111308,1,0,3:2:0:0:
126,195,111366,1,0,0:2:0:0:
124,176,111423,1,8,0:2:0:0:
54,340,111539,5,4,3:1:0:0:
279,235,111654,1,8,0:2:0:0:
39,162,111770,1,0,3:2:0:0:
41,181,111827,1,0,0:2:0:0:
43,200,111885,1,8,0:2:0:0:
155,330,112000,5,0,3:2:0:0:
380,225,112115,1,8,0:2:0:0:
140,152,112231,1,0,3:2:0:0:
142,171,112288,1,0,0:2:0:0:
144,190,112346,1,8,0:2:0:0:
309,367,112462,6,0,L|359:360,3,39.2307683098246,4|0|8|0,3:1|0:2|0:2|0:2,0:2:0:0:
403,306,112693,2,0,L|453:299,3,39.2307683098246,0|0|8|0,3:2|0:2|0:2|0:2,0:2:0:0:
496,246,112923,1,0,3:2:0:0:
483,208,112981,1,0,0:2:0:0:
451,184,113039,1,8,0:2:0:0:
413,175,113096,1,0,0:2:0:0:
375,188,113154,1,0,3:2:0:0:
337,201,113212,1,0,0:2:0:0:
299,192,113269,1,8,0:2:0:0:
267,168,113327,1,0,0:2:0:0:
254,130,113385,5,4,0:1:0:0:
406,62,113500,1,8,0:2:0:0:
171,11,113616,1,0,3:2:0:0:
169,30,113673,1,0,0:2:0:0:
167,49,113731,1,8,0:2:0:0:
185,227,113846,5,0,3:2:0:0:
337,159,113961,1,8,0:2:0:0:
102,108,114077,1,0,3:2:0:0:
100,127,114134,1,0,0:2:0:0:
98,146,114192,1,8,0:2:0:0:
289,357,114308,5,4,3:1:0:0:
291,338,114365,1,0,0:2:0:0:
293,319,114423,1,8,0:2:0:0:
185,227,114538,1,0,3:2:0:0:
185,227,114654,1,8,0:2:0:0:
370,333,114769,5,0,3:2:0:0:
372,314,114826,1,0,0:2:0:0:
374,295,114884,1,8,0:2:0:0:
266,203,115000,1,0,3:2:0:0:
266,203,115116,1,8,0:2:0:0:
506,226,115231,5,4,3:1:0:0:
506,226,115289,1,0,0:2:0:0:
506,226,115346,1,8,0:2:0:0:
399,21,115462,2,0,L|387:121,1,78.4615366196492,0|8,3:2|0:2,0:2:0:0:
283,308,115693,5,4,0:1:0:0:
283,308,115751,1,0,0:2:0:0:
283,308,115808,1,8,0:2:0:0:
176,103,115923,2,0,L|164:203,1,78.4615366196492,0|8,3:2|0:2,0:2:0:0:
141,375,116154,5,4,3:1:0:0:
160,373,116211,1,0,0:2:0:0:
179,371,116269,1,0,0:2:0:0:
425,265,116385,1,8,0:2:0:0:
406,263,116442,1,0,0:2:0:0:
387,261,116500,1,0,0:2:0:0:
176,103,116616,1,8,0:2:0:0:
193,68,116673,1,8,0:2:0:0:
228,50,116731,1,8,0:2:0:0:
267,48,116789,1,8,0:2:0:0:
303,62,116846,1,8,0:2:0:0:
410,163,116962,1,0,3:2:0:0:
133,215,117077,5,4,3:1:0:0:
278,295,117185,1,8,0:2:0:0:
40,340,117292,1,0,3:2:0:0:
21,338,117345,1,0,0:2:0:0:
2,336,117399,1,8,0:2:0:0:
136,128,117506,5,0,3:2:0:0:
281,208,117613,1,8,0:2:0:0:
43,253,117720,1,0,3:2:0:0:
24,251,117774,1,0,0:2:0:0:
5,249,117828,1,8,0:2:0:0:
237,74,117935,5,4,3:1:0:0:
239,93,117988,1,0,0:2:0:0:
241,112,118042,1,8,0:2:0:0:
32,116,118149,1,0,3:2:0:0:
30,135,118203,1,0,0:2:0:0:
28,154,118256,1,8,0:2:0:0:
353,175,118363,5,0,3:2:0:0:
355,194,118417,1,0,0:2:0:0:
357,213,118470,1,8,0:2:0:0:
148,217,118578,1,0,3:2:0:0:
146,236,118631,1,0,0:2:0:0:
144,255,118685,1,8,0:2:0:0:
256,380,118792,5,4,3:1:0:0:
31,275,118899,1,8,0:2:0:0:
271,202,119006,1,0,3:2:0:0:
269,221,119060,1,0,0:2:0:0:
267,240,119113,1,8,0:2:0:0:
159,357,119220,5,0,3:2:0:0:
384,252,119327,1,8,0:2:0:0:
144,179,119434,1,0,3:2:0:0:
146,198,119488,1,0,0:2:0:0:
148,217,119541,1,8,0:2:0:0:
347,187,119649,6,0,L|340:137,3,36.4285722226513,4|0|8|0,3:1|0:2|0:2|0:2,0:2:0:0:
286,93,119863,2,0,L|279:43,3,36.4285722226513,0|0|8|0,3:2|0:2|0:2|0:2,0:2:0:0:
226,0,120078,1,0,3:2:0:0:
188,13,120131,1,0,0:2:0:0:
164,45,120185,1,8,0:2:0:0:
155,83,120238,1,0,0:2:0:0:
168,121,120292,1,0,3:2:0:0:
181,159,120345,1,0,0:2:0:0:
172,197,120399,1,8,0:2:0:0:
148,229,120453,1,0,0:2:0:0:
110,242,120506,5,4,3:1:0:0:
27,78,120613,1,8,0:2:0:0:
10,298,120721,1,0,3:2:0:0:
8,317,120775,1,0,0:2:0:0:
6,336,120828,1,8,0:2:0:0:
199,290,120935,5,0,3:2:0:0:
116,126,121042,1,8,0:2:0:0:
99,346,121150,1,0,3:2:0:0:
97,365,121204,1,0,0:2:0:0:
95,384,121257,1,8,0:2:0:0:
310,339,121363,5,4,3:1:0:0:
329,337,121417,1,0,0:2:0:0:
348,335,121470,1,8,0:2:0:0:
500,192,121578,1,0,3:2:0:0:
500,192,121685,1,8,3:2:0:0:
276,260,121792,5,0,3:2:0:0:
295,258,121846,1,0,0:2:0:0:
314,256,121899,1,8,0:2:0:0:
466,113,122007,1,0,3:2:0:0:
466,113,122114,1,8,0:2:0:0:
252,46,122220,5,4,3:1:0:0:
254,65,122274,1,0,0:2:0:0:
256,84,122327,1,8,0:2:0:0:
127,190,122435,1,0,3:2:0:0:
99,25,122542,1,8,0:2:0:0:
332,125,122649,5,4,3:1:0:0:
334,144,122703,1,0,0:2:0:0:
336,163,122756,1,8,0:2:0:0:
207,269,122864,1,0,3:2:0:0:
179,104,122971,1,8,0:2:0:0:
412,204,123078,5,4,3:1:0:0:
414,223,123132,1,0,0:2:0:0:
416,242,123185,1,8,0:2:0:0:
100,180,123292,1,4,3:1:0:0:
98,161,123346,1,0,0:2:0:0:
96,142,123399,1,8,0:2:0:0:
264,24,123507,5,8,0:2:0:0:
305,84,123590,1,8,0:2:0:0:
271,150,123674,1,8,0:2:0:0:
312,210,123757,1,8,0:2:0:0:
278,276,123840,2,0,L|299:339,3,56.6666666666667,8|0|0|0,0:2|0:2|0:2|0:2,0:2:0:0:
367,356,124173,5,0,0:2:0:0:
367,356,124360,1,0,0:2:0:0:
492,314,124548,5,0,0:2:0:0:
492,314,125298,1,0,0:2:0:0:
454,247,125485,1,0,0:2:0:0:
484,176,125673,2,0,L|405:171,1,63.7500024318696,0|0,0:2|0:2,0:2:0:0:
376,108,126048,5,0,0:2:0:0:
376,108,126798,1,2,0:2:0:0:
420,172,126985,1,0,0:2:0:0:
343,177,127173,1,0,0:2:0:0:
274,143,127360,1,0,0:2:0:0:
245,71,127548,5,0,0:2:0:0:
245,71,127923,1,0,0:2:0:0:
245,71,128298,1,0,0:2:0:0:
170,86,128485,1,2,0:2:0:0:
113,137,128673,1,0,0:2:0:0:
84,207,128860,1,2,0:2:0:0:
85,283,129048,5,0,0:2:0:0:
97,286,129423,1,2,0:2:0:0:
109,289,129798,1,2,0:2:0:0:
121,292,130173,1,2,0:2:0:0:
133,295,130548,5,0,0:2:0:0:
133,295,131298,1,0,0:2:0:0:
192,246,131485,1,0,0:2:0:0:
267,258,131673,1,0,0:2:0:0:
267,258,132048,5,0,0:2:0:0:
267,258,132798,1,2,0:2:0:0:
342,270,132986,1,0,0:2:0:0:
401,221,133173,1,2,0:2:0:0:
401,221,133548,5,0,0:2:0:0:
342,270,133735,1,0,0:2:0:0:
267,258,133923,1,0,0:2:0:0:
208,307,134110,1,0,0:2:0:0:
267,258,134298,5,0,0:2:0:0:
208,209,134485,1,0,0:2:0:0:
133,221,134673,1,0,0:2:0:0:
74,172,134860,1,0,0:2:0:0:
133,221,135048,5,0,0:2:0:0:
208,209,135235,1,0,0:2:0:0:
265,157,135423,1,2,0:2:0:0:
287,84,135610,1,0,0:2:0:0:
266,9,135798,1,0,0:2:0:0:
287,84,135985,5,0,0:2:0:0:
304,91,136079,1,0,0:2:0:0:
322,94,136173,1,0,0:2:0:0:
340,95,136266,1,0,0:2:0:0:
359,92,136360,1,0,0:2:0:0:
376,84,136454,1,0,0:2:0:0:
390,72,136548,5,2,0:2:0:0:
457,107,136735,1,0,0:2:0:0:
493,174,136923,1,0,0:2:0:0:
490,250,137110,1,0,0:2:0:0:
430,298,137298,1,2,0:2:0:0:
430,298,137579,1,2,0:2:0:0:
376,244,137766,5,0,0:2:0:0:
363,207,137860,1,2,0:2:0:0:
348,242,137954,1,0,0:2:0:0:
