osu file format v14

[General]
AudioFilename: moko.mp3
AudioLeadIn: 3000
PreviewTime: 56671
Countdown: 0
SampleSet: Normal
StackLeniency: 0.7
Mode: 1
LetterboxInBreaks: 0
WidescreenStoryboard: 0

[Editor]
DistanceSpacing: 1.01
BeatDivisor: 2
GridSize: 32
TimelineZoom: 2.2

[Metadata]
Title:Tsuki made Todoke, Fushi no Kemuri
TitleUnicode:月まで届け、不死の煙
Artist:Nanoka
ArtistUnicode:七日
Creator:JhowM
Version:Extra
Source:東方永夜抄 ~ Imperishable Night.
Tags:fujiwara no mokou moko 藤原妹紅 妹紅 Touhou Project 東方project ZUN th8 Team Shanghai Alice instrumental
BeatmapID:1605964
BeatmapSetID:763774

[Difficulty]
HPDrainRate:5
CircleSize:5
OverallDifficulty:9
ApproachRate:5
SliderMultiplier:1.4
SliderTickRate:1

[Events]
//Background and Video events
0,0,"16713244_p0.jpg",0,240
//Break Periods
//Storyboard Layer 0 (Background)
//Storyboard Layer 1 (Fail)
//Storyboard Layer 2 (Pass)
//Storyboard Layer 3 (Foreground)
Sprite,Foreground,Centre,"a.png",320,240 M,0,0,,320,240
//Storyboard Layer 4 (Overlay)
//Storyboard Sound Samples

[TimingPoints]
137,500,4,1,0,85,1,8
637,500,4,1,0,85,1,0
4137,-95.2380952380952,4,1,0,85,0,0
4387,-90.9090909090909,4,1,0,85,0,0
4637,428.571428571429,4,1,0,85,1,0
5494,375,4,1,0,85,1,8
6244,352.941176470588,4,1,0,85,1,0
6949,333.333333333333,4,1,0,85,1,8
7615,300,4,1,0,85,1,0
10015,292.682926829268,4,1,0,85,1,0
10307,285.714285714286,4,1,0,85,1,8
10592,279.06976744186,4,1,0,85,1,8
10871,272.727272727273,4,1,0,85,1,8
11143,266.666666666667,4,1,0,85,1,0
11409,260.869565217391,4,1,0,85,1,8
11669,255.31914893617,4,1,0,85,1,8
12179,250,4,1,0,85,1,0
18179,300,4,1,0,85,1,0
18179,-83.3333333333333,4,1,0,85,0,0
18779,352.941176470588,4,1,0,85,1,8
18779,-70.9219858156028,4,1,0,85,0,0
19484,428.571428571429,4,1,0,85,1,0
19484,-58.4795321637427,4,1,0,85,0,0
19912,500,4,1,0,85,1,8
19912,-50,4,1,0,85,0,0
20912,428.571428571429,4,1,0,85,1,8
20912,-58.4795321637427,4,1,0,85,0,0
21340,300,4,1,0,85,1,0
21340,-83.3333333333333,4,1,0,85,0,0
30940,272.727272727273,4,1,0,85,1,0
30940,-91.743119266055,4,1,0,85,0,0
39667,250,4,1,0,85,1,0
47667,-96,4,1,0,85,0,0
48667,-94.1176470588235,4,1,0,85,0,0
49667,230.769230769231,4,1,0,85,1,0
50590,-98.1132075471698,4,1,0,85,0,0
51513,-96.2962962962963,4,1,0,85,0,0
52436,-94.5454545454545,4,1,0,85,0,0
53359,214.285714285714,4,1,0,85,1,0
55073,500,4,1,0,85,1,0
55073,-42.8571428571429,4,1,0,85,0,0
55573,428.571428571429,4,1,0,85,1,8
55573,-58.4795321637427,4,1,0,85,0,0
56001,375,4,1,0,85,1,8
56001,-66.6666666666667,4,1,0,85,0,0
56376,333.333333333333,4,1,0,85,1,8
56376,-75.187969924812,4,1,0,85,0,0
56709,300,4,1,0,85,1,0
56709,-83.3333333333333,4,1,0,85,0,0
59109,285.714285714286,4,1,0,85,1,0
59109,-87.719298245614,4,1,0,85,0,0
61394,272.727272727273,4,1,0,85,1,0
61394,-91.743119266055,4,1,0,85,0,0
62484,260.869565217391,4,1,0,85,1,0
62484,-96.1538461538461,4,1,0,85,0,0
63527,250,4,1,0,85,1,0
65527,300,4,1,0,85,1,0
65527,-83.3333333333333,4,1,0,85,0,0
66727,333.333333333333,4,1,0,85,1,0
66727,-75.187969924812,4,1,0,85,0,0
68060,375,4,1,0,85,1,0
68060,-66.6666666666667,4,1,0,85,0,0
69560,333.333333333333,4,1,0,85,1,0
69560,-73.5294117647059,4,1,0,85,0,0
70893,300,4,1,0,85,1,0
70893,-80,4,1,0,85,0,0
71493,285.714285714286,4,1,0,85,1,8
71493,-82.3529411764706,4,1,0,85,0,0
72064,272.727272727273,4,1,0,85,1,0
72064,-84.6153846153846,4,1,0,85,0,0
72609,260.869565217391,4,1,0,85,1,8
72609,-86.7924528301887,4,1,0,85,0,0
73130,250,4,1,0,85,1,0
73130,-88.8888888888889,4,1,0,85,0,0
74130,230.769230769231,4,1,0,85,1,0
74130,-96.2962962962963,4,1,0,85,0,0
74360,214.285714285714,4,1,0,85,1,8
74360,-103.092783505155,4,1,0,85,0,0
74574,200,4,1,0,85,1,8
74574,-107.52688172043,4,1,0,85,0,0
74974,272.727272727273,4,1,0,85,1,0
74974,-78.8530465949821,4,1,0,85,0,0
75042,-91.743119266055,4,1,0,85,0,0
83701,250,4,1,0,85,1,0
91701,300,4,1,0,85,1,0
91701,-83.3333333333333,4,1,0,85,0,0
92901,272.727272727273,4,1,0,85,1,1
92901,-91.743119266055,4,1,0,85,0,1
93173,-100,4,1,0,85,0,1
101628,250,4,1,0,85,1,1
101628,-109.090909090909,4,1,0,85,0,1
101690,-100,4,1,0,85,0,1
109628,230.769230769231,4,1,0,85,1,1
109628,-108.695652173913,4,1,0,85,0,1
109685,-100,4,1,0,85,0,1
117012,214.285714285714,4,1,0,85,1,1
117012,-105.263157894737,4,1,0,85,0,1
120494,-100,4,1,0,85,0,1
123440,333.333333333333,4,1,0,85,1,9
123440,-64.2857142857143,4,1,0,85,0,1
123773,-64.2857142857143,4,1,0,85,0,0
124106,375,4,1,0,85,1,8
124481,375,4,1,0,85,1,0

[HitObjects]
256,192,137,5,0,0:0:0:0:
256,192,387,1,0,0:0:0:0:
256,192,637,1,8,0:0:0:0:
256,192,887,1,8,0:0:0:0:
256,192,1137,1,0,0:0:0:0:
256,192,1387,1,0,0:0:0:0:
256,192,1637,1,8,0:0:0:0:
256,192,1887,1,8,0:0:0:0:
256,192,2137,1,8,0:0:0:0:
256,192,2387,1,0,0:0:0:0:
256,192,2637,1,8,0:0:0:0:
256,192,2887,1,0,0:0:0:0:
256,192,3137,1,0,0:0:0:0:
256,192,3387,1,8,0:0:0:0:
256,192,3887,1,0,0:0:0:0:
256,192,4137,1,8,0:0:0:0:
256,192,4387,1,0,0:0:0:0:
256,192,4637,1,8,0:0:0:0:
256,192,4851,1,8,0:0:0:0:
256,192,5065,1,0,0:0:0:0:
256,192,5279,1,0,0:0:0:0:
256,192,5494,1,8,0:0:0:0:
256,192,5681,1,8,0:0:0:0:
256,192,5869,1,0,0:0:0:0:
256,192,6056,1,0,0:0:0:0:
256,192,6244,1,8,0:0:0:0:
256,192,6420,1,0,0:0:0:0:
256,192,6596,1,0,0:0:0:0:
256,192,6773,1,0,0:0:0:0:
256,192,6949,1,8,0:0:0:0:
256,192,7115,1,0,0:0:0:0:
256,192,7282,1,0,0:0:0:0:
256,192,7448,1,0,0:0:0:0:
256,192,7615,1,8,0:0:0:0:
256,192,7765,1,0,0:0:0:0:
256,192,7915,1,0,0:0:0:0:
256,192,8065,1,0,0:0:0:0:
256,192,8215,1,8,0:0:0:0:
256,192,8365,1,8,0:0:0:0:
256,192,8515,1,8,0:0:0:0:
256,192,8665,1,0,0:0:0:0:
256,192,8815,1,8,0:0:0:0:
256,192,8965,1,0,0:0:0:0:
256,192,9115,1,0,0:0:0:0:
256,192,9265,1,0,0:0:0:0:
256,192,9415,1,8,0:0:0:0:
256,192,9565,1,0,0:0:0:0:
256,192,9715,1,0,0:0:0:0:
256,192,9865,1,0,0:0:0:0:
256,192,10015,1,8,0:0:0:0:
256,192,10161,1,8,0:0:0:0:
256,192,10307,1,0,0:0:0:0:
256,192,10449,1,8,0:0:0:0:
256,192,10592,1,8,0:0:0:0:
256,192,10731,1,8,0:0:0:0:
256,192,10871,1,0,0:0:0:0:
256,192,11007,1,8,0:0:0:0:
256,192,11143,1,8,0:0:0:0:
256,192,11276,1,0,0:0:0:0:
256,192,11409,1,8,0:0:0:0:
256,192,11474,1,0,0:0:0:0:
256,192,11539,1,8,0:0:0:0:
256,192,11669,1,8,0:0:0:0:
256,192,11796,1,8,0:0:0:0:
256,192,11860,1,8,0:0:0:0:
256,192,11924,1,0,0:0:0:0:
256,192,12051,1,8,0:0:0:0:
256,192,12179,1,8,0:0:0:0:
256,192,12241,1,8,0:0:0:0:
256,192,12304,1,0,0:0:0:0:
256,192,12366,1,0,0:0:0:0:
256,192,12429,1,8,0:0:0:0:
256,192,12491,1,8,0:0:0:0:
256,192,12554,1,0,0:0:0:0:
256,192,12616,1,0,0:0:0:0:
256,192,12679,1,8,0:0:0:0:
256,192,12741,1,8,0:0:0:0:
256,192,12804,1,0,0:0:0:0:
256,192,12866,1,0,0:0:0:0:
256,192,12929,1,8,0:0:0:0:
256,192,12991,1,8,0:0:0:0:
256,192,13054,1,0,0:0:0:0:
256,192,13116,1,0,0:0:0:0:
256,192,13179,1,8,0:0:0:0:
256,192,13241,1,0,0:0:0:0:
256,192,13304,1,8,0:0:0:0:
256,192,13366,1,8,0:0:0:0:
256,192,13429,1,0,0:0:0:0:
256,192,13491,1,0,0:0:0:0:
256,192,13554,1,8,0:0:0:0:
256,192,13616,1,0,0:0:0:0:
256,192,13679,1,8,0:0:0:0:
256,192,13741,1,8,0:0:0:0:
256,192,13804,1,0,0:0:0:0:
256,192,13866,1,0,0:0:0:0:
256,192,13929,1,8,0:0:0:0:
256,192,13991,1,8,0:0:0:0:
256,192,14054,1,0,0:0:0:0:
256,192,14116,1,0,0:0:0:0:
256,192,14179,1,8,0:0:0:0:
256,192,14241,1,8,0:0:0:0:
256,192,14304,1,0,0:0:0:0:
256,192,14366,1,0,0:0:0:0:
256,192,14429,1,8,0:0:0:0:
256,192,14491,1,8,0:0:0:0:
256,192,14554,1,0,0:0:0:0:
256,192,14616,1,0,0:0:0:0:
256,192,14679,1,8,0:0:0:0:
256,192,14741,1,8,0:0:0:0:
256,192,14804,1,0,0:0:0:0:
256,192,14866,1,0,0:0:0:0:
256,192,14929,1,8,0:0:0:0:
256,192,14991,1,8,0:0:0:0:
256,192,15054,1,0,0:0:0:0:
256,192,15116,1,0,0:0:0:0:
256,192,15179,1,8,0:0:0:0:
256,192,15241,1,0,0:0:0:0:
256,192,15304,1,8,0:0:0:0:
256,192,15366,1,8,0:0:0:0:
256,192,15429,1,0,0:0:0:0:
256,192,15491,1,0,0:0:0:0:
256,192,15554,1,8,0:0:0:0:
256,192,15616,1,0,0:0:0:0:
256,192,15679,1,8,0:0:0:0:
256,192,15741,1,8,0:0:0:0:
256,192,15804,1,0,0:0:0:0:
256,192,15866,1,0,0:0:0:0:
256,192,15929,1,8,0:0:0:0:
256,192,15991,1,8,0:0:0:0:
256,192,16054,1,0,0:0:0:0:
256,192,16116,1,0,0:0:0:0:
256,192,16179,1,8,0:0:0:0:
256,192,16241,1,8,0:0:0:0:
256,192,16304,1,8,0:0:0:0:
256,192,16366,1,0,0:0:0:0:
256,192,16429,1,8,0:0:0:0:
256,192,16491,1,8,0:0:0:0:
256,192,16554,1,8,0:0:0:0:
256,192,16616,1,0,0:0:0:0:
256,192,16679,1,8,0:0:0:0:
256,192,16741,1,8,0:0:0:0:
256,192,16804,1,8,0:0:0:0:
256,192,16866,1,0,0:0:0:0:
256,192,16929,1,8,0:0:0:0:
256,192,16991,1,8,0:0:0:0:
256,192,17054,1,8,0:0:0:0:
256,192,17116,1,0,0:0:0:0:
256,192,17179,1,8,0:0:0:0:
256,192,17241,1,0,0:0:0:0:
256,192,17304,1,8,0:0:0:0:
256,192,17366,1,8,0:0:0:0:
256,192,17429,1,8,0:0:0:0:
256,192,17491,1,0,0:0:0:0:
256,192,17554,1,8,0:0:0:0:
256,192,17616,1,0,0:0:0:0:
256,192,17679,1,8,0:0:0:0:
256,192,17741,1,8,0:0:0:0:
256,192,17804,1,0,0:0:0:0:
256,192,17866,1,0,0:0:0:0:
256,192,17929,1,8,0:0:0:0:
256,192,17991,1,8,0:0:0:0:
256,192,18054,1,0,0:0:0:0:
256,192,18116,1,0,0:0:0:0:
256,192,18179,1,8,0:0:0:0:
256,192,18254,1,0,0:0:0:0:
256,192,18329,1,8,0:0:0:0:
256,192,18404,1,0,0:0:0:0:
256,192,18479,1,8,0:0:0:0:
256,192,18554,1,8,0:0:0:0:
256,192,18629,1,8,0:0:0:0:
256,192,18704,1,0,0:0:0:0:
256,192,18779,1,8,0:0:0:0:
256,192,18867,1,0,0:0:0:0:
256,192,18955,1,8,0:0:0:0:
256,192,19043,1,0,0:0:0:0:
256,192,19131,1,8,0:0:0:0:
256,192,19220,1,8,0:0:0:0:
256,192,19308,1,8,0:0:0:0:
256,192,19396,1,0,0:0:0:0:
256,192,19484,1,8,0:0:0:0:
256,192,19591,1,0,0:0:0:0:
256,192,19698,1,8,0:0:0:0:
256,192,19805,1,0,0:0:0:0:
256,192,19912,1,8,0:0:0:0:
256,192,20037,1,0,0:0:0:0:
256,192,20162,1,8,0:0:0:0:
256,192,20287,1,8,0:0:0:0:
256,192,20412,1,8,0:0:0:0:
256,192,20537,1,0,0:0:0:0:
256,192,20662,1,8,0:0:0:0:
256,192,20787,1,0,0:0:0:0:
256,192,20912,1,8,0:0:0:0:
256,192,21126,1,8,0:0:0:0:
256,192,21340,1,0,0:0:0:0:
256,192,21490,1,0,0:0:0:0:
256,192,21565,1,0,0:0:0:0:
256,192,21640,1,8,0:0:0:0:
256,192,21790,1,0,0:0:0:0:
256,192,21940,1,0,0:0:0:0:
256,192,22090,1,0,0:0:0:0:
256,192,22240,1,8,0:0:0:0:
256,192,22390,1,0,0:0:0:0:
256,192,22540,1,0,0:0:0:0:
256,192,22690,1,0,0:0:0:0:
256,192,22765,1,0,0:0:0:0:
256,192,22840,1,8,0:0:0:0:
256,192,22990,1,0,0:0:0:0:
256,192,23140,1,0,0:0:0:0:
256,192,23290,1,8,0:0:0:0:
256,192,23365,1,8,0:0:0:0:
256,192,23440,1,8,0:0:0:0:
256,192,23590,1,0,0:0:0:0:
256,192,23740,1,8,0:0:0:0:
256,192,23815,1,0,0:0:0:0:
256,192,23890,1,0,0:0:0:0:
256,192,23965,1,0,0:0:0:0:
256,192,24040,1,8,0:0:0:0:
256,192,24190,1,0,0:0:0:0:
256,192,24340,1,8,0:0:0:0:
256,192,24415,1,0,0:0:0:0:
256,192,24490,1,0,0:0:0:0:
256,192,24565,1,0,0:0:0:0:
256,192,24640,1,8,0:0:0:0:
256,192,24790,1,8,0:0:0:0:
256,192,24865,1,8,0:0:0:0:
256,192,24940,1,0,0:0:0:0:
256,192,25090,1,0,0:0:0:0:
256,192,25240,1,8,0:0:0:0:
256,192,25390,1,0,0:0:0:0:
256,192,25465,1,0,0:0:0:0:
256,192,25540,1,0,0:0:0:0:
256,192,25690,1,8,0:0:0:0:
256,192,25765,1,0,0:0:0:0:
256,192,25840,1,8,0:0:0:0:
256,192,25990,1,0,0:0:0:0:
256,192,26140,1,8,0:0:0:0:
256,192,26290,1,0,0:0:0:0:
256,192,26365,1,0,0:0:0:0:
256,192,26440,1,0,0:0:0:0:
256,192,26590,1,0,0:0:0:0:
256,192,26740,1,8,0:0:0:0:
256,192,26890,1,0,0:0:0:0:
256,192,26965,1,0,0:0:0:0:
256,192,27040,1,8,0:0:0:0:
256,192,27190,1,0,0:0:0:0:
256,192,27340,1,8,0:0:0:0:
256,192,27490,1,8,0:0:0:0:
256,192,27565,1,0,0:0:0:0:
256,192,27640,1,0,0:0:0:0:
256,192,27790,1,0,0:0:0:0:
256,192,27865,1,0,0:0:0:0:
256,192,27940,1,8,0:0:0:0:
256,192,28090,1,8,0:0:0:0:
256,192,28165,1,0,0:0:0:0:
256,192,28240,1,0,0:0:0:0:
256,192,28390,1,0,0:0:0:0:
256,192,28540,1,8,0:0:0:0:
256,192,28690,1,8,0:0:0:0:
256,192,28765,1,8,0:0:0:0:
256,192,28840,1,0,0:0:0:0:
256,192,28990,1,0,0:0:0:0:
256,192,29140,1,8,0:0:0:0:
256,192,29290,1,8,0:0:0:0:
256,192,29365,1,8,0:0:0:0:
256,192,29440,1,0,0:0:0:0:
256,192,29590,1,0,0:0:0:0:
256,192,29740,1,8,0:0:0:0:
256,192,29815,1,8,0:0:0:0:
256,192,29890,1,0,0:0:0:0:
256,192,29965,1,0,0:0:0:0:
256,192,30040,1,8,0:0:0:0:
256,192,30190,1,0,0:0:0:0:
256,192,30265,1,0,0:0:0:0:
256,192,30340,1,8,0:0:0:0:
256,192,30490,1,0,0:0:0:0:
256,192,30565,1,0,0:0:0:0:
256,192,30640,1,0,0:0:0:0:
256,192,30715,1,0,0:0:0:0:
256,192,30790,1,0,0:0:0:0:
256,192,30865,1,0,0:0:0:0:
256,192,30940,1,8,0:0:0:0:
256,192,31076,1,8,0:0:0:0:
256,192,31212,1,0,0:0:0:0:
256,192,31349,1,0,0:0:0:0:
256,192,31417,1,0,0:0:0:0:
256,192,31485,1,8,0:0:0:0:
256,192,31621,1,0,0:0:0:0:
256,192,31690,1,0,0:0:0:0:
256,192,31757,1,8,0:0:0:0:
256,192,31893,1,8,0:0:0:0:
256,192,31962,1,8,0:0:0:0:
256,192,32030,1,0,0:0:0:0:
256,192,32167,1,8,0:0:0:0:
256,192,32303,1,0,0:0:0:0:
256,192,32440,1,8,0:0:0:0:
256,192,32508,1,8,0:0:0:0:
256,192,32576,1,0,0:0:0:0:
256,192,32712,1,8,0:0:0:0:
256,192,32780,1,0,0:0:0:0:
256,192,32849,1,8,0:0:0:0:
256,192,32985,1,0,0:0:0:0:
256,192,33053,1,0,0:0:0:0:
256,192,33121,1,8,0:0:0:0:
256,192,33258,1,0,0:0:0:0:
256,192,33394,1,8,0:0:0:0:
256,192,33530,1,0,0:0:0:0:
256,192,33599,1,0,0:0:0:0:
256,192,33667,1,8,0:0:0:0:
256,192,33803,1,0,0:0:0:0:
256,192,33871,1,0,0:0:0:0:
256,192,33940,1,8,0:0:0:0:
256,192,34076,1,8,0:0:0:0:
256,192,34144,1,8,0:0:0:0:
256,192,34212,1,0,0:0:0:0:
256,192,34349,1,8,0:0:0:0:
256,192,34485,1,0,0:0:0:0:
256,192,34621,1,8,0:0:0:0:
256,192,34690,1,0,0:0:0:0:
256,192,34758,1,0,0:0:0:0:
256,192,34894,1,8,0:0:0:0:
256,192,34962,1,0,0:0:0:0:
256,192,35030,1,0,0:0:0:0:
256,192,35167,1,8,0:0:0:0:
256,192,35235,1,8,0:0:0:0:
256,192,35303,1,0,0:0:0:0:
256,192,35440,1,8,0:0:0:0:
256,192,35576,1,0,0:0:0:0:
256,192,35712,1,8,0:0:0:0:
256,192,35780,1,0,0:0:0:0:
256,192,35849,1,0,0:0:0:0:
256,192,35985,1,8,0:0:0:0:
256,192,36053,1,0,0:0:0:0:
256,192,36121,1,8,0:0:0:0:
256,192,36258,1,8,0:0:0:0:
256,192,36326,1,0,0:0:0:0:
256,192,36394,1,0,0:0:0:0:
256,192,36530,1,8,0:0:0:0:
256,192,36667,1,0,0:0:0:0:
256,192,36803,1,8,0:0:0:0:
256,192,36871,1,0,0:0:0:0:
256,192,36940,1,0,0:0:0:0:
256,192,37076,1,8,0:0:0:0:
256,192,37144,1,0,0:0:0:0:
256,192,37212,1,0,0:0:0:0:
256,192,37349,1,8,0:0:0:0:
256,192,37417,1,8,0:0:0:0:
256,192,37485,1,0,0:0:0:0:
256,192,37621,1,8,0:0:0:0:
256,192,37758,1,0,0:0:0:0:
256,192,37826,1,0,0:0:0:0:
256,192,37894,1,8,0:0:0:0:
256,192,37962,1,8,0:0:0:0:
256,192,38030,1,0,0:0:0:0:
256,192,38167,1,8,0:0:0:0:
256,192,38303,1,0,0:0:0:0:
256,192,38371,1,0,0:0:0:0:
256,192,38440,1,8,0:0:0:0:
256,192,38508,1,8,0:0:0:0:
256,192,38576,1,0,0:0:0:0:
256,192,38712,1,8,0:0:0:0:
256,192,38780,1,8,0:0:0:0:
256,192,38849,1,0,0:0:0:0:
256,192,38985,1,8,0:0:0:0:
256,192,39053,1,0,0:0:0:0:
256,192,39121,1,8,0:0:0:0:
256,192,39258,1,0,0:0:0:0:
256,192,39394,1,0,0:0:0:0:
256,192,39462,1,0,0:0:0:0:
256,192,39530,1,0,0:0:0:0:
256,192,39599,1,0,0:0:0:0:
256,192,39667,1,8,0:0:0:0:
256,192,39729,1,0,0:0:0:0:
256,192,39792,1,0,0:0:0:0:
256,192,39854,1,8,0:0:0:0:
256,192,39917,1,0,0:0:0:0:
256,192,39979,1,0,0:0:0:0:
256,192,40042,1,8,0:0:0:0:
256,192,40104,1,0,0:0:0:0:
256,192,40167,1,8,0:0:0:0:
256,192,40229,1,0,0:0:0:0:
256,192,40292,1,0,0:0:0:0:
256,192,40354,1,0,0:0:0:0:
256,192,40417,1,8,0:0:0:0:
256,192,40479,1,0,0:0:0:0:
256,192,40542,1,0,0:0:0:0:
256,192,40604,1,0,0:0:0:0:
256,192,40667,1,8,0:0:0:0:
256,192,40729,1,0,0:0:0:0:
256,192,40792,1,0,0:0:0:0:
256,192,40854,1,8,0:0:0:0:
256,192,40917,1,0,0:0:0:0:
256,192,40979,1,0,0:0:0:0:
256,192,41042,1,8,0:0:0:0:
256,192,41104,1,0,0:0:0:0:
256,192,41167,1,8,0:0:0:0:
256,192,41229,1,0,0:0:0:0:
256,192,41292,1,8,0:0:0:0:
256,192,41354,1,0,0:0:0:0:
256,192,41417,1,8,0:0:0:0:
256,192,41479,1,0,0:0:0:0:
256,192,41542,1,0,0:0:0:0:
256,192,41604,1,0,0:0:0:0:
256,192,41667,1,8,0:0:0:0:
256,192,41729,1,0,0:0:0:0:
256,192,41792,1,0,0:0:0:0:
256,192,41854,1,8,0:0:0:0:
256,192,41917,1,0,0:0:0:0:
256,192,41979,1,0,0:0:0:0:
256,192,42042,1,8,0:0:0:0:
256,192,42104,1,0,0:0:0:0:
256,192,42167,1,8,0:0:0:0:
256,192,42229,1,0,0:0:0:0:
256,192,42292,1,0,0:0:0:0:
256,192,42354,1,0,0:0:0:0:
256,192,42417,1,8,0:0:0:0:
256,192,42479,1,0,0:0:0:0:
256,192,42542,1,0,0:0:0:0:
256,192,42604,1,0,0:0:0:0:
256,192,42667,1,8,0:0:0:0:
256,192,42729,1,0,0:0:0:0:
256,192,42792,1,0,0:0:0:0:
256,192,42854,1,8,0:0:0:0:
256,192,42917,1,0,0:0:0:0:
256,192,42979,1,0,0:0:0:0:
256,192,43042,1,8,0:0:0:0:
256,192,43104,1,0,0:0:0:0:
256,192,43167,1,8,0:0:0:0:
256,192,43229,1,0,0:0:0:0:
256,192,43292,1,8,0:0:0:0:
256,192,43354,1,0,0:0:0:0:
256,192,43417,1,8,0:0:0:0:
256,192,43479,1,0,0:0:0:0:
256,192,43542,1,0,0:0:0:0:
256,192,43604,1,0,0:0:0:0:
256,192,43667,1,8,0:0:0:0:
256,192,43729,1,0,0:0:0:0:
256,192,43792,1,0,0:0:0:0:
256,192,43854,1,8,0:0:0:0:
256,192,43917,1,0,0:0:0:0:
256,192,43979,1,0,0:0:0:0:
256,192,44042,1,8,0:0:0:0:
256,192,44104,1,0,0:0:0:0:
256,192,44167,1,8,0:0:0:0:
256,192,44229,1,0,0:0:0:0:
256,192,44292,1,0,0:0:0:0:
256,192,44354,1,0,0:0:0:0:
256,192,44417,1,8,0:0:0:0:
256,192,44479,1,0,0:0:0:0:
256,192,44542,1,0,0:0:0:0:
256,192,44604,1,0,0:0:0:0:
256,192,44667,1,8,0:0:0:0:
256,192,44729,1,0,0:0:0:0:
256,192,44792,1,0,0:0:0:0:
256,192,44854,1,8,0:0:0:0:
256,192,44917,1,0,0:0:0:0:
256,192,44979,1,0,0:0:0:0:
256,192,45042,1,8,0:0:0:0:
256,192,45104,1,0,0:0:0:0:
256,192,45167,1,8,0:0:0:0:
256,192,45229,1,0,0:0:0:0:
256,192,45292,1,8,0:0:0:0:
256,192,45354,1,0,0:0:0:0:
256,192,45417,1,8,0:0:0:0:
256,192,45479,1,0,0:0:0:0:
256,192,45542,1,0,0:0:0:0:
256,192,45604,1,0,0:0:0:0:
256,192,45667,1,8,0:0:0:0:
256,192,45729,1,0,0:0:0:0:
256,192,45792,1,0,0:0:0:0:
256,192,45854,1,8,0:0:0:0:
256,192,45917,1,0,0:0:0:0:
256,192,45979,1,0,0:0:0:0:
256,192,46042,1,8,0:0:0:0:
256,192,46104,1,0,0:0:0:0:
256,192,46167,1,8,0:0:0:0:
256,192,46229,1,0,0:0:0:0:
256,192,46292,1,0,0:0:0:0:
256,192,46354,1,0,0:0:0:0:
256,192,46417,1,8,0:0:0:0:
256,192,46479,1,0,0:0:0:0:
256,192,46542,1,0,0:0:0:0:
256,192,46604,1,0,0:0:0:0:
256,192,46667,1,8,0:0:0:0:
256,192,46729,1,0,0:0:0:0:
256,192,46792,1,0,0:0:0:0:
256,192,46854,1,8,0:0:0:0:
256,192,46917,1,0,0:0:0:0:
256,192,46979,1,0,0:0:0:0:
256,192,47042,1,8,0:0:0:0:
256,192,47104,1,0,0:0:0:0:
256,192,47167,1,8,0:0:0:0:
256,192,47229,1,0,0:0:0:0:
256,192,47292,1,8,0:0:0:0:
256,192,47354,1,0,0:0:0:0:
256,192,47417,1,8,0:0:0:0:
256,192,47479,1,0,0:0:0:0:
256,192,47542,1,0,0:0:0:0:
256,192,47604,1,0,0:0:0:0:
256,192,47667,1,8,0:0:0:0:
256,192,47729,1,8,0:0:0:0:
256,192,47792,1,0,0:0:0:0:
256,192,47854,1,8,0:0:0:0:
256,192,47917,1,8,0:0:0:0:
256,192,47979,1,0,0:0:0:0:
256,192,48042,1,8,0:0:0:0:
256,192,48104,1,0,0:0:0:0:
256,192,48167,1,8,0:0:0:0:
256,192,48229,1,8,0:0:0:0:
256,192,48292,1,0,0:0:0:0:
256,192,48354,1,0,0:0:0:0:
256,192,48417,1,8,0:0:0:0:
256,192,48479,1,0,0:0:0:0:
256,192,48542,1,0,0:0:0:0:
256,192,48604,1,0,0:0:0:0:
256,192,48667,1,8,0:0:0:0:
256,192,48729,1,8,0:0:0:0:
256,192,48792,1,0,0:0:0:0:
256,192,48854,1,8,0:0:0:0:
256,192,48917,1,8,0:0:0:0:
256,192,48979,1,0,0:0:0:0:
256,192,49042,1,8,0:0:0:0:
256,192,49104,1,0,0:0:0:0:
256,192,49167,1,8,0:0:0:0:
256,192,49229,1,0,0:0:0:0:
256,192,49292,1,8,0:0:0:0:
256,192,49354,1,0,0:0:0:0:
256,192,49417,1,8,0:0:0:0:
256,192,49479,1,8,0:0:0:0:
256,192,49542,1,0,0:0:0:0:
256,192,49604,1,0,0:0:0:0:
256,192,49667,1,8,0:0:0:0:
256,192,49724,1,8,0:0:0:0:
256,192,49782,1,0,0:0:0:0:
256,192,49840,1,8,0:0:0:0:
256,192,49897,1,8,0:0:0:0:
256,192,49955,1,0,0:0:0:0:
256,192,50013,1,8,0:0:0:0:
256,192,50070,1,0,0:0:0:0:
256,192,50128,1,8,0:0:0:0:
256,192,50186,1,8,0:0:0:0:
256,192,50243,1,0,0:0:0:0:
256,192,50301,1,0,0:0:0:0:
256,192,50359,1,8,0:0:0:0:
256,192,50417,1,8,0:0:0:0:
256,192,50474,1,0,0:0:0:0:
256,192,50532,1,0,0:0:0:0:
256,192,50590,1,8,0:0:0:0:
256,192,50647,1,8,0:0:0:0:
256,192,50705,1,0,0:0:0:0:
256,192,50763,1,8,0:0:0:0:
256,192,50820,1,8,0:0:0:0:
256,192,50878,1,0,0:0:0:0:
256,192,50936,1,8,0:0:0:0:
256,192,50993,1,0,0:0:0:0:
256,192,51051,1,8,0:0:0:0:
256,192,51109,1,0,0:0:0:0:
256,192,51167,1,8,0:0:0:0:
256,192,51224,1,0,0:0:0:0:
256,192,51282,1,8,0:0:0:0:
256,192,51340,1,8,0:0:0:0:
256,192,51397,1,0,0:0:0:0:
256,192,51455,1,0,0:0:0:0:
256,192,51513,1,8,0:0:0:0:
256,192,51570,1,8,0:0:0:0:
256,192,51628,1,0,0:0:0:0:
256,192,51686,1,8,0:0:0:0:
256,192,51743,1,8,0:0:0:0:
256,192,51801,1,0,0:0:0:0:
256,192,51859,1,8,0:0:0:0:
256,192,51917,1,0,0:0:0:0:
256,192,51974,1,8,0:0:0:0:
256,192,52032,1,8,0:0:0:0:
256,192,52090,1,8,0:0:0:0:
256,192,52147,1,0,0:0:0:0:
256,192,52205,1,8,0:0:0:0:
256,192,52263,1,8,0:0:0:0:
256,192,52320,1,8,0:0:0:0:
256,192,52378,1,0,0:0:0:0:
256,192,52436,1,8,0:0:0:0:
256,192,52493,1,8,0:0:0:0:
256,192,52551,1,0,0:0:0:0:
256,192,52609,1,8,0:0:0:0:
256,192,52667,1,8,0:0:0:0:
256,192,52724,1,0,0:0:0:0:
256,192,52782,1,8,0:0:0:0:
256,192,52840,1,0,0:0:0:0:
256,192,52897,1,8,0:0:0:0:
256,192,52955,1,0,0:0:0:0:
256,192,53013,1,8,0:0:0:0:
256,192,53070,1,0,0:0:0:0:
256,192,53128,1,8,0:0:0:0:
256,192,53186,1,8,0:0:0:0:
256,192,53243,1,8,0:0:0:0:
256,192,53301,1,0,0:0:0:0:
256,192,53359,1,8,0:0:0:0:
256,192,53412,1,8,0:0:0:0:
256,192,53466,1,0,0:0:0:0:
256,192,53519,1,8,0:0:0:0:
256,192,53573,1,8,0:0:0:0:
256,192,53626,1,0,0:0:0:0:
256,192,53680,1,8,0:0:0:0:
256,192,53734,1,0,0:0:0:0:
256,192,53787,1,8,0:0:0:0:
256,192,53841,1,8,0:0:0:0:
256,192,53894,1,8,0:0:0:0:
256,192,53948,1,0,0:0:0:0:
256,192,54001,1,8,0:0:0:0:
256,192,54055,1,8,0:0:0:0:
256,192,54109,1,8,0:0:0:0:
256,192,54162,1,0,0:0:0:0:
256,192,54216,1,8,0:0:0:0:
256,192,54269,1,8,0:0:0:0:
256,192,54323,1,0,0:0:0:0:
256,192,54376,1,8,0:0:0:0:
256,192,54430,1,8,0:0:0:0:
256,192,54484,1,0,0:0:0:0:
256,192,54537,1,8,0:0:0:0:
256,192,54591,1,0,0:0:0:0:
256,192,54644,1,8,0:0:0:0:
256,192,54698,1,0,0:0:0:0:
256,192,54751,1,8,0:0:0:0:
256,192,54805,1,0,0:0:0:0:
256,192,54859,1,8,0:0:0:0:
256,192,54912,1,8,0:0:0:0:
256,192,54966,1,8,0:0:0:0:
256,192,55019,1,0,0:0:0:0:
256,192,55073,1,8,0:0:0:0:
256,192,55787,1,8,0:0:0:0:
256,192,56188,1,0,0:0:0:0:
256,192,56282,1,0,0:0:0:0:
256,192,56376,1,8,0:0:0:0:
256,192,56542,1,8,0:0:0:0:
256,192,56626,1,8,0:0:0:0:
256,192,56709,1,8,0:0:0:0:
256,192,56784,1,0,0:0:0:0:
256,192,56859,1,8,0:0:0:0:
256,192,56934,1,0,0:0:0:0:
256,192,57009,1,8,0:0:0:0:
256,192,57084,1,0,0:0:0:0:
256,192,57159,1,8,0:0:0:0:
256,192,57234,1,8,0:0:0:0:
256,192,57309,1,8,0:0:0:0:
256,192,57384,1,0,0:0:0:0:
256,192,57459,1,8,0:0:0:0:
256,192,57534,1,0,0:0:0:0:
256,192,57609,1,8,0:0:0:0:
256,192,57684,1,0,0:0:0:0:
256,192,57759,1,8,0:0:0:0:
256,192,57834,1,8,0:0:0:0:
256,192,57909,1,8,0:0:0:0:
256,192,57984,1,0,0:0:0:0:
256,192,58059,1,0,0:0:0:0:
256,192,58134,1,0,0:0:0:0:
256,192,58209,1,8,0:0:0:0:
256,192,58284,1,0,0:0:0:0:
256,192,58359,1,0,0:0:0:0:
256,192,58434,1,0,0:0:0:0:
256,192,58509,1,8,0:0:0:0:
256,192,58584,1,8,0:0:0:0:
256,192,58659,1,0,0:0:0:0:
256,192,58734,1,0,0:0:0:0:
256,192,58809,1,8,0:0:0:0:
256,192,58884,1,8,0:0:0:0:
256,192,58959,1,0,0:0:0:0:
256,192,59034,1,0,0:0:0:0:
256,192,59109,1,8,0:0:0:0:
256,192,59180,1,0,0:0:0:0:
256,192,59251,1,8,0:0:0:0:
256,192,59323,1,0,0:0:0:0:
256,192,59394,1,8,0:0:0:0:
256,192,59466,1,0,0:0:0:0:
256,192,59537,1,8,0:0:0:0:
256,192,59609,1,8,0:0:0:0:
256,192,59680,1,8,0:0:0:0:
256,192,59751,1,0,0:0:0:0:
256,192,59823,1,8,0:0:0:0:
256,192,59894,1,0,0:0:0:0:
256,192,59966,1,8,0:0:0:0:
256,192,60037,1,0,0:0:0:0:
256,192,60109,1,8,0:0:0:0:
256,192,60180,1,8,0:0:0:0:
256,192,60251,1,8,0:0:0:0:
256,192,60323,1,8,0:0:0:0:
256,192,60394,1,0,0:0:0:0:
256,192,60466,1,0,0:0:0:0:
256,192,60537,1,8,0:0:0:0:
256,192,60609,1,8,0:0:0:0:
256,192,60680,1,0,0:0:0:0:
256,192,60751,1,0,0:0:0:0:
256,192,60823,1,8,0:0:0:0:
256,192,60894,1,8,0:0:0:0:
256,192,60966,1,8,0:0:0:0:
256,192,61037,1,0,0:0:0:0:
256,192,61109,1,8,0:0:0:0:
256,192,61180,1,8,0:0:0:0:
256,192,61251,1,8,0:0:0:0:
256,192,61323,1,0,0:0:0:0:
256,192,61394,1,8,0:0:0:0:
256,192,61462,1,0,0:0:0:0:
256,192,61530,1,8,0:0:0:0:
256,192,61598,1,0,0:0:0:0:
256,192,61666,1,8,0:0:0:0:
256,192,61734,1,0,0:0:0:0:
256,192,61803,1,8,0:0:0:0:
256,192,61871,1,8,0:0:0:0:
256,192,61939,1,0,0:0:0:0:
256,192,62007,1,0,0:0:0:0:
256,192,62075,1,8,0:0:0:0:
256,192,62144,1,8,0:0:0:0:
256,192,62212,1,8,0:0:0:0:
256,192,62280,1,0,0:0:0:0:
256,192,62348,1,8,0:0:0:0:
256,192,62416,1,0,0:0:0:0:
256,192,62484,1,8,0:0:0:0:
256,192,62549,1,0,0:0:0:0:
256,192,62614,1,8,0:0:0:0:
256,192,62679,1,0,0:0:0:0:
256,192,62744,1,8,0:0:0:0:
256,192,62810,1,0,0:0:0:0:
256,192,62875,1,8,0:0:0:0:
256,192,62940,1,8,0:0:0:0:
256,192,63005,1,8,0:0:0:0:
256,192,63070,1,0,0:0:0:0:
256,192,63136,1,8,0:0:0:0:
256,192,63201,1,8,0:0:0:0:
256,192,63266,1,8,0:0:0:0:
256,192,63331,1,0,0:0:0:0:
256,192,63397,1,8,0:0:0:0:
256,192,63462,1,8,0:0:0:0:
256,192,63527,1,0,0:0:0:0:
256,192,63589,1,0,0:0:0:0:
256,192,63652,1,0,0:0:0:0:
256,192,63714,1,0,0:0:0:0:
256,192,63777,1,8,0:0:0:0:
256,192,63839,1,8,0:0:0:0:
256,192,63902,1,8,0:0:0:0:
256,192,63964,1,8,0:0:0:0:
256,192,64027,1,0,0:0:0:0:
256,192,64089,1,0,0:0:0:0:
256,192,64152,1,0,0:0:0:0:
256,192,64214,1,0,0:0:0:0:
256,192,64277,1,8,0:0:0:0:
256,192,64339,1,8,0:0:0:0:
256,192,64402,1,8,0:0:0:0:
256,192,64464,1,8,0:0:0:0:
256,192,64527,1,0,0:0:0:0:
256,192,64589,1,0,0:0:0:0:
256,192,64652,1,8,0:0:0:0:
256,192,64714,1,8,0:0:0:0:
256,192,64777,1,0,0:0:0:0:
256,192,64839,1,0,0:0:0:0:
256,192,64902,1,8,0:0:0:0:
256,192,64964,1,8,0:0:0:0:
256,192,65027,1,0,0:0:0:0:
256,192,65089,1,0,0:0:0:0:
256,192,65152,1,8,0:0:0:0:
256,192,65214,1,8,0:0:0:0:
256,192,65277,1,8,0:0:0:0:
256,192,65339,1,0,0:0:0:0:
256,192,65402,1,8,0:0:0:0:
256,192,65464,1,8,0:0:0:0:
256,192,65527,1,8,0:0:0:0:
256,192,65602,1,0,0:0:0:0:
256,192,65677,1,8,0:0:0:0:
256,192,65752,1,0,0:0:0:0:
256,192,65827,1,8,0:0:0:0:
256,192,65902,1,0,0:0:0:0:
256,192,65977,1,8,0:0:0:0:
256,192,66052,1,8,0:0:0:0:
256,192,66127,1,8,0:0:0:0:
256,192,66202,1,0,0:0:0:0:
256,192,66277,1,8,0:0:0:0:
256,192,66352,1,0,0:0:0:0:
256,192,66427,1,8,0:0:0:0:
256,192,66502,1,0,0:0:0:0:
256,192,66577,1,8,0:0:0:0:
256,192,66652,1,8,0:0:0:0:
256,192,66727,1,8,0:0:0:0:
256,192,66810,1,8,0:0:0:0:
256,192,66893,1,0,0:0:0:0:
256,192,66977,1,0,0:0:0:0:
256,192,67060,1,8,0:0:0:0:
256,192,67143,1,8,0:0:0:0:
256,192,67227,1,0,0:0:0:0:
256,192,67310,1,0,0:0:0:0:
256,192,67393,1,8,0:0:0:0:
256,192,67477,1,8,0:0:0:0:
256,192,67560,1,8,0:0:0:0:
256,192,67643,1,0,0:0:0:0:
256,192,67727,1,8,0:0:0:0:
256,192,67810,1,8,0:0:0:0:
256,192,67893,1,8,0:0:0:0:
256,192,67977,1,0,0:0:0:0:
256,192,68060,1,8,0:0:0:0:
256,192,68153,1,0,0:0:0:0:
256,192,68247,1,8,0:0:0:0:
256,192,68341,1,0,0:0:0:0:
256,192,68435,1,8,0:0:0:0:
256,192,68528,1,0,0:0:0:0:
256,192,68622,1,8,0:0:0:0:
256,192,68716,1,8,0:0:0:0:
256,192,68810,1,8,0:0:0:0:
256,192,68903,1,0,0:0:0:0:
256,192,68997,1,8,0:0:0:0:
256,192,69091,1,0,0:0:0:0:
256,192,69185,1,8,0:0:0:0:
256,192,69278,1,0,0:0:0:0:
256,192,69372,1,8,0:0:0:0:
256,192,69466,1,8,0:0:0:0:
256,192,69560,1,8,0:0:0:0:
256,192,69643,1,0,0:0:0:0:
256,192,69726,1,8,0:0:0:0:
256,192,69810,1,0,0:0:0:0:
256,192,69893,1,8,0:0:0:0:
256,192,69976,1,0,0:0:0:0:
256,192,70060,1,8,0:0:0:0:
256,192,70143,1,8,0:0:0:0:
256,192,70226,1,8,0:0:0:0:
256,192,70310,1,0,0:0:0:0:
256,192,70393,1,8,0:0:0:0:
256,192,70476,1,8,0:0:0:0:
256,192,70560,1,8,0:0:0:0:
256,192,70643,1,0,0:0:0:0:
256,192,70726,1,8,0:0:0:0:
256,192,70810,1,0,0:0:0:0:
256,192,70893,1,8,0:0:0:0:
256,192,70968,1,0,0:0:0:0:
256,192,71043,1,8,0:0:0:0:
256,192,71118,1,0,0:0:0:0:
256,192,71193,1,8,0:0:0:0:
256,192,71268,1,0,0:0:0:0:
256,192,71343,1,8,0:0:0:0:
256,192,71418,1,8,0:0:0:0:
256,192,71493,1,8,0:0:0:0:
256,192,71564,1,0,0:0:0:0:
256,192,71635,1,8,0:0:0:0:
256,192,71707,1,8,0:0:0:0:
256,192,71778,1,8,0:0:0:0:
256,192,71850,1,0,0:0:0:0:
256,192,71921,1,8,0:0:0:0:
256,192,71993,1,0,0:0:0:0:
256,192,72064,1,8,0:0:0:0:
256,192,72132,1,8,0:0:0:0:
256,192,72200,1,8,0:0:0:0:
256,192,72268,1,0,0:0:0:0:
256,192,72336,1,8,0:0:0:0:
256,192,72404,1,8,0:0:0:0:
256,192,72473,1,8,0:0:0:0:
256,192,72541,1,0,0:0:0:0:
256,192,72609,1,8,0:0:0:0:
256,192,72674,1,0,0:0:0:0:
256,192,72739,1,8,0:0:0:0:
256,192,72804,1,8,0:0:0:0:
256,192,72869,1,8,0:0:0:0:
256,192,72935,1,0,0:0:0:0:
256,192,73000,1,8,0:0:0:0:
256,192,73065,1,8,0:0:0:0:
256,192,73130,1,0,0:0:0:0:
256,192,73192,1,0,0:0:0:0:
256,192,73255,1,0,0:0:0:0:
256,192,73317,1,0,0:0:0:0:
256,192,73380,1,8,0:0:0:0:
256,192,73442,1,8,0:0:0:0:
256,192,73505,1,8,0:0:0:0:
256,192,73567,1,8,0:0:0:0:
256,192,73630,1,0,0:0:0:0:
256,192,73692,1,0,0:0:0:0:
256,192,73755,1,0,0:0:0:0:
256,192,73817,1,0,0:0:0:0:
256,192,73880,1,8,0:0:0:0:
256,192,73942,1,8,0:0:0:0:
256,192,74005,1,8,0:0:0:0:
256,192,74067,1,8,0:0:0:0:
256,192,74130,1,0,0:0:0:0:
256,192,74187,1,0,0:0:0:0:
256,192,74245,1,8,0:0:0:0:
256,192,74303,1,8,0:0:0:0:
256,192,74360,1,0,0:0:0:0:
256,192,74413,1,0,0:0:0:0:
256,192,74467,1,8,0:0:0:0:
256,192,74520,1,8,0:0:0:0:
256,192,74574,1,0,0:0:0:0:
256,192,74624,1,0,0:0:0:0:
256,192,74674,1,8,0:0:0:0:
256,192,74724,1,0,0:0:0:0:
256,192,74774,1,8,0:0:0:0:
256,192,74824,1,0,0:0:0:0:
256,192,74874,1,8,0:0:0:0:
256,192,74924,1,8,0:0:0:0:
256,192,74974,1,0,0:0:0:0:
256,192,75110,1,8,0:0:0:0:
256,192,75246,1,0,0:0:0:0:
256,192,75383,1,8,0:0:0:0:
256,192,75451,1,8,0:0:0:0:
256,192,75519,1,0,0:0:0:0:
256,192,75655,1,0,0:0:0:0:
256,192,75792,1,8,0:0:0:0:
256,192,75928,1,8,0:0:0:0:
256,192,75996,1,8,0:0:0:0:
256,192,76064,1,0,0:0:0:0:
256,192,76201,1,8,0:0:0:0:
256,192,76337,1,0,0:0:0:0:
256,192,76474,1,8,0:0:0:0:
256,192,76610,1,0,0:0:0:0:
256,192,76746,1,0,0:0:0:0:
256,192,76814,1,0,0:0:0:0:
256,192,76883,1,8,0:0:0:0:
256,192,77019,1,8,0:0:0:0:
256,192,77087,1,0,0:0:0:0:
256,192,77155,1,8,0:0:0:0:
256,192,77292,1,0,0:0:0:0:
256,192,77428,1,8,0:0:0:0:
256,192,77564,1,0,0:0:0:0:
256,192,77633,1,0,0:0:0:0:
256,192,77701,1,8,0:0:0:0:
256,192,77837,1,0,0:0:0:0:
256,192,77974,1,8,0:0:0:0:
256,192,78110,1,8,0:0:0:0:
256,192,78178,1,8,0:0:0:0:
256,192,78246,1,0,0:0:0:0:
256,192,78383,1,8,0:0:0:0:
256,192,78519,1,0,0:0:0:0:
256,192,78655,1,8,0:0:0:0:
256,192,78724,1,0,0:0:0:0:
256,192,78792,1,0,0:0:0:0:
256,192,78928,1,8,0:0:0:0:
256,192,79064,1,0,0:0:0:0:
256,192,79133,1,0,0:0:0:0:
256,192,79201,1,8,0:0:0:0:
256,192,79269,1,8,0:0:0:0:
256,192,79337,1,0,0:0:0:0:
256,192,79474,1,8,0:0:0:0:
256,192,79610,1,0,0:0:0:0:
256,192,79746,1,8,0:0:0:0:
256,192,79814,1,8,0:0:0:0:
256,192,79883,1,0,0:0:0:0:
256,192,80019,1,0,0:0:0:0:
256,192,80155,1,8,0:0:0:0:
256,192,80292,1,0,0:0:0:0:
256,192,80360,1,0,0:0:0:0:
256,192,80428,1,8,0:0:0:0:
256,192,80564,1,8,0:0:0:0:
256,192,80701,1,0,0:0:0:0:
256,192,80837,1,0,0:0:0:0:
256,192,80905,1,0,0:0:0:0:
256,192,80974,1,8,0:0:0:0:
256,192,81110,1,8,0:0:0:0:
256,192,81246,1,0,0:0:0:0:
256,192,81314,1,0,0:0:0:0:
256,192,81383,1,0,0:0:0:0:
256,192,81451,1,0,0:0:0:0:
256,192,81519,1,8,0:0:0:0:
256,192,81655,1,8,0:0:0:0:
256,192,81792,1,0,0:0:0:0:
256,192,81860,1,0,0:0:0:0:
256,192,81928,1,8,0:0:0:0:
256,192,81996,1,8,0:0:0:0:
256,192,82064,1,0,0:0:0:0:
256,192,82201,1,8,0:0:0:0:
256,192,82337,1,0,0:0:0:0:
256,192,82405,1,0,0:0:0:0:
256,192,82474,1,8,0:0:0:0:
256,192,82542,1,0,0:0:0:0:
256,192,82610,1,8,0:0:0:0:
256,192,82746,1,0,0:0:0:0:
256,192,82814,1,0,0:0:0:0:
256,192,82883,1,8,0:0:0:0:
256,192,83019,1,8,0:0:0:0:
256,192,83087,1,0,0:0:0:0:
256,192,83155,1,8,0:0:0:0:
256,192,83292,1,0,0:0:0:0:
256,192,83428,1,8,0:0:0:0:
256,192,83496,1,0,0:0:0:0:
256,192,83564,1,8,0:0:0:0:
256,192,83633,1,0,0:0:0:0:
256,192,83701,1,8,0:0:0:0:
256,192,83763,1,0,0:0:0:0:
256,192,83826,1,8,0:0:0:0:
256,192,83888,1,0,0:0:0:0:
256,192,83951,1,8,0:0:0:0:
256,192,84013,1,8,0:0:0:0:
256,192,84076,1,8,0:0:0:0:
256,192,84138,1,0,0:0:0:0:
256,192,84201,1,8,0:0:0:0:
256,192,84263,1,0,0:0:0:0:
256,192,84326,1,8,0:0:0:0:
256,192,84388,1,0,0:0:0:0:
256,192,84451,1,8,0:0:0:0:
256,192,84513,1,8,0:0:0:0:
256,192,84576,1,8,0:0:0:0:
256,192,84638,1,0,0:0:0:0:
256,192,84701,1,8,0:0:0:0:
256,192,84763,1,8,0:0:0:0:
256,192,84826,1,0,0:0:0:0:
256,192,84888,1,0,0:0:0:0:
256,192,84951,1,8,0:0:0:0:
256,192,85013,1,8,0:0:0:0:
256,192,85076,1,0,0:0:0:0:
256,192,85138,1,0,0:0:0:0:
256,192,85201,1,8,0:0:0:0:
256,192,85263,1,8,0:0:0:0:
256,192,85326,1,8,0:0:0:0:
256,192,85388,1,0,0:0:0:0:
256,192,85451,1,8,0:0:0:0:
256,192,85513,1,8,0:0:0:0:
256,192,85576,1,8,0:0:0:0:
256,192,85638,1,0,0:0:0:0:
256,192,85701,1,8,0:0:0:0:
256,192,85763,1,0,0:0:0:0:
256,192,85826,1,8,0:0:0:0:
256,192,85888,1,0,0:0:0:0:
256,192,85951,1,8,0:0:0:0:
256,192,86013,1,8,0:0:0:0:
256,192,86076,1,8,0:0:0:0:
256,192,86138,1,0,0:0:0:0:
256,192,86201,1,8,0:0:0:0:
256,192,86263,1,0,0:0:0:0:
256,192,86326,1,8,0:0:0:0:
256,192,86388,1,0,0:0:0:0:
256,192,86451,1,8,0:0:0:0:
256,192,86513,1,8,0:0:0:0:
256,192,86576,1,8,0:0:0:0:
256,192,86638,1,0,0:0:0:0:
256,192,86701,1,8,0:0:0:0:
256,192,86763,1,8,0:0:0:0:
256,192,86826,1,0,0:0:0:0:
256,192,86888,1,0,0:0:0:0:
256,192,86951,1,8,0:0:0:0:
256,192,87013,1,8,0:0:0:0:
256,192,87076,1,8,0:0:0:0:
256,192,87138,1,0,0:0:0:0:
256,192,87201,1,8,0:0:0:0:
256,192,87263,1,0,0:0:0:0:
256,192,87326,1,8,0:0:0:0:
256,192,87388,1,0,0:0:0:0:
256,192,87451,1,8,0:0:0:0:
256,192,87513,1,8,0:0:0:0:
256,192,87576,1,8,0:0:0:0:
256,192,87638,1,0,0:0:0:0:
256,192,87701,1,8,0:0:0:0:
256,192,87763,1,0,0:0:0:0:
256,192,87826,1,8,0:0:0:0:
256,192,87888,1,0,0:0:0:0:
256,192,87951,1,8,0:0:0:0:
256,192,88013,1,8,0:0:0:0:
256,192,88076,1,8,0:0:0:0:
256,192,88138,1,0,0:0:0:0:
256,192,88201,1,8,0:0:0:0:
256,192,88263,1,0,0:0:0:0:
256,192,88326,1,8,0:0:0:0:
256,192,88388,1,0,0:0:0:0:
256,192,88451,1,8,0:0:0:0:
256,192,88513,1,8,0:0:0:0:
256,192,88576,1,8,0:0:0:0:
256,192,88638,1,0,0:0:0:0:
256,192,88701,1,8,0:0:0:0:
256,192,88763,1,8,0:0:0:0:
256,192,88826,1,0,0:0:0:0:
256,192,88888,1,0,0:0:0:0:
256,192,88951,1,8,0:0:0:0:
256,192,89013,1,8,0:0:0:0:
256,192,89076,1,0,0:0:0:0:
256,192,89138,1,0,0:0:0:0:
256,192,89201,1,8,0:0:0:0:
256,192,89263,1,8,0:0:0:0:
256,192,89326,1,8,0:0:0:0:
256,192,89388,1,0,0:0:0:0:
256,192,89451,1,8,0:0:0:0:
256,192,89513,1,8,0:0:0:0:
256,192,89576,1,8,0:0:0:0:
256,192,89638,1,0,0:0:0:0:
256,192,89701,1,8,0:0:0:0:
256,192,89763,1,0,0:0:0:0:
256,192,89826,1,8,0:0:0:0:
256,192,89888,1,0,0:0:0:0:
256,192,89951,1,8,0:0:0:0:
256,192,90013,1,8,0:0:0:0:
256,192,90076,1,8,0:0:0:0:
256,192,90138,1,0,0:0:0:0:
256,192,90201,1,8,0:0:0:0:
256,192,90263,1,0,0:0:0:0:
256,192,90326,1,8,0:0:0:0:
256,192,90388,1,0,0:0:0:0:
256,192,90451,1,8,0:0:0:0:
256,192,90513,1,8,0:0:0:0:
256,192,90576,1,8,0:0:0:0:
256,192,90638,1,0,0:0:0:0:
256,192,90701,1,8,0:0:0:0:
256,192,90763,1,8,0:0:0:0:
256,192,90826,1,0,0:0:0:0:
256,192,90888,1,0,0:0:0:0:
256,192,90951,1,8,0:0:0:0:
256,192,91013,1,8,0:0:0:0:
256,192,91076,1,0,0:0:0:0:
256,192,91138,1,0,0:0:0:0:
256,192,91201,1,8,0:0:0:0:
256,192,91263,1,8,0:0:0:0:
256,192,91326,1,8,0:0:0:0:
256,192,91388,1,8,0:0:0:0:
256,192,91451,1,8,0:0:0:0:
256,192,91513,1,8,0:0:0:0:
256,192,91576,1,8,0:0:0:0:
256,192,91638,1,8,0:0:0:0:
256,192,91701,1,8,0:0:0:0:
256,192,91851,1,0,0:0:0:0:
256,192,92001,1,8,0:0:0:0:
256,192,92076,1,0,0:0:0:0:
256,192,92151,1,0,0:0:0:0:
256,192,92226,1,8,0:0:0:0:
256,192,92301,1,0,0:0:0:0:
256,192,92376,1,0,0:0:0:0:
256,192,92451,1,8,0:0:0:0:
256,192,92526,1,0,0:0:0:0:
256,192,92601,1,8,0:0:0:0:
256,192,92676,1,8,0:0:0:0:
256,192,92751,1,8,0:0:0:0:
256,192,92826,1,8,0:0:0:0:
256,192,92901,1,0,0:0:0:0:
256,192,93173,1,8,0:0:0:0:
256,192,93446,1,0,0:0:0:0:
256,192,93514,1,0,0:0:0:0:
256,192,93582,1,0,0:0:0:0:
256,192,93719,1,8,0:0:0:0:
256,192,93991,1,0,0:0:0:0:
256,192,94264,1,8,0:0:0:0:
256,192,94537,1,0,0:0:0:0:
256,192,94673,1,0,0:0:0:0:
256,192,94741,1,0,0:0:0:0:
256,192,94809,1,8,0:0:0:0:
256,192,94945,1,8,0:0:0:0:
256,192,95082,1,8,0:0:0:0:
256,192,95355,1,0,0:0:0:0:
256,192,95628,1,8,0:0:0:0:
256,192,95901,1,8,0:0:0:0:
256,192,96173,1,0,0:0:0:0:
256,192,96446,1,8,0:0:0:0:
256,192,96719,1,0,0:0:0:0:
256,192,96855,1,0,0:0:0:0:
256,192,96923,1,0,0:0:0:0:
256,192,96991,1,8,0:0:0:0:
256,192,97128,1,8,0:0:0:0:
256,192,97264,1,0,0:0:0:0:
256,192,97537,1,8,0:0:0:0:
256,192,97810,1,0,0:0:0:0:
256,192,97878,1,0,0:0:0:0:
256,192,97946,1,0,0:0:0:0:
256,192,98082,1,8,0:0:0:0:
256,192,98355,1,0,0:0:0:0:
256,192,98628,1,8,0:0:0:0:
256,192,98901,1,0,0:0:0:0:
256,192,99173,1,8,0:0:0:0:
256,192,99446,1,0,0:0:0:0:
256,192,99514,1,0,0:0:0:0:
256,192,99582,1,8,0:0:0:0:
256,192,99719,1,0,0:0:0:0:
256,192,99855,1,8,0:0:0:0:
256,192,99992,1,8,0:0:0:0:
256,192,100060,1,0,0:0:0:0:
256,192,100128,1,8,0:0:0:0:
256,192,100264,1,0,0:0:0:0:
256,192,100401,1,8,0:0:0:0:
256,192,100537,1,0,0:0:0:0:
256,192,100605,1,0,0:0:0:0:
256,192,100673,1,8,0:0:0:0:
256,192,100810,1,0,0:0:0:0:
256,192,100878,1,0,0:0:0:0:
256,192,100946,1,8,0:0:0:0:
256,192,101014,1,0,0:0:0:0:
256,192,101082,1,8,0:0:0:0:
256,192,101219,1,8,0:0:0:0:
256,192,101355,1,0,0:0:0:0:
256,192,101491,1,8,0:0:0:0:
256,192,101560,1,8,0:0:0:0:
256,192,101628,1,0,0:0:0:0:
256,192,101753,1,8,0:0:0:0:
256,192,101878,1,0,0:0:0:0:
256,192,102003,1,8,0:0:0:0:
256,192,102065,1,8,0:0:0:0:
256,192,102128,1,0,0:0:0:0:
256,192,102253,1,0,0:0:0:0:
256,192,102378,1,8,0:0:0:0:
256,192,102440,1,8,0:0:0:0:
256,192,102503,1,8,0:0:0:0:
256,192,102565,1,8,0:0:0:0:
256,192,102628,1,0,0:0:0:0:
256,192,102753,1,8,0:0:0:0:
256,192,102878,1,0,0:0:0:0:
256,192,103003,1,8,0:0:0:0:
256,192,103065,1,0,0:0:0:0:
256,192,103128,1,0,0:0:0:0:
256,192,103253,1,8,0:0:0:0:
256,192,103315,1,0,0:0:0:0:
256,192,103378,1,8,0:0:0:0:
256,192,103503,1,0,0:0:0:0:
256,192,103628,1,8,0:0:0:0:
256,192,103690,1,8,0:0:0:0:
256,192,103753,1,8,0:0:0:0:
256,192,103815,1,8,0:0:0:0:
256,192,103878,1,0,0:0:0:0:
256,192,104003,1,0,0:0:0:0:
256,192,104128,1,8,0:0:0:0:
256,192,104190,1,8,0:0:0:0:
256,192,104253,1,8,0:0:0:0:
256,192,104315,1,0,0:0:0:0:
256,192,104378,1,8,0:0:0:0:
256,192,104503,1,0,0:0:0:0:
256,192,104565,1,0,0:0:0:0:
256,192,104628,1,8,0:0:0:0:
256,192,104753,1,0,0:0:0:0:
256,192,104878,1,8,0:0:0:0:
256,192,105003,1,0,0:0:0:0:
256,192,105065,1,0,0:0:0:0:
256,192,105128,1,8,0:0:0:0:
256,192,105253,1,0,0:0:0:0:
256,192,105378,1,8,0:0:0:0:
256,192,105440,1,8,0:0:0:0:
256,192,105503,1,0,0:0:0:0:
256,192,105565,1,0,0:0:0:0:
256,192,105628,1,8,0:0:0:0:
256,192,105753,1,8,0:0:0:0:
256,192,105878,1,0,0:0:0:0:
256,192,106003,1,0,0:0:0:0:
256,192,106065,1,0,0:0:0:0:
256,192,106128,1,8,0:0:0:0:
256,192,106253,1,0,0:0:0:0:
256,192,106378,1,8,0:0:0:0:
256,192,106440,1,8,0:0:0:0:
256,192,106503,1,0,0:0:0:0:
256,192,106565,1,0,0:0:0:0:
256,192,106628,1,8,0:0:0:0:
256,192,106753,1,8,0:0:0:0:
256,192,106878,1,0,0:0:0:0:
256,192,107003,1,0,0:0:0:0:
256,192,107065,1,0,0:0:0:0:
256,192,107128,1,8,0:0:0:0:
256,192,107253,1,8,0:0:0:0:
256,192,107378,1,0,0:0:0:0:
256,192,107503,1,0,0:0:0:0:
256,192,107565,1,0,0:0:0:0:
256,192,107628,1,8,0:0:0:0:
256,192,107753,1,0,0:0:0:0:
256,192,107878,1,8,0:0:0:0:
256,192,107940,1,0,0:0:0:0:
256,192,108003,1,8,0:0:0:0:
256,192,108065,1,8,0:0:0:0:
256,192,108128,1,0,0:0:0:0:
256,192,108253,1,8,0:0:0:0:
256,192,108378,1,0,0:0:0:0:
256,192,108440,1,0,0:0:0:0:
256,192,108503,1,8,0:0:0:0:
256,192,108565,1,8,0:0:0:0:
256,192,108628,1,0,0:0:0:0:
256,192,108753,1,8,0:0:0:0:
256,192,108815,1,8,0:0:0:0:
256,192,108878,1,0,0:0:0:0:
256,192,108940,1,0,0:0:0:0:
256,192,109003,1,8,0:0:0:0:
256,192,109065,1,0,0:0:0:0:
256,192,109128,1,8,0:0:0:0:
256,192,109253,1,0,0:0:0:0:
256,192,109315,1,0,0:0:0:0:
256,192,109378,1,0,0:0:0:0:
256,192,109440,1,0,0:0:0:0:
256,192,109503,1,0,0:0:0:0:
256,192,109565,1,0,0:0:0:0:
256,192,109628,1,8,0:0:0:0:
256,192,109743,1,0,0:0:0:0:
256,192,109858,1,8,0:0:0:0:
256,192,109974,1,0,0:0:0:0:
256,192,110031,1,0,0:0:0:0:
256,192,110089,1,8,0:0:0:0:
256,192,110204,1,0,0:0:0:0:
256,192,110320,1,8,0:0:0:0:
256,192,110435,1,0,0:0:0:0:
256,192,110493,1,0,0:0:0:0:
256,192,110551,1,8,0:0:0:0:
256,192,110666,1,8,0:0:0:0:
256,192,110781,1,0,0:0:0:0:
256,192,110897,1,0,0:0:0:0:
256,192,110954,1,0,0:0:0:0:
256,192,111012,1,8,0:0:0:0:
256,192,111128,1,8,0:0:0:0:
256,192,111185,1,0,0:0:0:0:
256,192,111243,1,8,0:0:0:0:
256,192,111358,1,0,0:0:0:0:
256,192,111416,1,0,0:0:0:0:
256,192,111474,1,8,0:0:0:0:
256,192,111589,1,0,0:0:0:0:
256,192,111704,1,8,0:0:0:0:
256,192,111762,1,8,0:0:0:0:
256,192,111820,1,0,0:0:0:0:
256,192,111878,1,0,0:0:0:0:
256,192,111935,1,8,0:0:0:0:
256,192,112051,1,0,0:0:0:0:
256,192,112166,1,8,0:0:0:0:
256,192,112224,1,8,0:0:0:0:
256,192,112281,1,8,0:0:0:0:
256,192,112339,1,0,0:0:0:0:
256,192,112397,1,8,0:0:0:0:
256,192,112512,1,8,0:0:0:0:
256,192,112628,1,0,0:0:0:0:
256,192,112743,1,0,0:0:0:0:
256,192,112801,1,0,0:0:0:0:
256,192,112858,1,8,0:0:0:0:
256,192,112974,1,0,0:0:0:0:
256,192,113089,1,8,0:0:0:0:
256,192,113147,1,8,0:0:0:0:
256,192,113204,1,0,0:0:0:0:
256,192,113262,1,0,0:0:0:0:
256,192,113320,1,8,0:0:0:0:
256,192,113435,1,0,0:0:0:0:
256,192,113551,1,8,0:0:0:0:
256,192,113666,1,0,0:0:0:0:
256,192,113724,1,0,0:0:0:0:
256,192,113781,1,8,0:0:0:0:
256,192,113897,1,0,0:0:0:0:
256,192,114012,1,8,0:0:0:0:
256,192,114128,1,0,0:0:0:0:
256,192,114185,1,0,0:0:0:0:
256,192,114243,1,8,0:0:0:0:
256,192,114358,1,8,0:0:0:0:
256,192,114474,1,0,0:0:0:0:
256,192,114589,1,0,0:0:0:0:
256,192,114647,1,0,0:0:0:0:
256,192,114704,1,8,0:0:0:0:
256,192,114820,1,8,0:0:0:0:
256,192,114935,1,0,0:0:0:0:
256,192,115051,1,0,0:0:0:0:
256,192,115166,1,8,0:0:0:0:
256,192,115224,1,0,0:0:0:0:
256,192,115281,1,8,0:0:0:0:
256,192,115339,1,8,0:0:0:0:
256,192,115397,1,0,0:0:0:0:
256,192,115512,1,8,0:0:0:0:
256,192,115628,1,0,0:0:0:0:
256,192,115685,1,0,0:0:0:0:
256,192,115743,1,8,0:0:0:0:
256,192,115801,1,8,0:0:0:0:
256,192,115858,1,0,0:0:0:0:
256,192,115974,1,8,0:0:0:0:
256,192,116089,1,0,0:0:0:0:
256,192,116147,1,0,0:0:0:0:
256,192,116204,1,8,0:0:0:0:
256,192,116262,1,8,0:0:0:0:
256,192,116320,1,0,0:0:0:0:
256,192,116378,1,0,0:0:0:0:
256,192,116435,1,8,0:0:0:0:
256,192,116493,1,8,0:0:0:0:
256,192,116551,1,8,0:0:0:0:
256,192,116666,1,0,0:0:0:0:
256,192,116781,1,0,0:0:0:0:
256,192,116839,1,0,0:0:0:0:
256,192,116897,1,0,0:0:0:0:
256,192,116954,1,0,0:0:0:0:
256,192,117012,1,8,0:0:0:0:
256,192,117119,1,0,0:0:0:0:
256,192,117226,1,8,0:0:0:0:
256,192,117333,1,0,0:0:0:0:
256,192,117387,1,0,0:0:0:0:
256,192,117440,1,8,0:0:0:0:
256,192,117547,1,0,0:0:0:0:
256,192,117654,1,8,0:0:0:0:
256,192,117708,1,8,0:0:0:0:
256,192,117762,1,0,0:0:0:0:
256,192,117815,1,0,0:0:0:0:
256,192,117869,1,8,0:0:0:0:
256,192,117976,1,0,0:0:0:0:
256,192,118083,1,8,0:0:0:0:
256,192,118190,1,0,0:0:0:0:
256,192,118244,1,0,0:0:0:0:
256,192,118297,1,8,0:0:0:0:
256,192,118404,1,0,0:0:0:0:
256,192,118512,1,8,0:0:0:0:
256,192,118565,1,0,0:0:0:0:
256,192,118619,1,0,0:0:0:0:
256,192,118672,1,0,0:0:0:0:
256,192,118726,1,8,0:0:0:0:
256,192,118833,1,0,0:0:0:0:
256,192,118940,1,8,0:0:0:0:
256,192,118994,1,8,0:0:0:0:
256,192,119047,1,0,0:0:0:0:
256,192,119101,1,0,0:0:0:0:
256,192,119154,1,8,0:0:0:0:
256,192,119262,1,0,0:0:0:0:
256,192,119369,1,8,0:0:0:0:
256,192,119422,1,8,0:0:0:0:
256,192,119476,1,8,0:0:0:0:
256,192,119529,1,0,0:0:0:0:
256,192,119583,1,8,0:0:0:0:
256,192,119690,1,0,0:0:0:0:
256,192,119797,1,8,0:0:0:0:
256,192,119904,1,0,0:0:0:0:
256,192,119958,1,0,0:0:0:0:
256,192,120012,1,8,0:0:0:0:
256,192,120119,1,0,0:0:0:0:
256,192,120226,1,8,0:0:0:0:
256,192,120333,1,0,0:0:0:0:
256,192,120387,1,0,0:0:0:0:
256,192,120440,1,8,0:0:0:0:
256,192,120547,1,0,0:0:0:0:
256,192,120654,1,8,0:0:0:0:
256,192,120762,1,0,0:0:0:0:
256,192,120815,1,0,0:0:0:0:
256,192,120869,1,8,0:0:0:0:
256,192,120976,1,0,0:0:0:0:
256,192,121083,1,8,0:0:0:0:
256,192,121137,1,8,0:0:0:0:
256,192,121190,1,0,0:0:0:0:
256,192,121244,1,0,0:0:0:0:
256,192,121297,1,8,0:0:0:0:
256,192,121404,1,0,0:0:0:0:
256,192,121512,1,8,0:0:0:0:
256,192,121619,1,0,0:0:0:0:
256,192,121672,1,0,0:0:0:0:
256,192,121726,1,8,0:0:0:0:
256,192,121833,1,0,0:0:0:0:
256,192,121940,1,8,0:0:0:0:
256,192,122047,1,0,0:0:0:0:
256,192,122154,1,8,0:0:0:0:
256,192,122208,1,0,0:0:0:0:
256,192,122262,1,8,0:0:0:0:
256,192,122315,1,8,0:0:0:0:
256,192,122369,1,0,0:0:0:0:
256,192,122422,1,0,0:0:0:0:
256,192,122476,1,8,0:0:0:0:
256,192,122529,1,0,0:0:0:0:
256,192,122583,1,8,0:0:0:0:
256,192,122637,1,8,0:0:0:0:
256,192,122690,1,8,0:0:0:0:
256,192,122744,1,0,0:0:0:0:
256,192,122797,1,8,0:0:0:0:
256,192,122851,1,0,0:0:0:0:
256,192,122904,1,8,0:0:0:0:
256,192,122958,1,8,0:0:0:0:
256,192,123011,1,0,0:0:0:0:
256,192,123065,1,0,0:0:0:0:
256,192,123119,1,8,0:0:0:0:
256,192,123172,1,8,0:0:0:0:
256,192,123226,1,0,0:0:0:0:
256,192,123279,1,0,0:0:0:0:
256,192,123333,1,8,0:0:0:0:
256,192,123386,1,8,0:0:0:0:
256,192,123440,1,8,0:0:0:0:
256,192,124106,1,0,0:0:0:0:
256,192,124293,1,0,0:0:0:0:
256,192,124481,1,8,0:0:0:0:
256,192,125231,1,0,0:0:0:0:
256,192,125418,1,8,0:0:0:0:
256,192,125606,1,8,0:0:0:0:
256,192,125981,1,0,0:0:0:0:
256,192,126918,1,0,0:0:0:0:
256,192,127106,1,8,0:0:0:0:
256,192,127293,1,8,0:0:0:0:
256,192,127481,1,8,0:0:0:0:
256,192,127856,1,0,0:0:0:0:
256,192,128231,1,8,0:0:0:0:
256,192,128606,1,8,0:0:0:0:
256,192,128981,1,0,0:0:0:0:
256,192,130481,1,8,0:0:0:0:
256,192,131231,1,0,0:0:0:0:
256,192,131418,1,0,0:0:0:0:
256,192,131606,1,8,0:0:0:0:
256,192,131981,1,8,0:0:0:0:
256,192,132731,1,0,0:0:0:0:
256,192,133481,1,0,0:0:0:0:
256,192,133668,1,0,0:0:0:0:
256,192,133856,1,8,0:0:0:0:
256,192,134043,1,8,0:0:0:0:
256,192,134231,1,8,0:0:0:0:
256,192,134418,1,0,0:0:0:0:
256,192,134606,1,8,0:0:0:0:
256,192,134793,1,0,0:0:0:0:
256,192,134981,1,8,0:0:0:0:
256,192,135168,1,8,0:0:0:0:
256,192,135356,1,0,0:0:0:0:
256,192,135543,1,8,0:0:0:0:
256,192,135731,1,8,0:0:0:0:
256,192,135918,1,0,0:0:0:0:
256,192,136012,1,8,0:0:0:0:
256,192,136199,1,0,0:0:0:0:
256,192,136293,1,8,0:0:0:0:
256,192,136387,1,8,0:0:0:0:
256,192,136481,1,0,0:0:0:0:
256,192,136668,1,0,0:0:0:0:
256,192,136856,1,8,0:0:0:0:
256,192,137043,1,8,0:0:0:0:
256,192,137231,1,8,0:0:0:0:
256,192,137418,1,0,0:0:0:0:
256,192,137512,1,8,0:0:0:0:
256,192,137699,1,0,0:0:0:0:
256,192,137793,1,8,0:0:0:0:
256,192,137887,1,0,0:0:0:0:
