osu file format v14

[General]
AudioFilename: audio.mp3
AudioLeadIn: 0
PreviewTime: -1
Countdown: 1
SampleSet: Normal
StackLeniency: 0.5
Mode: 0
LetterboxInBreaks: 0
WidescreenStoryboard: 0

[Editor]
DistanceSpacing: 1.5
BeatDivisor: 4
GridSize: 32
TimelineZoom: 2

[Metadata]
Title:Rainbow Road (Speed up ver.)
TitleUnicode:Rainbow Road (Speed up ver.)
Artist:Nanobii
ArtistUnicode:Nanobii
Creator:Zyronox
Version:Iridescent
Source:
Tags:Jump Training Stream Hard Spaced Nanobii
BeatmapID:1989157
BeatmapSetID:937785

[Difficulty]
HPDrainRate:7
CircleSize:4
OverallDifficulty:9
ApproachRate:10
SliderMultiplier:0.800000005960464
SliderTickRate:1

[Events]
//Background and Video events
0,0,"c7c71f540d09b69783a691c147f78795.jpg",0,0
//Break Periods
2,69239,79666
//Storyboard Layer 0 (Background)
//Storyboard Layer 1 (Fail)
//Storyboard Layer 2 (Pass)
//Storyboard Layer 3 (Foreground)
//Storyboard Layer 4 (Overlay)
//Storyboard Sound Samples

[TimingPoints]
-191,307.692307692308,4,2,0,40,1,0
0,-200,4,2,0,40,0,0
7340,-133.333333333333,4,2,0,40,0,0
9823,-90.9090909090909,4,2,0,50,0,0
10116,-83.3333333333333,4,2,0,5,0,0
10270,-83.3333333333333,4,2,0,50,0,0
10424,-83.3333333333333,4,2,0,5,0,0
10515,-76.9230769230769,4,2,0,50,0,0
10732,-76.9230769230769,4,2,0,5,0,0
10850,-71.4285714285714,4,2,0,50,0,0
11347,-71.4285714285714,4,2,0,5,0,0
11438,-62.5,4,2,0,50,0,0
11655,-62.5,4,2,0,5,0,0
11746,-58.8235294117647,4,2,0,50,0,0
11962,-58.8235294117647,4,2,0,5,0,0
12053,-55.5555555555556,4,2,0,50,0,0
12578,-55.5555555555556,4,2,0,5,0,0
12732,-55.5555555555556,4,2,0,50,0,0
12885,-55.5555555555556,4,2,0,5,0,0
12970,-55.5555555555556,4,2,0,50,0,0
13193,-55.5555555555556,4,2,0,5,0,0
13340,-100,4,2,0,50,0,0
14501,-100,4,2,0,5,0,0
14823,-50,4,2,0,50,0,0
15039,-50,4,2,0,5,0,0
15193,-50,4,2,0,50,0,0
15347,-50,4,2,0,5,0,0
15501,-50,4,2,0,50,0,0
15655,-50,4,2,0,5,0,0
15809,-50,4,2,0,50,0,0
16270,-50,4,2,0,5,0,0
16424,-50,4,2,0,50,0,0
16578,-50,4,2,0,5,0,0
16732,-50,4,2,0,50,0,0
16899,-100,4,2,0,5,0,0
17039,-100,4,2,0,50,0,0
17962,-100,4,2,0,5,0,0
18190,-66.6666666666667,4,2,0,50,0,0
19746,-62.5,4,2,0,50,0,0
20053,-55.5555555555556,4,2,0,50,0,0
20361,-55.5555555555556,4,2,0,50,0,0
20976,-50,4,2,0,50,0,0
24655,-50,4,2,0,65,0,0
29424,-33.3333333333333,4,1,0,75,0,1
34039,-33.3333333333333,4,1,0,5,0,1
34193,-33.3333333333333,4,1,0,75,0,1
34347,-33.3333333333333,4,1,0,5,0,1
34501,-33.3333333333333,4,1,0,75,0,1
43885,-33.3333333333333,4,1,0,5,0,1
44039,-33.3333333333333,4,1,0,75,0,1
44193,-33.3333333333333,4,1,0,5,0,1
44347,-33.3333333333333,4,1,0,75,0,1
49424,-33.3333333333333,4,1,0,60,0,0
62330,-33.3333333333333,4,1,0,5,0,0
62357,-33.3333333333333,4,1,0,5,0,0
62424,-40,4,1,0,60,0,0
62578,-40,4,1,0,5,0,0
62665,-40,4,1,0,5,0,0
62732,-50,4,1,0,60,0,0
64655,-40,4,1,0,60,0,0
80039,-83.3333333333333,4,2,0,45,0,0
82501,-90.9090909090909,4,2,0,45,0,0
84962,-200,4,2,0,45,0,0
88809,-83.3333333333333,4,2,0,45,0,0
97039,-50,4,2,0,45,0,0
97424,-47.6190476190476,4,2,0,45,0,0
97732,-45.4545454545455,4,2,0,20,0,0
98039,-43.4782608695652,4,2,0,20,0,0
98347,-41.6666666666667,4,2,0,25,0,0
98655,-40,4,2,0,30,0,0
98962,-38.4615384615385,4,2,0,35,0,0
99270,-37.037037037037,4,2,0,40,0,0
104732,-37.037037037037,4,2,0,60,0,0
109347,-33.3333333333333,4,1,0,60,0,1
114039,-33.3333333333333,4,1,0,5,0,1
114193,-33.3333333333333,4,1,0,60,0,1
114347,-33.3333333333333,4,1,0,5,0,1
114501,-33.3333333333333,4,1,0,60,0,1
123885,-33.3333333333333,4,1,0,5,0,1
124039,-33.3333333333333,4,1,0,60,0,1
124193,-33.3333333333333,4,1,0,5,0,1
124347,-33.3333333333333,4,1,0,60,0,1
129424,-33.3333333333333,4,1,0,60,0,0
144424,-33.3333333333333,4,1,0,5,0,0
144578,-100,4,1,0,60,0,0
144732,-100,4,1,0,5,0,0
144885,-40,4,1,0,60,0,0
145039,-40,4,1,0,5,0,0
145193,-125,4,1,0,60,0,0
146347,-125,4,1,0,5,0,0
146501,-125,4,2,0,40,0,0

[Colours]
Combo1 : 213,0,213
Combo2 : 255,106,106
Combo3 : 255,181,106
Combo4 : 255,255,106
Combo5 : 106,255,106
Combo6 : 106,106,255

[HitObjects]
197,66,116,5,0,0:0:0:0:
48,147,270,1,0,0:0:0:0:
89,43,424,1,0,0:0:0:0:
150,145,578,6,0,B|228:209|240:289|240:289|256:209|333:139|333:139|241:181|143:143,1,540.000004023313
238,200,5039,5,0,0:0:0:0:
280,78,5193,1,0,0:0:0:0:
329,158,5347,1,0,0:0:0:0:
192,123,5501,6,0,B|158:97|129:145|129:145|112:117|112:117|86:140|42:134,1,180.000001341104
188,318,7193,5,0,0:0:0:0:
96,286,7347,2,0,B|120:250|107:204|107:204|149:228|203:218,1,180.00000820756
385,250,8424,5,0,0:0:0:0:
261,293,8578,2,0,B|294:192|294:192|386:140,1,210.000011140108
217,170,9962,6,0,L|287:194,1,66.0000029976368
364,137,10270,2,0,L|295:114,1,71.9999988756179
131,226,10578,2,0,L|205:255,1,77.9999975917339
371,198,10885,2,0,B|337:193|309:170|309:170|282:194|282:194|240:173|176:185,1,195.999995478868
195,251,11501,2,0,P|226:249|294:290,1,96.0000007152557
357,298,11809,2,0,P|412:250|415:203,1,102.000003465414
465,166,12116,2,0,P|436:72|389:165,1,251.999994187117
417,224,12732,6,0,P|399:271|348:299,1,107.999998313427
283,275,13039,2,0,P|243:250|181:253,1,107.999998313427
123,196,13347,2,0,B|174:130|234:174|234:174|266:128|266:128|329:169|398:131,1,320.000002384186
178,294,14885,6,0,L|225:171,1,120.00000089407
339,152,15193,2,0,L|292:275,1,120.000001788139
127,184,15501,2,0,L|174:60,1,120.000001788139
324,299,15809,2,0,P|181:294|128:167,1,280.000002086162
255,80,16424,2,0,L|187:195,1,120.000001788139
210,311,16732,2,0,L|270:207,1,120.000001788139
320,137,17039,2,0,P|347:54|270:125,1,260.000003874302
390,203,18193,6,0,L|352:242,4,30.0000013679266
222,325,18578,1,0,0:0:0:0:
167,117,18732,1,0,0:0:0:0:
390,203,18885,1,0,0:0:0:0:
236,334,19193,1,0,0:0:0:0:
236,334,19270,1,0,0:0:0:0:
236,334,19347,1,0,0:0:0:0:
236,334,19424,1,0,0:0:0:0:
236,334,19501,1,0,0:0:0:0:
122,125,19655,5,0,0:0:0:0:
398,250,19809,2,0,L|335:303,1,64.0000009536742
135,310,20116,2,0,L|211:258,1,71.9999988756179
163,53,20424,2,0,L|215:123,1,71.9999988756179
389,155,20732,2,0,L|330:76,1,71.9999988756179
171,309,21039,1,0,0:0:0:0:
256,95,21193,1,0,0:0:0:0:
329,307,21347,1,0,0:0:0:0:
131,188,21501,1,0,0:0:0:0:
371,190,21655,1,0,0:0:0:0:
171,309,21809,1,0,0:0:0:0:
91,70,21962,6,0,P|135:60|181:79,1,80.0000011920928
397,173,22270,2,0,P|385:136|356:109,1,80.0000011920928
194,303,22578,1,0,0:0:0:0:
258,103,22731,1,0,0:0:0:0:
99,262,22885,2,0,P|70:227|58:168,1,80.0000011920928
250,170,23193,2,0,P|289:172|327:160,1,80.0000011920928
326,299,23501,1,0,0:0:0:0:
233,102,23655,1,0,0:0:0:0:
123,244,23809,2,0,P|119:204|136:169,1,80.0000011920928
387,130,24116,2,0,P|395:169|387:208,1,80.0000011920928
267,299,24424,1,0,0:0:0:0:
325,100,24578,1,0,0:0:0:0:
116,106,24732,5,0,0:0:0:0:
154,116,24808,1,0,0:0:0:0:
194,116,24885,1,0,0:0:0:0:
232,105,24962,1,0,0:0:0:0:
265,83,25039,1,0,0:0:0:0:
302,79,25116,1,0,0:0:0:0:
339,86,25192,1,0,0:0:0:0:
374,107,25269,1,0,0:0:0:0:
388,161,25347,6,0,L|428:161,3,40.0000002980232
297,207,25655,2,0,L|257:205,3,40.0000002980232
258,52,25962,5,8,0:0:0:0:
217,62,26039,1,0,0:0:0:0:
181,89,26116,1,0,0:0:0:0:
151,125,26192,1,0,0:0:0:0:
138,170,26269,1,0,0:0:0:0:
141,217,26346,1,0,0:0:0:0:
162,259,26423,1,0,0:0:0:0:
196,291,26500,1,0,0:0:0:0:
239,336,26578,5,0,0:0:0:0:
251,286,26654,1,0,0:0:0:0:
284,246,26731,1,0,0:0:0:0:
331,224,26808,1,0,0:0:0:0:
383,224,26885,1,0,0:0:0:0:
429,246,26962,1,0,0:0:0:0:
474,220,27039,1,0,0:0:0:0:
488,173,27115,1,0,0:0:0:0:
475,126,27192,1,8,0:0:0:0:
437,95,27269,5,0,0:0:0:0:
388,90,27346,1,0,0:0:0:0:
361,131,27424,1,0,0:0:0:0:
389,177,27500,1,0,0:0:0:0:
396,230,27577,1,0,0:0:0:0:
381,282,27654,1,0,0:0:0:0:
345,323,27731,1,0,0:0:0:0:
290,338,27808,5,8,0:0:0:0:
233,304,27885,1,0,0:0:0:0:
184,261,27961,1,0,0:0:0:0:
161,199,28038,1,0,0:0:0:0:
171,134,28115,1,8,0:0:0:0:
211,82,28192,1,0,0:0:0:0:
271,56,28269,1,0,0:0:0:0:
336,61,28346,1,0,0:0:0:0:
391,98,28423,1,8,0:0:0:0:
421,156,28500,5,0,0:0:0:0:
372,192,28578,1,8,0:0:0:0:
313,207,28655,1,0,0:0:0:0:
252,206,28732,1,8,0:0:0:0:
193,194,28809,1,0,0:0:0:0:
142,163,28885,1,8,0:0:0:0:
82,159,28962,1,0,0:0:0:0:
30,189,29039,1,8,0:0:0:0:
155,308,29500,5,0,0:0:0:0:
155,308,29577,1,0,0:0:0:0:
155,308,29655,2,0,B|132:251|132:251|166:170,1,120.000005471707
342,48,29962,1,0,0:0:0:0:
215,337,30116,1,0,0:0:0:0:
115,64,30270,1,0,0:0:0:0:
443,231,30424,1,0,0:0:0:0:
117,301,30578,2,0,P|188:289|230:261,1,120.000005471707
407,75,30885,1,0,0:0:0:0:
277,344,31039,5,0,0:0:0:0:
118,61,31193,1,0,0:0:0:0:
430,301,31347,1,0,0:0:0:0:
195,57,31501,2,0,P|263:43|337:63,1,120.000005471707
227,308,31808,2,0,P|167:316|109:302,1,120.000005471707
402,62,32116,1,0,0:0:0:0:
268,335,32270,1,0,0:0:0:0:
68,60,32424,1,0,0:0:0:0:
425,177,32578,1,0,0:0:0:0:
155,342,32732,5,0,0:0:0:0:
338,41,32885,1,0,0:0:0:0:
63,194,33039,1,0,0:0:0:0:
449,262,33193,1,0,0:0:0:0:
120,341,33347,2,0,P|192:298|262:293,1,120.000005471707
478,192,33654,1,0,0:0:0:0:
49,45,33808,1,0,0:0:0:0:
435,136,33962,2,2,B|447:74|447:74|397:21,1,120.000005471707
67,230,34270,2,2,B|52:292|52:292|88:341,1,120.000005471707
63,51,34578,5,0,0:0:0:0:
326,334,34732,1,0,0:0:0:0:
272,29,34885,1,0,0:0:0:0:
47,287,35039,1,0,0:0:0:0:
428,145,35193,2,0,B|372:123|372:123|310:146,1,120.000005471707
478,331,35501,1,0,0:0:0:0:
272,29,35655,1,0,0:0:0:0:
215,341,35809,5,0,0:0:0:0:
428,145,35962,1,0,0:0:0:0:
54,290,36116,1,0,0:0:0:0:
175,31,36270,5,0,0:0:0:0:
345,319,36424,1,0,0:0:0:0:
291,44,36578,1,0,0:0:0:0:
102,241,36732,2,0,L|167:343,1,120.000005471707
396,136,37039,2,0,L|332:35,1,120.000005471707
78,283,37347,1,0,0:0:0:0:
291,44,37501,1,0,0:0:0:0:
253,343,37655,2,0,L|189:242,1,120.000005471707
374,46,37962,1,0,0:0:0:0:
179,344,38116,1,0,0:0:0:0:
174,48,38270,5,0,0:0:0:0:
123,66,38347,1,0,0:0:0:0:
90,109,38424,1,0,0:0:0:0:
85,162,38501,1,0,0:0:0:0:
95,215,38578,1,0,0:0:0:0:
134,251,38655,1,0,0:0:0:0:
186,261,38732,1,0,0:0:0:0:
238,248,38809,1,0,0:0:0:0:
285,222,38885,1,0,0:0:0:0:
320,181,38962,1,0,0:0:0:0:
325,127,39039,1,0,0:0:0:0:
353,81,39116,1,0,0:0:0:0:
405,69,39193,1,0,0:0:0:0:
457,80,39270,1,0,0:0:0:0:
480,128,39347,1,0,0:0:0:0:
475,181,39424,1,0,0:0:0:0:
445,226,39501,1,0,0:0:0:0:
270,32,39655,5,0,0:0:0:0:
245,323,39809,1,0,0:0:0:0:
88,53,39962,1,0,0:0:0:0:
480,128,40116,2,0,P|422:115|366:136,1,120.000005471707
43,263,40424,2,0,P|99:284|158:271,1,120.000005471707
88,53,40732,1,0,0:0:0:0:
280,331,40885,1,0,0:0:0:0:
254,89,41039,2,0,B|312:66|312:66|364:91,1,120.000005471707
53,215,41347,5,0,0:0:0:0:
449,52,41501,1,0,0:0:0:0:
57,52,41655,1,0,0:0:0:0:
450,222,41809,1,0,0:0:0:0:
177,45,41962,2,0,L|94:169,1,120.000005471707
447,46,42270,1,0,0:0:0:0:
279,350,42424,2,0,L|354:238,1,120.000005471707
65,331,42732,1,0,0:0:0:0:
293,41,42885,1,0,0:0:0:0:
457,319,43039,5,0,0:0:0:0:
133,43,43193,1,0,0:0:0:0:
225,335,43347,1,0,0:0:0:0:
421,69,43501,1,0,0:0:0:0:
42,303,43655,1,0,0:0:0:0:
332,35,43809,2,2,L|396:136,1,120.000005471707
167,343,44116,2,2,L|87:218,1,120.000005471707
471,282,44424,1,0,0:0:0:0:
112,37,44578,1,0,0:0:0:0:
167,343,44732,6,0,L|235:211,1,120.000005471707
46,82,45039,1,0,0:0:0:0:
466,285,45193,1,0,0:0:0:0:
428,50,45347,2,0,L|299:123,1,120.000005471707
57,296,45655,1,0,0:0:0:0:
465,138,45809,1,0,0:0:0:0:
167,38,45962,1,0,0:0:0:0:
354,339,46116,1,0,0:0:0:0:
354,34,46270,1,0,0:0:0:0:
193,330,46424,5,0,0:0:0:0:
77,60,46578,1,0,0:0:0:0:
447,332,46732,1,0,0:0:0:0:
255,42,46885,2,0,L|168:141,1,120.000005471707
450,77,47193,1,0,0:0:0:0:
186,349,47347,1,0,0:0:0:0:
86,29,47501,5,0,0:0:0:0:
75,55,47578,1,0,0:0:0:0:
65,83,47655,1,0,0:0:0:0:
54,110,47732,1,0,0:0:0:0:
44,147,47809,1,0,0:0:0:0:
35,197,47885,1,0,0:0:0:0:
40,249,47962,1,0,0:0:0:0:
70,291,48039,1,0,0:0:0:0:
117,312,48116,1,0,0:0:0:0:
168,309,48193,1,0,0:0:0:0:
211,279,48270,1,0,0:0:0:0:
232,232,48347,1,0,0:0:0:0:
245,181,48424,1,0,0:0:0:0:
275,139,48500,1,0,0:0:0:0:
323,119,48577,1,0,0:0:0:0:
373,127,48654,1,0,0:0:0:0:
412,160,48731,1,8,0:0:0:0:
304,308,48885,5,8,0:0:0:0:
386,57,49039,5,8,0:0:0:0:
477,245,49193,5,8,0:0:0:0:
257,36,49347,5,8,0:0:0:0:
463,344,49501,1,0,0:0:0:0:
58,150,49655,2,0,P|113:118|180:112,1,120.000005471707
88,329,49962,1,0,0:0:0:0:
253,51,50116,1,0,0:0:0:0:
463,344,50270,2,0,P|409:309|368:261,1,120.000005471707
455,54,50578,1,0,0:0:0:0:
164,332,50732,1,0,0:0:0:0:
257,36,50885,1,0,0:0:0:0:
387,342,51039,5,0,0:0:0:0:
67,182,51193,1,0,0:0:0:0:
441,184,51347,1,0,0:0:0:0:
102,241,51501,2,0,L|167:343,1,120.000005471707
396,136,51808,2,0,L|332:35,1,120.000005471707
79,320,52116,1,0,0:0:0:0:
185,28,52270,1,0,0:0:0:0:
439,277,52424,1,0,0:0:0:0:
80,103,52578,1,0,0:0:0:0:
308,34,52732,5,0,0:0:0:0:
259,327,52885,1,0,0:0:0:0:
466,51,53039,1,0,0:0:0:0:
109,296,53193,1,0,0:0:0:0:
477,120,53347,2,0,B|500:178|500:178|475:230,1,120.000005471707
150,33,53655,1,0,0:0:0:0:
381,321,53809,1,0,0:0:0:0:
41,230,53962,1,0,0:0:0:0:
387,40,54116,1,0,0:0:0:0:
206,331,54270,5,0,0:0:0:0:
83,42,54424,1,0,0:0:0:0:
475,229,54578,2,0,P|460:166|399:100,1,120.000005471707
75,299,54885,1,0,0:0:0:0:
241,41,55039,1,0,0:0:0:0:
380,311,55193,1,0,0:0:0:0:
66,141,55347,1,0,0:0:0:0:
411,47,55501,1,0,0:0:0:0:
184,333,55655,1,0,0:0:0:0:
428,121,55809,6,0,P|369:112|320:77,1,120.000005471707
64,282,56116,1,0,0:0:0:0:
240,47,56270,1,0,0:0:0:0:
351,333,56424,1,0,0:0:0:0:
60,81,56578,1,0,0:0:0:0:
448,161,56732,1,0,0:0:0:0:
160,307,56885,1,0,0:0:0:0:
368,63,57039,1,0,0:0:0:0:
415,312,57193,1,0,0:0:0:0:
110,43,57347,1,0,0:0:0:0:
305,309,57501,2,0,B|357:334|357:334|415:311,1,120.000005471707
399,61,57809,5,0,0:0:0:0:
345,36,57885,1,0,0:0:0:0:
288,52,57962,1,0,0:0:0:0:
255,100,58039,1,0,0:0:0:0:
260,158,58116,1,0,0:0:0:0:
301,200,58193,1,0,0:0:0:0:
360,205,58270,1,0,0:0:0:0:
408,172,58347,1,0,0:0:0:0:
424,116,58424,1,0,0:0:0:0:
400,62,58501,1,0,0:0:0:0:
345,36,58578,1,0,0:0:0:0:
443,312,58732,5,0,0:0:0:0:
74,207,58886,1,0,0:0:0:0:
456,55,59040,1,0,0:0:0:0:
333,332,59194,1,0,0:0:0:0:
183,52,59347,2,0,P|250:60|301:105,1,120.000005471707
68,322,59655,1,0,0:0:0:0:
332,35,59809,2,0,L|396:136,1,120.000005471707
167,343,60116,2,0,L|102:241,1,120.000005471707
467,306,60424,1,0,0:0:0:0:
115,96,60578,5,0,0:0:0:0:
444,46,60732,1,0,0:0:0:0:
173,315,60885,1,0,0:0:0:0:
446,164,61039,2,0,P|411:114|348:79,1,120.000005471707
73,176,61347,1,0,0:0:0:0:
432,310,61501,1,0,0:0:0:0:
296,64,61655,1,0,0:0:0:0:
150,326,61809,1,0,0:0:0:0:
460,130,61962,2,0,P|417:177|361:199,1,120.000005471707
235,46,62270,6,0,L|147:71,1,60.0000027358533
143,142,62424,2,0,B|116:162|68:164|68:164|116:179|135:218,1,150.000001117587
120,288,62732,2,0,B|223:271|271:204|271:204|245:212|208:209,1,240.000001788139
314,61,63501,1,0,0:0:0:0:
314,61,63655,1,0,0:0:0:0:
165,283,63809,1,0,0:0:0:0:
430,182,63962,1,0,0:0:0:0:
73,116,64116,1,0,0:0:0:0:
440,236,64424,5,0,0:0:0:0:
56,158,64578,1,0,0:0:0:0:
348,51,64732,2,0,P|375:95|370:149,1,100.000000745058
195,323,65039,2,0,P|174:270|187:217,1,100.000000745058
440,309,65347,1,0,0:0:0:0:
251,115,65501,1,0,0:0:0:0:
86,319,65655,1,0,0:0:0:0:
372,141,65809,1,0,0:0:0:0:
69,170,65962,2,0,P|136:207|182:205,1,100.000000745058
256,192,66270,12,0,69039,0:0:0:0:
360,312,80116,6,0,B|304:312|304:312|304:304|304:304|336:288|360:264|376:232|384:192|376:152|360:120|320:88|272:72|240:72|191:88|152:120|136:152|128:192|135:232|151:264|175:288|208:304|208:304|208:312|208:312|136:312,1,719.999983391762
336,160,82578,2,0,B|336:122|336:122|152:122|152:122|208:214|208:214|152:306|152:306|336:306|336:306|335:263,1,660.000025058985
335,267,85039,2,0,B|182:-4|166:-68|312:122|151:219,1,480.000003576278
392,181,89039,1,0,0:0:0:0:
223,92,89347,2,0,L|245:114,3,23.9999994463921
289,260,89655,2,0,L|273:244,3,23.9999994463921
61,146,89962,5,8,0:0:0:0:
61,146,90270,1,8,0:0:0:0:
61,146,90578,1,8,0:0:0:0:
61,146,90885,1,8,0:0:0:0:
61,146,91193,1,8,0:0:0:0:
61,146,91501,1,8,0:0:0:0:
61,146,91809,1,8,0:0:0:0:
61,146,92116,5,8,0:0:0:0:
190,318,92270,1,8,0:0:0:0:
250,83,92424,1,8,0:0:0:0:
250,83,92732,1,8,0:0:0:0:
250,83,93039,1,8,0:0:0:0:
250,83,93347,1,8,0:0:0:0:
250,83,93655,1,8,0:0:0:0:
250,83,93962,1,8,0:0:0:0:
250,83,94270,1,8,0:0:0:0:
250,83,94578,5,8,0:0:0:0:
79,255,94732,1,8,0:0:0:0:
337,266,94885,1,8,0:0:0:0:
337,266,95193,1,8,0:0:0:0:
337,266,95501,1,8,0:0:0:0:
337,266,95809,1,8,0:0:0:0:
337,266,96116,1,8,0:0:0:0:
337,266,96424,1,8,0:0:0:0:
337,266,96732,1,8,0:0:0:0:
109,324,97039,5,8,0:0:0:0:
193,120,97193,1,8,0:0:0:0:
104,219,97347,2,0,L|179:193,1,80.0000005960464
346,218,97655,2,0,L|264:248,1,83.9999980623722
127,332,97963,2,0,L|204:262,1,88.000003341198
356,62,98270,2,0,L|289:126,1,92.0000024402141
244,335,98578,2,0,L|292:241,1,95.9999977855682
232,50,98886,2,0,L|185:141,1,100.000000745058
81,306,99193,2,0,L|182:254,1,103.999996014118
390,89,99501,2,0,L|293:150,1,108.00000121665
279,264,99809,6,0,L|378:239,7,54.000000608325
384,158,100424,2,0,L|330:167,7,54.000000608325
245,308,101039,5,0,0:0:0:0:
211,300,101115,1,0,0:0:0:0:
181,288,101192,1,0,0:0:0:0:
152,272,101269,1,0,0:0:0:0:
126,249,101346,1,0,0:0:0:0:
105,224,101423,1,0,0:0:0:0:
88,195,101500,1,0,0:0:0:0:
74,159,101578,1,0,0:0:0:0:
66,123,101655,2,0,L|112:52,7,54.000000608325
172,220,102270,6,0,L|138:262,7,54.000000608325
259,320,102885,2,0,L|247:248,7,54.000000608325
59,133,103501,5,0,0:0:0:0:
41,183,103577,1,0,0:0:0:0:
54,235,103654,1,0,0:0:0:0:
93,271,103731,1,0,0:0:0:0:
146,281,103808,1,0,0:0:0:0:
195,260,103885,1,0,0:0:0:0:
225,217,103962,1,0,0:0:0:0:
227,163,104039,1,0,0:0:0:0:
236,111,104116,1,0,0:0:0:0:
260,63,104192,1,0,0:0:0:0:
304,33,104269,1,0,0:0:0:0:
358,28,104346,1,0,0:0:0:0:
407,50,104423,1,0,0:0:0:0:
439,92,104500,1,0,0:0:0:0:
448,145,104577,1,0,0:0:0:0:
441,199,104655,1,0,0:0:0:0:
417,251,104732,5,8,0:0:0:0:
396,201,104808,1,0,0:0:0:0:
363,158,104885,1,0,0:0:0:0:
320,126,104962,1,0,0:0:0:0:
269,107,105039,1,0,0:0:0:0:
216,102,105116,1,0,0:0:0:0:
165,120,105193,5,8,0:0:0:0:
211,148,105270,1,0,0:0:0:0:
232,197,105347,1,0,0:0:0:0:
223,250,105424,1,0,0:0:0:0:
186,289,105501,1,0,0:0:0:0:
134,303,105578,1,0,0:0:0:0:
80,294,105655,5,8,0:0:0:0:
123,261,105732,1,0,0:0:0:0:
173,241,105809,1,0,0:0:0:0:
226,242,105885,1,0,0:0:0:0:
271,270,105962,5,8,0:0:0:0:
239,226,106039,1,0,0:0:0:0:
222,174,106116,1,0,0:0:0:0:
229,120,106193,1,0,0:0:0:0:
256,73,106270,1,0,0:0:0:0:
303,46,106347,1,0,0:0:0:0:
356,50,106424,1,0,0:0:0:0:
401,78,106501,1,0,0:0:0:0:
424,126,106578,1,0,0:0:0:0:
422,180,106655,1,0,0:0:0:0:
403,230,106732,1,0,0:0:0:0:
370,273,106809,1,0,0:0:0:0:
318,301,106885,1,0,0:0:0:0:
253,306,106962,1,0,0:0:0:0:
185,288,107039,1,0,0:0:0:0:
120,249,107116,1,0,0:0:0:0:
82,159,107193,5,0,0:0:0:0:
135,53,107270,1,0,0:0:0:0:
228,0,107346,1,0,0:0:0:0:
335,6,107423,1,0,0:0:0:0:
424,66,107500,1,0,0:0:0:0:
462,167,107577,1,0,0:0:0:0:
442,272,107654,1,0,0:0:0:0:
369,351,107731,1,0,0:0:0:0:
265,377,107808,1,0,0:0:0:0:
163,343,107885,1,0,0:0:0:0:
97,258,107962,1,0,0:0:0:0:
91,150,108039,1,0,0:0:0:0:
135,53,108116,1,0,0:0:0:0:
233,7,108193,1,0,0:0:0:0:
340,14,108270,1,0,0:0:0:0:
447,91,108347,1,0,0:0:0:0:
463,197,108424,1,6,0:0:0:0:
86,215,109501,5,0,0:0:0:0:
199,39,109655,6,0,P|171:95|179:151,1,120.000005471707
275,205,109962,2,0,P|287:149|271:90,1,120.000005471707
163,225,110270,2,0,P|190:309|224:336,1,120.000005471707
343,232,110578,2,0,P|388:203|428:146,1,120.000005471707
447,345,110885,1,0,0:0:0:0:
205,54,111039,1,0,0:0:0:0:
452,193,111193,1,0,0:0:0:0:
70,254,111347,1,0,0:0:0:0:
432,58,111501,6,0,P|363:60|295:98,1,120.000005471707
139,314,111809,2,0,P|189:330|260:325,1,120.000005471707
203,51,112116,1,0,0:0:0:0:
475,279,112270,1,0,0:0:0:0:
45,242,112424,1,0,0:0:0:0:
463,122,112578,1,0,0:0:0:0:
68,91,112732,1,0,0:0:0:0:
255,326,112885,1,0,0:0:0:0:
379,59,113039,2,0,P|316:42|250:55,1,120.000005471707
420,299,113347,5,0,0:0:0:0:
65,188,113501,1,0,0:0:0:0:
435,79,113655,1,0,0:0:0:0:
215,346,113809,1,0,0:0:0:0:
332,35,113962,2,2,L|396:136,1,120.000005471707
168,349,114270,2,2,L|84:213,1,120.000005471707
258,35,114578,1,0,0:0:0:0:
324,344,114732,1,0,0:0:0:0:
53,126,114885,1,0,0:0:0:0:
451,323,115039,5,0,0:0:0:0:
302,53,115193,2,0,P|361:44|421:50,1,120.000005471707
203,307,115501,2,0,P|144:313|85:304,1,120.000005471707
451,149,115809,1,0,0:0:0:0:
145,47,115962,1,0,0:0:0:0:
447,319,116116,1,0,0:0:0:0:
74,206,116270,1,0,0:0:0:0:
465,37,116424,2,0,P|410:29|329:42,1,120.000005471707
100,317,116732,2,0,P|159:324|218:316,1,120.000005471707
84,83,117039,5,0,0:0:0:0:
433,328,117193,1,0,0:0:0:0:
233,43,117347,1,0,0:0:0:0:
151,328,117501,1,0,0:0:0:0:
458,107,117655,1,0,0:0:0:0:
69,168,117809,1,0,0:0:0:0:
430,323,117962,1,0,0:0:0:0:
218,65,118116,1,0,0:0:0:0:
124,345,118270,5,0,0:0:0:0:
145,333,118347,1,0,0:0:0:0:
165,320,118424,1,0,0:0:0:0:
185,307,118501,1,0,0:0:0:0:
205,294,118578,1,0,0:0:0:0:
243,265,118655,1,0,0:0:0:0:
287,233,118732,1,0,0:0:0:0:
336,198,118809,1,0,0:0:0:0:
368,148,118885,1,0,0:0:0:0:
354,89,118962,1,0,0:0:0:0:
308,50,119039,1,0,0:0:0:0:
248,57,119116,1,0,0:0:0:0:
203,97,119193,1,0,0:0:0:0:
190,155,119270,1,0,0:0:0:0:
200,214,119347,1,0,0:0:0:0:
410,37,119501,6,0,P|444:101|437:170,1,120.000005471707
369,106,119809,2,0,P|365:183|434:243,1,120.000005471707
471,234,120116,2,0,P|439:311|373:297,1,120.000005471707
268,184,120424,2,0,P|254:271|276:310,1,120.000005471707
74,81,120732,1,0,0:0:0:0:
468,188,120885,1,0,0:0:0:0:
203,333,121039,1,0,0:0:0:0:
302,53,121193,1,0,0:0:0:0:
85,330,121347,2,0,P|144:339|203:333,1,120.000005471707
420,49,121655,2,0,P|361:44|302:53,1,120.000005471707
415,311,121962,5,0,0:0:0:0:
142,49,122116,1,0,0:0:0:0:
484,87,122270,1,0,0:0:0:0:
145,328,122424,1,0,0:0:0:0:
402,47,122578,2,0,B|426:102|426:102|399:155,1,120.000005471707
90,328,122885,2,0,B|65:279|65:279|91:217,1,120.000005471707
339,340,123193,1,0,0:0:0:0:
171,41,123347,1,0,0:0:0:0:
512,186,123501,1,0,0:0:0:0:
135,291,123655,5,0,0:0:0:0:
332,35,123809,2,2,L|396:136,1,120.000005471707
167,343,124116,2,2,L|87:218,1,120.000005471707
452,263,124424,1,0,0:0:0:0:
215,53,124578,1,0,0:0:0:0:
241,341,124732,1,0,0:0:0:0:
437,96,124885,1,0,0:0:0:0:
96,275,125039,2,0,P|154:285|214:278,1,120.000005471707
379,59,125347,2,0,P|319:51|260:62,1,120.000005471707
427,321,125655,5,0,0:0:0:0:
73,157,125809,1,0,0:0:0:0:
436,119,125962,1,0,0:0:0:0:
193,349,126116,1,0,0:0:0:0:
260,62,126270,2,0,P|318:51|378:58,1,120.000005471707
214,278,126578,2,0,P|154:285|95:274,1,120.000005471707
445,203,126885,1,0,0:0:0:0:
146,64,127039,1,0,0:0:0:0:
309,330,127193,1,0,0:0:0:0:
317,29,127347,5,0,0:0:0:0:
117,329,127501,1,0,0:0:0:0:
421,114,127655,1,0,0:0:0:0:
90,229,127809,1,0,0:0:0:0:
225,35,127962,1,0,0:0:0:0:
358,329,128116,1,0,0:0:0:0:
373,43,128270,1,0,0:0:0:0:
373,43,128578,1,0,0:0:0:0:
221,317,128732,1,0,0:0:0:0:
104,50,128885,5,0,0:0:0:0:
412,215,129039,1,0,0:0:0:0:
36,202,129193,1,0,0:0:0:0:
421,60,129347,1,0,0:0:0:0:
66,307,129501,2,0,P|152:316|202:303,1,120.000005471707
420,59,129809,2,0,P|360:52|303:68,1,120.000005471707
440,299,130116,1,0,0:0:0:0:
117,200,130270,1,0,0:0:0:0:
468,108,130424,1,0,0:0:0:0:
297,374,130578,5,0,0:0:0:0:
233,37,130732,2,0,L|128:96,1,120.000005471707
340,319,131039,2,0,L|445:260,1,120.000005471707
145,133,131347,1,0,0:0:0:0:
473,168,131501,1,0,0:0:0:0:
192,322,131655,1,0,0:0:0:0:
341,43,131809,1,0,0:0:0:0:
453,319,131962,2,0,P|346:322|311:306,1,120.000005471707
106,77,132270,1,0,0:0:0:0:
437,192,132424,5,0,0:0:0:0:
112,294,132578,1,0,0:0:0:0:
330,40,132732,1,0,0:0:0:0:
357,339,132885,1,0,0:0:0:0:
122,100,133039,1,0,0:0:0:0:
454,236,133193,1,0,0:0:0:0:
134,301,133347,1,0,0:0:0:0:
392,72,133501,1,0,0:0:0:0:
433,332,133655,1,0,0:0:0:0:
82,92,133809,6,0,P|158:82|210:93,1,120.000005471707
442,279,134116,2,0,P|382:287|323:276,1,120.000005471707
480,88,134424,1,0,0:0:0:0:
160,320,134578,1,0,0:0:0:0:
258,42,134732,1,0,0:0:0:0:
431,310,134885,1,0,0:0:0:0:
91,118,135039,1,0,0:0:0:0:
433,188,135193,1,0,0:0:0:0:
94,320,135347,1,0,0:0:0:0:
352,35,135501,6,0,P|414:66|447:111,1,120.000005471707
160,349,135809,2,0,P|98:318|65:273,1,120.000005471707
241,42,136116,1,0,0:0:0:0:
385,302,136270,1,0,0:0:0:0:
58,160,136424,1,0,0:0:0:0:
473,126,136578,1,0,0:0:0:0:
102,241,136732,2,0,L|167:343,1,120.000005471707
396,136,137039,2,0,L|332:35,1,120.000005471707
241,327,137347,1,0,0:0:0:0:
61,85,137501,5,0,0:0:0:0:
475,161,137655,1,0,0:0:0:0:
106,327,137809,1,0,0:0:0:0:
421,46,137962,5,0,0:0:0:0:
398,54,138039,1,0,0:0:0:0:
375,63,138116,1,0,0:0:0:0:
354,73,138193,1,0,0:0:0:0:
332,83,138270,1,0,0:0:0:0:
290,106,138347,1,0,0:0:0:0:
242,130,138424,1,0,0:0:0:0:
188,157,138501,1,0,0:0:0:0:
148,201,138577,1,0,0:0:0:0:
153,262,138654,1,0,0:0:0:0:
192,307,138731,1,0,0:0:0:0:
252,310,138808,1,0,0:0:0:0:
304,277,138885,1,0,0:0:0:0:
447,319,139039,5,0,0:0:0:0:
58,217,139193,1,0,0:0:0:0:
460,74,139347,2,0,P|397:48|335:47,1,120.000005471707
52,310,139655,2,0,P|115:336|177:337,1,120.000005471707
44,82,139962,1,0,0:0:0:0:
313,321,140116,1,0,0:0:0:0:
255,33,140270,1,0,0:0:0:0:
398,346,140424,2,0,B|456:319|456:319|483:250,1,120.000005471707
114,38,140732,6,0,B|56:65|56:65|29:134,1,120.000005471707
444,83,141039,1,0,0:0:0:0:
197,304,141193,1,0,0:0:0:0:
237,32,141347,1,0,0:0:0:0:
422,316,141501,1,0,0:0:0:0:
332,35,141655,2,0,L|396:136,1,120.000005471707
167,343,141962,2,0,L|103:242,1,120.000005471707
422,316,142270,1,0,0:0:0:0:
101,119,142424,1,0,0:0:0:0:
444,67,142578,1,0,0:0:0:0:
213,328,142732,1,0,0:0:0:0:
298,36,142885,5,0,0:0:0:0:
464,309,143193,1,0,0:0:0:0:
97,284,143501,1,0,0:0:0:0:
499,132,143809,1,0,0:0:0:0:
87,113,144116,2,0,B|142:151|147:221|147:221|206:142|312:171,1,300.000013679266
290,239,144578,2,0,P|247:233|217:246,1,60.0000004470348
269,308,144885,2,0,P|342:290|346:194,1,150.000001117587
418,154,145193,2,0,B|317:146|233:107|233:107|272:131|280:164,1,256.000001907348
161,253,146578,5,0,0:0:0:0:
197,66,147347,1,0,0:0:0:0:
48,147,147501,1,0,0:0:0:0:
89,43,147655,1,0,0:0:0:0:
