osu file format v14

[General]
AudioFilename: audio.mp3
AudioLeadIn: 0
PreviewTime: 77082
Countdown: 1
SampleSet: Soft
StackLeniency: 0.7
Mode: 0
LetterboxInBreaks: 0
WidescreenStoryboard: 0

[Editor]
Bookmarks: 3165,5832,8498,11165,16498,21832,29165,67165,77165
DistanceSpacing: 2.5
BeatDivisor: 4
GridSize: 4
TimelineZoom: 3.599999

[Metadata]
Title:Snowdrop
TitleUnicode:Snowdrop
Artist:Nano.Ripe
ArtistUnicode:Nano.Ripe
Creator:Thekuso10
Version:Insane
Source:
Tags:Shokugeki no Soma
BeatmapID:1935355
BeatmapSetID:926543

[Difficulty]
HPDrainRate:7
CircleSize:4
OverallDifficulty:8
ApproachRate:10
SliderMultiplier:1.5
SliderTickRate:1

[Events]
//Background and Video events
0,0,"background for shokuosu!.jpg",0,0
//Break Periods
//Storyboard Layer 0 (Background)
//Storyboard Layer 1 (Fail)
//Storyboard Layer 2 (Pass)
//Storyboard Layer 3 (Foreground)
//Storyboard Sound Samples

[TimingPoints]
499,333.333333333333,4,2,0,80,1,0
11165,-100,4,2,0,70,0,0
24332,-133.333333333333,4,2,0,70,0,0
31415,-133.333333333333,4,2,0,5,0,0
31498,-133.333333333333,4,2,0,70,0,0
31915,-133.333333333333,4,2,0,5,0,0
31998,-133.333333333333,4,2,0,70,0,0
34998,-100,4,2,0,70,0,0
77165,-100,4,2,0,60,0,0
77832,-100,4,2,0,100,0,1
88113,-100,4,2,0,100,0,0

[HitObjects]
72,190,499,6,0,L|114:266,1,75
323,190,998,2,0,L|281:113,1,75
72,190,1498,2,0,L|114:266,1,75
323,190,1998,2,0,L|281:113,1,75
423,304,2498,2,0,B|388:310|388:310|330:270,1,75
411,189,2832,1,0,0:0:0:0:
360,98,3165,5,0,0:0:0:0:
186,241,3332,1,0,0:0:0:0:
158,61,3665,5,0,0:0:0:0:
325,211,3832,1,0,0:0:0:0:
110,218,4165,5,0,0:0:0:0:
287,78,4332,1,0,0:0:0:0:
347,243,4665,5,0,0:0:0:0:
168,105,4832,1,0,0:0:0:0:
455,186,5165,6,0,P|422:130|393:103,1,75
346,206,5498,1,0,0:0:0:0:
432,190,5832,6,0,L|390:266,1,75
181,190,6332,2,0,L|223:113,1,75
432,190,6832,2,0,L|390:266,1,75
181,190,7332,2,0,L|223:113,1,75
338,93,7832,2,0,B|375:119|375:119|390:174,1,75
386,261,8165,1,0,0:0:0:0:
76,49,8498,5,0,0:0:0:0:
118,232,8665,1,0,0:0:0:0:
472,111,8998,5,0,0:0:0:0:
427,293,9165,1,0,0:0:0:0:
78,156,9498,5,0,0:0:0:0:
127,337,9665,1,0,0:0:0:0:
464,173,9998,5,0,0:0:0:0:
401,350,10165,1,0,0:0:0:0:
77,161,10498,6,0,B|106:202|106:202|132:211,1,75,8|0,0:0|0:0,0:0:0:0:
138,213,10748,1,0,0:0:0:0:
145,216,10832,1,0,0:0:0:0:
380,83,11165,6,0,B|419:119|419:119|415:174,1,75,4|0,0:0|0:0,0:0:0:0:
389,288,11498,1,0,0:0:0:0:
250,346,11665,1,0,0:0:0:0:
54,118,11998,1,0,0:0:0:0:
137,242,12165,6,0,B|130:288|130:288|172:333,1,75
298,292,12498,1,0,0:0:0:0:
428,217,12665,1,0,0:0:0:0:
170,63,12998,1,0,0:0:0:0:
86,187,13165,1,0,0:0:0:0:
233,214,13332,2,0,B|240:166|240:166|219:127,1,75
359,71,13665,1,0,0:0:0:0:
227,142,13832,6,0,B|244:181|244:181|290:194,1,75
381,83,14165,1,0,0:0:0:0:
377,233,14332,1,0,0:0:0:0:
93,330,14665,1,0,0:0:0:0:
84,179,14832,2,0,B|81:222|81:222|108:263,1,75
135,102,15165,1,0,0:0:0:0:
271,39,15332,1,0,0:0:0:0:
32,41,15665,5,0,0:0:0:0:
292,188,15998,1,0,0:0:0:0:
160,259,16165,1,0,0:0:0:0:
418,50,16498,6,0,L|344:98,1,75
130,60,16832,2,0,L|204:108,1,75
399,192,17165,2,0,L|325:240,1,75
116,284,17498,2,0,L|190:332,1,75
405,317,17832,5,0,0:0:0:0:
257,148,17998,1,0,0:0:0:0:
482,145,18165,1,0,0:0:0:0:
402,317,18332,1,0,0:0:0:0:
219,227,18498,5,0,0:0:0:0:
401,94,18665,1,0,0:0:0:0:
179,49,18832,1,0,0:0:0:0:
232,224,18998,1,0,0:0:0:0:
409,194,19165,6,0,P|348:223|319:205,1,75
343,42,19498,1,0,0:0:0:0:
162,35,19665,1,0,0:0:0:0:
298,152,19832,6,0,B|337:131|337:131|350:65,1,75
261,261,20165,1,0,0:0:0:0:
129,137,20332,1,0,0:0:0:0:
112,315,20498,5,0,0:0:0:0:
284,262,20665,1,0,0:0:0:0:
284,81,20832,5,0,0:0:0:0:
123,160,20998,1,0,0:0:0:0:
279,250,21165,5,0,0:0:0:0:
411,127,21332,1,0,0:0:0:0:
240,73,21498,1,0,0:0:0:0:
279,250,21665,1,0,0:0:0:0:
111,316,21832,6,0,B|65:297|65:297|59:256,1,75
387,118,22332,1,0,0:0:0:0:
31,279,22832,6,0,B|41:325|41:325|91:344,1,75
309,160,23332,1,0,0:0:0:0:
36,35,23665,5,0,0:0:0:0:
186,42,23832,1,0,0:0:0:0:
104,168,23998,1,0,0:0:0:0:
36,35,24165,1,0,0:0:0:0:
183,138,24332,5,0,0:0:0:0:
206,315,24498,2,0,B|237:344|237:344|274:330,1,56.2500021457673
500,237,24998,1,0,0:0:0:0:
270,74,25332,1,0,0:0:0:0:
33,188,25665,2,0,B|47:251|47:251|99:284,1,112.500004291535
296,267,26332,1,0,0:0:0:0:
105,92,26665,1,0,0:0:0:0:
363,78,26998,5,0,0:0:0:0:
401,201,27165,2,0,L|354:241,1,56.2500021457673
116,331,27665,1,0,0:0:0:0:
355,184,27998,1,0,0:0:0:0:
78,131,28332,1,0,0:0:0:0:
420,53,29165,6,0,B|382:57|382:57|352:78,1,56.2500021457673
436,183,29498,1,0,0:0:0:0:
330,275,29665,1,0,0:0:0:0:
50,289,29998,1,0,0:0:0:0:
147,24,30332,1,0,0:0:0:0:
207,352,30998,5,0,0:0:0:0:
348,343,31165,2,0,B|384:327|384:327|398:276,1,84.3750032186509
324,272,31498,1,0,0:0:0:0:
235,156,31665,2,0,B|217:116|217:116|250:66,1,84.3750032186509
296,116,31998,1,0,0:0:0:0:
112,42,32332,5,0,0:0:0:0:
41,162,32498,1,0,0:0:0:0:
260,340,32832,1,0,0:0:0:0:
398,312,32998,2,0,B|443:276|443:276|450:204,1,112.500004291535
253,18,33665,1,0,0:0:0:0:
