osu file format v14

[General]
AudioFilename: audio.mp3
AudioLeadIn: 0
PreviewTime: 82409
Countdown: 1
SampleSet: Soft
StackLeniency: 0.7
Mode: 0
LetterboxInBreaks: 0
WidescreenStoryboard: 1

[Editor]
Bookmarks: 43019,52865,62711,72558,121811,131657,141503,146426,158790,171028,182797
DistanceSpacing: 1.2
BeatDivisor: 4
GridSize: 8
TimelineZoom: 1.550002

[Metadata]
Title:Rolling Girl
TitleUnicode:ローリンガール
Artist:Nano
ArtistUnicode:ナノ
Creator:oskargames
Version:Hard
Source:
Tags:
BeatmapID:1475696
BeatmapSetID:695068

[Difficulty]
HPDrainRate:5
CircleSize:3.8
OverallDifficulty:5
ApproachRate:5
SliderMultiplier:1.3
SliderTickRate:1

[Events]
//Background and Video events
0,0,"Rolling_Girl_ver_Saki_by_Sakura_Uchiha_chan.jpg",0,0
//Break Periods
2,101836,110765
//Storyboard Layer 0 (Background)
//Storyboard Layer 1 (Fail)
//Storyboard Layer 2 (Pass)
//Storyboard Layer 3 (Foreground)
//Storyboard Sound Samples

[TimingPoints]
3635,307.692307692308,4,2,0,60,1,0
13476,-100,4,2,0,40,0,0
13788,-83.3333333333333,4,3,0,30,0,0
23168,-100,4,2,0,40,0,0
23630,-83.3333333333333,4,3,0,30,0,0
33168,-100,4,2,0,30,0,0
33481,-100,4,3,0,20,0,0
43019,-100,4,2,0,30,0,0
43327,-100,4,3,0,20,0,0
52865,-76.9230769230769,4,3,0,20,0,0
62711,-100,4,2,0,30,0,0
63019,-100,4,3,0,20,0,0
72558,-100,4,2,0,30,0,0
72865,-100,4,3,0,20,0,0
82409,307.692307692308,4,2,0,40,1,1
82409,-76.9230769230769,4,2,0,40,0,1
87173,307.692307692308,4,2,0,40,1,1
87173,-76.9230769230769,4,2,0,40,0,1
92100,307.692307692308,4,2,0,40,1,1
92100,-76.9230769230769,4,2,0,40,0,1
97176,307.692307692308,4,2,0,40,1,1
97176,-76.9230769230769,4,2,0,40,0,1
102120,307.692307692308,4,2,0,30,1,0
102120,-100,4,2,0,30,0,0
111965,307.692307692308,4,2,0,30,1,0
151329,307.692307692308,4,2,0,30,1,1
151329,-76.9230769230769,4,2,0,30,0,1
161182,307.692307692308,4,2,0,30,1,1
161182,-76.9230769230769,4,2,0,30,0,1
190720,-76.9230769230769,4,2,0,30,0,0

[Colours]
Combo1 : 204,142,0
Combo2 : 0,102,0
Combo3 : 4,39,159
Combo4 : 191,0,0

[HitObjects]
44,156,3634,5,0,0:0:0:0:
136,60,3942,1,0,0:0:0:0:
156,188,4250,6,0,L|208:136,1,65
212,235,4558,2,0,L|256:192,2,32.5
340,100,5019,6,0,L|396:152,1,65
328,184,5327,2,0,L|380:236,1,65
364,296,5635,6,0,L|328:328,2,32.5
276,288,5942,2,0,L|240:320,2,32.5
144,268,6404,1,0,0:0:0:0:
60,196,6712,6,0,L|112:144,1,65
6,142,7019,2,0,L|64:88,1,65
128,44,7481,6,0,L|176:96,1,65
216,40,7789,2,0,L|264:88,1,65
312,128,8096,1,0,0:0:0:0:
312,128,8250,1,0,0:0:0:0:
344,336,8558,5,0,0:0:0:0:
436,244,8866,1,0,0:0:0:0:
304,248,9174,6,0,L|352:192,1,65
248,200,9482,2,0,L|288:160,2,32.5
76,192,9943,6,0,L|128:240,1,65
128,144,10251,2,0,L|184:200,1,65
184,96,10559,6,0,L|224:136,2,32.5
232,48,10865,2,0,L|264:76,2,32.5
400,48,11327,1,0,0:0:0:0:
420,172,11635,6,0,L|368:224,1,65
480,220,11943,2,0,L|432:272,1,65
364,328,12404,6,0,L|304:272,1,65
272,336,12712,2,0,L|216:280,1,65
176,256,13019,1,0,0:0:0:0:
112,248,13173,6,0,B|80:240|80:240|104:224|104:224|80:200|80:200|120:192|120:192,1,130
176,192,13788,1,2,3:0:0:0:
176,48,14096,6,0,P|204:26|248:32,1,77.999997619629,0|0,0:0|0:0,0:3:0:0:
304,72,14404,1,2,3:0:0:0:
304,72,14481,1,0,0:0:0:0:
304,72,14558,1,0,0:0:0:0:
424,160,14865,5,0,0:0:0:0:
375,208,15019,1,2,3:0:0:0:
323,254,15173,1,0,0:0:0:0:
271,300,15327,1,0,0:0:0:0:
200,304,15481,6,0,L|152:344,2,38.9999988098145,0|0|2,3:0|3:0|3:0,3:0:0:0:
192,232,15788,2,0,L|144:264,2,38.9999988098145,0|0|0,3:0|3:0|3:0,3:0:0:0:
332,232,16250,1,2,3:0:0:0:
232,160,16558,6,0,P|260:138|304:136,1,77.999997619629,0|0,0:0|0:0,3:3:0:0:
376,152,16865,1,2,3:0:0:0:
376,152,16943,1,0,0:0:0:0:
376,152,17020,1,0,0:0:0:0:
368,44,17327,5,0,3:0:0:0:
299,45,17481,1,2,3:0:0:0:
230,43,17635,1,0,3:0:0:0:
160,42,17789,1,0,3:0:0:0:
88,40,17942,2,0,L|32:96,1,77.999997619629,0|2,3:0|3:0,3:0:0:0:
52,240,18404,5,0,0:0:0:0:
172,240,18711,1,2,3:0:0:0:
80,332,19019,6,0,P|108:310|152:304,1,77.999997619629,0|0,3:0|3:0,3:0:0:0:
224,328,19327,1,2,3:0:0:0:
224,328,19404,1,0,0:0:0:0:
224,328,19481,1,0,0:0:0:0:
356,316,19788,5,0,0:0:0:0:
405,268,19942,1,2,3:0:0:0:
457,222,20096,1,0,0:0:0:0:
509,176,20250,1,0,0:0:0:0:
508,104,20404,6,0,L|464:136,2,38.9999988098145,0|0|2,3:0|3:0|3:0,3:0:0:0:
508,32,20711,2,0,L|464:64,2,38.9999988098145,0|0|0,3:0|3:0|3:0,3:0:0:0:
372,24,21173,1,2,3:0:0:0:
232,32,21481,6,0,P|266:39|296:72,1,77.999997619629,0|0,3:0|3:0,3:0:0:0:
312,128,21788,1,2,3:0:0:0:
320,136,21866,1,0,0:0:0:0:
320,136,21943,1,0,0:0:0:0:
424,160,22250,5,0,0:0:0:0:
375,208,22404,1,2,3:0:0:0:
323,254,22558,1,0,0:0:0:0:
271,300,22712,1,0,0:0:0:0:
200,300,22865,2,0,L|108:300,1,77.999997619629,0|2,3:0|3:0,3:0:0:0:
24,184,23327,5,0,0:0:0:0:
84,72,23635,1,2,3:0:0:0:
96,208,23943,6,0,P|97:172|136:152,1,77.999997619629,0|0,3:0|3:0,3:0:0:0:
200,160,24250,1,2,3:0:0:0:
200,160,24328,1,0,0:0:0:0:
200,160,24405,1,0,0:0:0:0:
280,112,24712,5,0,0:0:0:0:
329,160,24865,1,2,3:0:0:0:
381,206,25020,1,0,0:0:0:0:
433,252,25174,1,0,0:0:0:0:
432,320,25328,6,0,L|400:368,2,38.9999988098145,0|0|2,3:0|3:0|3:0,3:0:0:0:
360,316,25635,2,0,L|320:368,2,38.9999988098145,0|0|0,3:0|3:0|3:0,3:0:0:0:
252,312,26097,1,2,3:0:0:0:
160,256,26405,6,0,P|188:234|232:232,1,77.999997619629,0|0,3:0|3:0,3:0:0:0:
296,264,26711,1,2,3:0:0:0:
296,264,26788,1,0,0:0:0:0:
296,264,26865,1,0,0:0:0:0:
416,244,27173,5,0,0:0:0:0:
367,196,27327,1,2,3:0:0:0:
315,150,27482,1,0,0:0:0:0:
263,104,27636,1,0,0:0:0:0:
192,104,27788,2,0,L|112:104,1,77.999997619629,0|2,3:0|3:0,3:0:0:0:
192,216,28250,5,0,0:0:0:0:
280,164,28558,1,2,3:0:0:0:
240,292,28866,6,0,P|258:261|304:240,1,77.999997619629,0|0,3:0|3:0,3:0:0:0:
368,240,29173,1,2,3:0:0:0:
368,240,29251,1,0,0:0:0:0:
368,240,29328,1,0,0:0:0:0:
448,294,29635,5,0,0:0:0:0:
379,295,29789,1,2,3:0:0:0:
310,293,29943,1,0,0:0:0:0:
240,292,30097,1,0,0:0:0:0:
168,288,30250,6,0,L|128:320,2,38.9999988098145,0|0|2,3:0|3:0|3:0,3:0:0:0:
164,216,30558,2,0,L|120:248,2,38.9999988098145,0|0|0,3:0|3:0|3:0,3:0:0:0:
168,112,31020,1,2,3:0:0:0:
48,144,31328,6,0,P|83:145|120:168,1,77.999997619629,0|0,3:0|3:0,3:0:0:0:
176,216,31636,1,2,3:0:0:0:
176,216,31711,1,0,0:0:0:0:
176,216,31788,1,0,0:0:0:0:
172,300,32096,5,0,0:0:0:0:
221,252,32251,1,2,3:0:0:0:
273,206,32405,1,0,0:0:0:0:
325,160,32559,1,0,0:0:0:0:
392,160,32712,2,0,L|480:160,1,77.999997619629,0|2,3:0|3:0,3:0:0:0:
488,56,33174,5,4,0:0:0:0:
384,56,33481,1,2,3:0:0:0:
432,136,33788,2,0,P|384:156|312:128,1,130,4|2,3:0|3:0,3:0:0:0:
236,80,34404,5,0,0:0:0:0:
236,172,34711,1,2,3:0:0:0:
152,120,35019,2,0,P|137:159|164:248,1,130,4|2,3:0|3:0,3:0:0:0:
208,280,35481,1,8,0:0:0:0:
344,280,35942,5,2,3:0:0:0:
304,352,36250,2,0,P|248:372|168:336,1,130,4|2,3:0|3:0,3:0:0:0:
136,312,36711,1,8,0:0:0:0:
136,64,37173,5,2,3:0:0:0:
136,312,37788,1,2,3:0:0:0:
32,312,38096,5,0,0:0:0:0:
32,208,38404,1,2,3:0:0:0:
112,256,38711,2,0,P|128:192|104:128,1,130,4|2,3:0|3:0,3:0:0:0:
64,88,39173,5,8,0:0:0:0:
184,96,39635,1,2,3:0:0:0:
256,160,39942,2,0,P|286:104|265:39,1,130,4|2,3:0|3:0,3:0:0:0:
216,8,40404,1,8,0:0:0:0:
384,48,41327,5,0,0:0:0:0:
384,128,41481,1,2,3:0:0:0:
448,88,41635,2,0,L|512:88,1,65,0|0,3:0|3:0,3:0:0:0:
368,264,43019,5,4,0:0:0:0:
304,336,43326,1,2,3:0:0:0:
264,248,43635,2,0,P|250:295|184:336,1,130,4|2,3:0|3:0,3:0:0:0:
96,304,44250,5,0,0:0:0:0:
48,224,44558,1,2,3:0:0:0:
136,224,44865,2,0,P|171:201|200:96,1,130,4|2,3:0|3:0,3:0:0:0:
160,8,45481,1,0,0:0:0:0:
280,8,45787,5,2,3:0:0:0:
416,88,46096,2,0,P|393:135|328:176,1,130,4|0,3:0|3:0,3:0:0:0:
272,176,46558,1,8,0:0:0:0:
160,192,47327,5,0,0:0:0:0:
352,192,47635,1,0,0:0:0:0:
256,192,47942,12,2,49173,3:0:0:0:
256,96,49788,5,0,0:0:0:0:
256,288,50096,1,0,0:0:0:0:
256,192,50404,12,0,51635,3:0:0:0:
256,304,52865,5,0,0:0:0:0:
136,304,53173,1,0,0:0:0:0:
32,240,53481,6,0,P|43:206|88:184,1,84.4999961318971,0|0,3:0|3:0,3:0:0:0:
160,192,53789,1,2,3:0:0:0:
160,192,53866,1,0,0:0:0:0:
160,192,53943,1,0,0:0:0:0:
240,192,54250,5,0,0:0:0:0:
289,240,54404,1,2,3:0:0:0:
341,286,54558,1,0,0:0:0:0:
393,332,54712,1,0,0:0:0:0:
448,288,54866,6,0,L|496:256,2,42.2499980659486,0|0|2,3:0|3:0|3:0,3:0:0:0:
448,216,55173,2,0,L|488:184,2,42.2499980659486,0|0|0,3:0|3:0|3:0,3:0:0:0:
352,216,55635,1,2,3:0:0:0:
336,304,55943,6,0,P|296:286|272:240,1,84.4999961318971,0|0,3:0|3:0,3:0:0:0:
256,200,56250,1,2,3:0:0:0:
256,200,56328,1,0,0:0:0:0:
256,200,56405,1,0,0:0:0:0:
144,192,56712,5,0,3:0:0:0:
185,137,56866,1,2,3:0:0:0:
229,83,57020,1,0,3:0:0:0:
273,29,57174,1,0,3:0:0:0:
320,80,57327,2,0,L|384:144,1,84.4999961318971,0|2,3:0|3:0,3:0:0:0:
432,200,57788,5,0,0:0:0:0:
432,288,58096,1,2,3:0:0:0:
408,368,58404,6,0,P|360:351|344:312,1,84.4999961318971,0|0,3:0|3:0,3:0:0:0:
328,272,58712,1,2,3:0:0:0:
328,272,58789,1,0,0:0:0:0:
328,272,58866,1,0,0:0:0:0:
224,272,59173,5,0,0:0:0:0:
186,214,59327,1,2,3:0:0:0:
150,154,59481,1,0,0:0:0:0:
115,95,59635,1,0,0:0:0:0:
176,64,59789,6,0,L|128:32,2,42.2499980659486,0|0|2,3:0|3:0|3:0,3:0:0:0:
239,32,60096,2,0,L|192:0,2,42.2499980659486,0|0|0,3:0|3:0|3:0,3:0:0:0:
328,32,60558,1,2,3:0:0:0:
312,144,60866,6,0,P|348:106|384:104,1,84.4999961318971,0|0,3:0|3:0,3:0:0:0:
448,112,61174,1,2,3:0:0:0:
448,112,61251,1,0,0:0:0:0:
448,112,61328,1,0,0:0:0:0:
472,192,61635,5,0,3:0:0:0:
411,225,61789,1,2,3:0:0:0:
349,255,61943,1,0,3:0:0:0:
287,287,62097,1,0,3:0:0:0:
216,312,62250,2,0,L|160:232,1,84.4999961318971,0|2,3:0|3:0,3:0:0:0:
112,128,62711,5,4,0:0:0:0:
152,32,63018,1,2,3:0:0:0:
256,104,63327,2,0,P|216:116|136:88,1,130,4|2,3:0|3:0,3:0:0:0:
64,184,63941,5,0,0:0:0:0:
120,280,64250,1,2,3:0:0:0:
168,144,64558,2,0,P|149:205|80:240,1,130,4|2,3:0|3:0,3:0:0:0:
40,240,65018,1,8,0:0:0:0:
136,312,65481,5,2,3:0:0:0:
248,352,65788,2,0,P|299:332|336:264,1,130,4|2,3:0|3:0,3:0:0:0:
336,200,66250,1,8,0:0:0:0:
320,128,66404,5,0,0:0:0:0:
224,64,66712,2,0,P|173:84|136:152,1,130,2|0,3:0|3:0,3:0:0:0:
144,208,67173,1,8,0:0:0:0:
32,248,67635,5,0,3:0:0:0:
88,170,67943,1,2,0:0:0:0:
144,296,68250,2,0,P|111:237|56:216,1,130,4|2,3:0|3:0,3:0:0:0:
24,128,68865,5,0,0:0:0:0:
160,128,69172,1,6,0:0:0:0:
88,0,69481,2,0,P|74:40|96:128,1,130,4|2,3:0|3:0,3:0:0:0:
112,184,69942,1,8,0:0:0:0:
152,248,70866,5,0,0:0:0:0:
224,272,71019,1,2,3:0:0:0:
216,200,71174,2,0,L|192:264,1,65,0|0,3:0|3:0,3:0:0:0:
144,248,72558,5,0,0:0:0:0:
256,160,72865,1,2,0:0:0:0:
144,248,73173,2,0,P|176:288|256:296,1,130,4|2,3:0|3:0,3:0:0:0:
359,266,73788,5,0,0:0:0:0:
256,160,74095,1,2,0:0:0:0:
359,266,74403,2,0,P|391:230|393:148,1,130,4|2,3:0|3:0,3:0:0:0:
349,61,75019,5,0,0:0:0:0:
256,160,75326,1,2,0:0:0:0:
349,61,75634,2,0,P|311:18|235:22,1,130,4|2,3:0|3:0,3:0:0:0:
151,77,76250,5,0,0:0:0:0:
256,160,76557,1,2,0:0:0:0:
151,77,76865,2,0,P|121:104|122:204,1,130,4|2,3:0|3:0,3:0:0:0:
112,304,77481,6,0,P|80:256|11:235,1,130,0|0,3:0|3:0,3:0:0:0:
112,304,78096,1,4,3:0:0:0:
160,232,78404,1,2,0:0:0:0:
261,303,78711,6,0,P|229:255|155:235,1,130,0|2,3:0|3:0,3:0:0:0:
261,303,79327,1,4,3:0:0:0:
320,232,79635,1,2,0:0:0:0:
432,208,79942,5,0,0:0:0:0:
384,296,80250,1,2,0:0:0:0:
344,208,80558,1,2,0:0:0:0:
304,296,80865,1,2,0:0:0:0:
256,208,81173,5,2,0:0:0:0:
192,208,81327,1,2,0:0:0:0:
224,152,81481,1,2,0:0:0:0:
160,152,81635,1,2,0:0:0:0:
192,96,81788,1,2,0:0:0:0:
128,96,81942,1,2,0:0:0:0:
160,40,82096,1,2,0:0:0:0:
416,40,82409,6,0,P|448:72|448:112,1,84.4999961318972,0|0,0:0|0:0,3:0:0:0:
416,168,82716,2,0,P|372:180|337:161,1,84.4999961318972,4|0,3:0|0:0,3:0:0:0:
304,112,83024,1,2,3:0:0:0:
416,40,83485,5,0,0:0:0:0:
416,168,83947,2,0,P|372:180|337:161,1,84.4999961318972,4|0,3:0|0:0,3:0:0:0:
304,112,84255,1,2,3:0:0:0:
208,112,84716,5,0,0:0:0:0:
96,40,85178,1,4,3:0:0:0:
56,104,85332,1,0,0:0:0:0:
96,168,85485,1,2,3:0:0:0:
208,112,85793,6,0,P|209:66|182:37,1,84.4999961318972,0|0,0:0|0:0,3:0:0:0:
96,40,86409,6,0,P|60:68|56:108,1,84.4999961318972,4|0,3:0|3:0,3:0:0:0:
96,168,86716,1,2,3:0:0:0:
153,117,87173,6,0,P|111:133|95:170,1,84.4999961318972,0|0,0:0|0:0,3:0:0:0:
96,224,87480,1,0,0:0:0:0:
144,272,87634,1,4,3:0:0:0:
256,192,87942,1,2,3:0:0:0:
359,117,88403,6,0,P|401:133|417:170,1,84.4999961318972,0|0,0:0|0:0,3:0:0:0:
416,232,88710,1,0,0:0:0:0:
368,272,88864,1,4,3:0:0:0:
256,192,89173,1,2,3:0:0:0:
160,336,89634,5,0,0:0:0:0:
64,208,89942,1,0,0:0:0:0:
80,144,90096,1,4,3:0:0:0:
136,112,90249,1,0,0:0:0:0:
184,152,90403,6,0,P|225:169|262:154,1,84.4999961318972,2|0,3:0|0:0,3:0:0:0:
304,112,90711,1,4,3:0:0:0:
360,112,90865,1,0,0:0:0:0:
392,168,91019,6,0,L|479:175,1,84.4999961318972,2|0,3:0|0:0,3:0:0:0:
472,264,91326,6,0,L|384:271,1,84.4999961318972,2|0,3:0|0:0,3:0:0:0:
296,272,91634,2,0,L|184:263,1,84.4999961318972,2|0,3:0|0:0,3:0:0:0:
304,40,92100,6,0,P|262:56|246:93,1,84.4999961318972,0|0,0:0|0:0,3:0:0:0:
264,160,92407,1,0,0:0:0:0:
272,232,92561,1,4,3:0:0:0:
208,264,92715,1,0,0:0:0:0:
144,248,92869,1,2,3:0:0:0:
188,39,93330,6,0,P|230:55|246:92,1,84.4999961318972,0|0,0:0|0:0,3:0:0:0:
228,159,93637,1,0,0:0:0:0:
220,231,93791,1,4,3:0:0:0:
284,263,93945,1,0,0:0:0:0:
348,247,94099,1,2,3:0:0:0:
408,128,94561,6,0,P|383:90|343:82,1,84.4999961318972,0|0,0:3|0:3,3:3:0:0:
280,80,94869,1,0,0:0:0:0:
216,96,95023,1,4,3:0:0:0:
160,136,95176,1,0,0:0:0:0:
120,192,95330,1,2,3:0:0:0:
200,264,95638,5,0,0:0:0:0:
240,208,95792,2,0,P|282:220|301:255,2,84.4999961318972,0|0|0,0:0|0:0|0:0,3:0:0:0:
176,216,96253,6,0,P|137:239|128:278,1,84.4999961318972,4|0,3:0|3:0,3:0:0:0:
152,336,96561,2,0,P|116:357|76:348,1,84.4999961318971,2|0,3:0|0:0,0:0:0:0:
24,304,96869,2,0,P|3:268|12:228,1,84.4999961318972,0|0,0:0|0:0,3:0:0:0:
32,176,97176,6,0,P|80:144|128:160,2,84.4999961318971,0|0|2,0:0|0:0|3:0,3:0:0:0:
144,192,97791,2,0,P|199:177|220:131,2,84.4999961318971,0|0|2,2:0|2:0|3:0,3:0:0:0:
232,95,98406,2,0,P|280:63|328:79,2,84.4999961318971,0|0|2,0:0|0:0|3:0,3:0:0:0:
368,88,99022,2,0,P|423:73|444:27,2,84.4999961318971,0|0|2,2:0|2:0|3:0,3:0:0:0:
280,192,99637,6,0,P|321:208|337:245,3,84.4999961318972,0|0|2|0,0:0|0:0|3:0|0:0,3:0:0:0:
336,304,100252,6,0,P|371:329|411:322,3,84.4999961318972,0|0|2|0,0:0|0:0|3:0|0:0,3:0:0:0:
432,256,100868,6,0,P|397:230|357:237,3,84.4999961318972,0|0|2|0,0:0|0:0|3:0|0:0,3:0:0:0:
304,272,101483,2,0,L|232:344,1,84.4999961318971,2|0,3:0|0:0,3:0:0:0:
464,328,111965,5,4,0:0:0:0:
432,232,112272,1,2,3:0:0:0:
368,304,112580,2,0,P|316:301|262:246,1,130,4|2,3:0|3:0,3:0:0:0:
272,144,113195,5,0,0:0:0:0:
336,48,113502,1,2,3:0:0:0:
384,136,113810,2,0,P|391:177|349:259,1,130,4|2,3:0|3:0,3:0:0:0:
296,272,114272,1,8,0:0:0:0:
176,272,114734,5,2,3:0:0:0:
232,184,115041,2,0,P|176:164|96:200,1,130,4|2,3:0|3:0,3:0:0:0:
64,224,115502,1,8,0:0:0:0:
48,288,115657,2,0,P|70:342|150:378,1,130,4|2,3:0|3:0,3:0:0:0:
240,368,116272,1,0,0:0:0:0:
240,264,116579,1,2,3:0:0:0:
336,304,116887,5,0,0:0:0:0:
336,200,117195,1,2,3:0:0:0:
256,240,117503,2,0,P|240:184|264:112,1,130,4|2,3:0|3:0,3:0:0:0:
304,72,117964,5,8,0:0:0:0:
384,240,118426,1,2,3:0:0:0:
480,192,118733,2,0,P|510:136|489:71,1,130,4|2,3:0|3:0,3:0:0:0:
448,32,119195,1,8,0:0:0:0:
336,152,120118,5,0,0:0:0:0:
283,218,120272,1,2,3:0:0:0:
368,232,120426,2,0,L|373:295,1,65,0|0,3:0|3:0,3:0:0:0:
304,80,121810,5,4,0:0:0:0:
384,24,122117,1,2,3:0:0:0:
472,72,122426,2,0,P|458:119|392:160,1,130,4|2,3:0|3:0,3:0:0:0:
280,152,123041,5,0,0:0:0:0:
200,72,123349,1,2,3:0:0:0:
88,88,123657,2,0,P|53:111|32:192,1,130,4|2,3:0|3:0,3:0:0:0:
96,280,124272,1,0,0:0:0:0:
184,224,124580,5,2,3:0:0:0:
304,232,124888,2,0,P|349:258|385:325,1,130,4|0,3:0|3:0,3:0:0:0:
368,376,125349,1,8,0:0:0:0:
136,304,126118,5,0,0:0:0:0:
136,72,126426,1,0,0:0:0:0:
256,192,126733,12,2,127964,3:0:0:0:
376,80,128580,5,0,0:0:0:0:
376,312,128888,1,0,0:0:0:0:
256,192,129195,12,0,130426,3:0:0:0:
32,352,131657,5,4,0:0:0:0:
160,352,131964,1,2,3:0:0:0:
96,264,132273,2,0,P|78:226|95:142,1,130,4|2,3:0|3:0,3:0:0:0:
192,88,132887,5,0,0:0:0:0:
296,176,133194,1,2,3:0:0:0:
288,80,133504,2,0,P|320:24|395:6,1,130,4|2,3:0|3:0,3:0:0:0:
440,24,133964,1,8,0:0:0:0:
448,160,134427,5,2,3:0:0:0:
376,288,134734,2,0,P|321:294|256:251,1,130,4|2,3:0|3:0,3:0:0:0:
232,192,135194,1,8,0:0:0:0:
232,128,135350,5,0,0:0:0:0:
192,32,135658,2,0,P|138:18|69:51,1,130,2|0,3:0|3:0,3:0:0:0:
32,104,136119,1,8,0:0:0:0:
96,232,136581,5,0,3:0:0:0:
184,152,136889,1,2,0:0:0:0:
200,256,137196,2,0,P|241:309|299:321,1,130,4|2,3:0|3:0,3:0:0:0:
408,272,137811,5,0,0:0:0:0:
448,144,138118,1,6,0:0:0:0:
336,184,138427,2,0,P|293:186|221:241,1,130,4|2,3:0|3:0,3:0:0:0:
200,288,138888,1,8,0:0:0:0:
200,288,139812,5,0,0:0:0:0:
272,312,139965,1,2,3:0:0:0:
264,240,140118,2,0,L|240:304,1,65,0|0,3:0|3:0,3:0:0:0:
56,200,141503,5,0,0:0:0:0:
112,128,141810,1,2,0:0:0:0:
176,192,142118,2,0,L|120:264,2,65
232,120,142734,5,0,0:0:0:0:
168,64,143040,1,2,0:0:0:0:
232,0,143349,2,0,L|296:56,2,65
360,104,143965,5,0,0:0:0:0:
296,176,144271,1,2,0:0:0:0:
432,160,144580,2,0,L|376:232,2,65
496,64,145195,5,0,0:0:0:0:
408,16,145502,1,2,0:0:0:0:
352,88,145811,2,0,L|424:136,2,65
304,176,146426,6,0,L|376:224,2,65
216,80,147041,1,4,3:0:0:0:
128,184,147349,1,2,0:0:0:0:
216,264,147657,2,0,L|160:336,2,65
304,152,148272,1,4,3:0:0:0:
384,40,148580,1,2,0:0:0:0:
480,104,148887,5,0,0:0:0:0:
392,176,149195,1,2,0:0:0:0:
488,248,149503,1,2,0:0:0:0:
384,304,149810,1,2,0:0:0:0:
312,208,150118,5,2,0:0:0:0:
280,264,150272,1,2,0:0:0:0:
248,208,150426,1,2,0:0:0:0:
216,264,150580,1,2,0:0:0:0:
184,208,150733,1,2,0:0:0:0:
72,40,151329,6,0,P|104:72|104:112,1,84.4999961318972,0|0,0:0|0:0,3:0:0:0:
56,180,151636,2,0,P|59:225|89:251,1,84.4999961318972,4|0,3:0|0:0,3:0:0:0:
172,284,151944,1,2,3:0:0:0:
72,40,152405,5,0,0:0:0:0:
56,180,152867,2,0,P|59:225|89:251,1,84.4999961318972,4|0,3:0|0:0,3:0:0:0:
172,284,153175,1,2,3:0:0:0:
416,284,153636,5,0,0:0:0:0:
376,152,154098,1,4,3:0:0:0:
300,144,154252,1,0,0:0:0:0:
259,208,154405,1,2,3:0:0:0:
416,284,154713,6,0,P|434:242|421:204,1,84.4999961318972,0|0,3:0|3:0,3:0:0:0:
300,144,155329,6,0,P|264:172|260:212,1,84.4999961318972,4|0,3:0|3:0,3:0:0:0:
276,264,155636,1,2,3:0:0:0:
243,51,156098,6,0,P|199:42|166:65,1,84.4999961318972,0|0,2:0|2:0,2:0:0:0:
144,128,156405,1,0,0:0:0:0:
168,196,156559,1,4,3:0:0:0:
256,296,156867,1,2,3:0:0:0:
268,51,157329,6,0,P|312:42|345:65,1,84.4999961318972,0|0,2:0|2:0,2:0:0:0:
360,128,157636,1,0,0:0:0:0:
344,196,157790,1,4,3:0:0:0:
256,296,158098,1,2,3:0:0:0:
256,296,158559,5,0,0:0:0:0:
376,224,158867,1,0,0:0:0:0:
400,160,159021,1,4,3:0:0:0:
376,96,159175,1,0,0:0:0:0:
320,64,159329,6,0,P|279:55|244:78,1,84.4999961318972,2|0,3:0|0:0,3:0:0:0:
216,136,159636,1,0,0:0:0:0:
208,204,159790,1,0,0:0:0:0:
200,268,159944,6,0,L|193:355,1,84.4999961318972,2|0,3:0|0:0,3:0:0:0:
113,356,160252,6,0,L|106:268,1,84.4999961318972,2|0,3:0|0:0,3:0:0:0:
105,188,160559,2,0,L|114:76,1,84.4999961318972,2|0,3:0|0:0,3:0:0:0:
232,32,161021,5,0,0:0:0:0:
296,24,161182,1,0,3:0:0:0:
360,40,161335,1,0,0:0:0:0:
408,88,161489,1,4,3:0:0:0:
432,144,161643,2,0,P|424:188|367:229,1,84.4999961318971,0|2,0:0|3:0,3:0:0:0:
248,280,162258,5,0,0:0:0:0:
176,288,162412,1,0,3:0:0:0:
112,272,162566,1,0,0:0:0:0:
64,224,162720,1,4,3:0:0:0:
40,168,162874,2,0,P|47:123|104:82,1,84.4999961318971,0|2,0:0|3:0,3:0:0:0:
240,32,163490,5,0,0:0:0:0:
288,80,163644,1,0,3:0:0:0:
304,144,163797,1,0,0:0:0:0:
304,208,163951,1,4,3:0:0:0:
272,264,164105,2,0,P|236:293|196:288,1,84.4999961318972,0|2,0:3|3:0,3:3:0:0:
112,224,164567,5,0,0:0:0:0:
144,168,164721,2,0,P|186:180|205:215,2,84.4999961318972,0|0|0,0:0|0:0|0:0,3:0:0:0:
80,176,165182,6,0,P|41:199|32:238,1,84.4999961318972,4|0,3:0|3:0,3:0:0:0:
32,296,165490,2,0,P|43:336|78:357,1,84.4999961318971,2|0,3:0|0:0,0:0:0:0:
136,368,165798,2,0,P|177:364|205:334,1,84.4999961318972,0|0,0:0|0:0,3:0:0:0:
233,270,166105,6,0,L|243:150,2,84.4999961318971,0|0|2,0:0|0:0|3:0,3:0:0:0:
320,208,166720,2,0,L|328:110,2,84.4999961318971,0|0|2,2:0|2:0|3:0,3:0:0:0:
408,144,167335,2,0,L|415:56,2,84.4999961318971,0|0|2,0:0|0:0|3:0,3:0:0:0:
496,96,167951,2,0,L|503:8,2,84.4999961318971,0|0|2,2:0|2:0|3:0,3:0:0:0:
408,136,168566,6,0,L|472:200,3,84.4999961318971,0|0|2|0,0:0|0:0|3:0|0:0,3:0:0:0:
352,192,169181,6,0,L|416:256,3,84.4999961318971,0|0|2|0,0:0|0:0|3:0|0:0,3:0:0:0:
296,248,169797,6,0,L|368:320,3,84.4999961318971,0|0|2|0,0:0|0:0|3:0|0:0,3:0:0:0:
240,304,170412,6,0,L|160:376,1,84.4999961318971,2|0,3:0|0:0,3:0:0:0:
304,40,171028,6,0,L|295:135,1,84.4999961318971,0|0,0:0|0:0,3:0:0:0:
296,200,171335,2,0,L|305:311,1,84.4999961318971,4|0,3:0|0:0,3:0:0:0:
312,352,171643,1,2,3:0:0:0:
376,40,172104,5,0,0:0:0:0:
368,200,172566,2,0,L|377:311,1,84.4999961318971,4|0,3:0|0:0,3:0:0:0:
384,352,172874,1,2,3:0:0:0:
200,352,173335,5,0,0:0:0:0:
192,256,173797,1,4,3:0:0:0:
183,191,173951,1,0,0:0:0:0:
176,128,174104,1,2,3:0:0:0:
272,352,174412,6,0,L|264:264,1,84.4999961318971,0|0,3:0|3:0,3:0:0:0:
344,352,175028,6,0,L|336:264,1,84.4999961318971,4|0,3:0|3:0,3:0:0:0:
328,200,175335,1,2,3:0:0:0:
440,40,175797,6,0,L|449:151,1,84.4999961318971,0|0,2:0|2:0,2:0:0:0:
456,192,176105,1,0,0:0:0:0:
464,256,176258,1,4,3:0:0:0:
376,368,176566,1,2,3:0:0:0:
368,40,177028,6,0,L|377:151,1,84.4999961318971,0|0,2:0|2:0,2:0:0:0:
384,192,177335,1,0,0:0:0:0:
392,256,177489,1,4,3:0:0:0:
304,368,177797,1,2,3:0:0:0:
128,368,178258,5,0,0:0:0:0:
24,328,178566,1,0,0:0:0:0:
24,264,178720,1,4,3:0:0:0:
24,200,178874,1,0,0:0:0:0:
24,136,179028,6,0,L|32:40,1,84.4999961318971,2|0,3:0|0:0,3:0:0:0:
40,0,179335,1,0,0:0:0:0:
104,8,179489,1,0,0:0:0:0:
168,24,179643,6,0,L|168:112,1,84.4999961318971,2|0,3:0|0:0,3:0:0:0:
208,152,179951,6,0,L|208:240,1,84.4999961318971,2|0,3:0|0:0,3:0:0:0:
256,272,180258,2,0,L|256:384,1,84.4999961318971,2|0,3:0|0:0,3:0:0:0:
384,304,180720,5,0,0:0:0:0:
408,240,180874,1,0,3:0:0:0:
416,176,181028,1,0,0:0:0:0:
408,112,181182,1,4,3:0:0:0:
368,64,181335,2,0,P|329:41|261:59,1,84.4999961318971,0|2,0:0|3:0,3:0:0:0:
200,152,181951,5,0,0:0:0:0:
192,216,182105,1,0,3:0:0:0:
152,264,182258,1,0,0:0:0:0:
88,272,182412,1,4,3:0:0:0:
40,240,182566,2,0,P|20:198|44:132,1,84.4999961318971,0|2,0:0|3:0,3:0:0:0:
175,16,183182,5,0,0:0:0:0:
181,80,183335,1,0,3:0:0:0:
186,143,183489,1,0,0:0:0:0:
192,207,183643,1,4,3:0:0:0:
200,272,183797,2,0,L|208:367,1,84.4999961318971,0|2,0:3|3:3,3:3:0:0:
288,304,184258,5,0,0:0:0:0:
288,240,184412,2,0,P|330:252|349:287,2,84.4999961318971,0|0|0,0:0|0:0|0:0,3:0:0:0:
224,248,184874,6,0,P|185:271|176:310,1,84.4999961318972,4|0,3:0|3:0,3:0:0:0:
152,352,185182,2,0,P|115:372|76:362,1,84.4999961318971,2|0,3:0|0:0,0:0:0:0:
48,304,185489,2,0,P|53:263|84:236,1,84.4999961318972,0|0,0:0|0:0,3:0:0:0:
144,208,185797,6,0,L|154:88,2,84.4999961318971,0|0|2,0:0|0:0|3:0,3:0:0:0:
248,184,186412,2,0,L|346:192,2,84.4999961318971,0|0|2,2:0|2:0|3:0,3:0:0:0:
240,288,187028,2,0,L|233:376,2,84.4999961318971,0|0|2,0:0|0:0|3:0,3:0:0:0:
132,310,187643,2,0,L|44:303,2,84.4999961318971,0|0|2,2:0|2:0|3:0,3:0:0:0:
152,184,188258,6,0,L|216:248,3,84.4999961318971,0|0|2|0,0:0|0:0|3:0|0:0,3:0:0:0:
256,176,188874,6,0,L|320:240,3,84.4999961318971,0|0|2|0,0:0|0:0|3:0|0:0,3:0:0:0:
256,176,189797,6,0,L|176:248,3,84.4999961318971,2|0|2|2,3:0|0:0|3:0|3:0,3:0:0:0:
