osu file format v14

[General]
AudioFilename: audio.mp3
AudioLeadIn: 0
PreviewTime: -1
Countdown: 1
SampleSet: Normal
StackLeniency: 0.7
Mode: 0
LetterboxInBreaks: 0
WidescreenStoryboard: 0

[Editor]
DistanceSpacing: 0.9
BeatDivisor: 4
GridSize: 4
TimelineZoom: 0.8387201

[Metadata]
Title:Palette
TitleUnicode:Palette
Artist:Nano
ArtistUnicode:ナノ
Creator:iWumpZ
Version:Insane
Source:
Tags:
BeatmapID:1221126
BeatmapSetID:576865

[Difficulty]
HPDrainRate:6
CircleSize:4
OverallDifficulty:7
ApproachRate:9
SliderMultiplier:1.7
SliderTickRate:1

[Events]
//Background and Video events
//Break Periods
//Storyboard Layer 0 (Background)
//Storyboard Layer 1 (Fail)
//Storyboard Layer 2 (Pass)
//Storyboard Layer 3 (Foreground)
//Storyboard Sound Samples

[TimingPoints]
651,333.333333333333,4,1,0,100,1,0

[HitObjects]
104,232,31650,5,0,0:0:0:0:
256,112,31984,1,0,0:0:0:0:
376,280,32317,1,0,0:0:0:0:
388,100,32650,5,0,0:0:0:0:
388,100,32734,1,0,0:0:0:0:
388,100,32817,2,0,P|392:148|332:184,1,85
304,216,33150,1,0,0:0:0:0:
128,128,33317,1,0,0:0:0:0:
152,272,33484,5,0,0:0:0:0:
152,272,33567,1,0,0:0:0:0:
152,272,33650,2,0,P|192:248|212:188,1,85
344,268,33984,6,0,P|280:256|260:216,1,85
180,80,34317,2,0,P|244:96|272:128,1,85
360,180,34650,1,0,0:0:0:0:
128,184,34817,1,0,0:0:0:0:
256,296,34984,1,0,0:0:0:0:
192,72,35150,5,0,0:0:0:0:
60,200,35317,1,0,0:0:0:0:
192,264,35484,1,0,0:0:0:0:
232,268,35567,1,0,0:0:0:0:
276,264,35650,1,0,0:0:0:0:
316,248,35734,1,0,0:0:0:0:
352,228,35817,2,0,P|384:196|396:156,1,85
300,64,36150,5,0,0:0:0:0:
136,128,36317,1,0,0:0:0:0:
200,276,36484,1,0,0:0:0:0:
380,212,36650,1,0,0:0:0:0:
340,228,36734,1,0,0:0:0:0:
296,236,36817,1,0,0:0:0:0:
252,236,36900,1,0,0:0:0:0:
212,228,36984,2,0,P|168:204|148:148,1,85
300,92,37317,5,0,0:0:0:0:
424,200,37484,1,0,0:0:0:0:
308,312,37650,1,0,0:0:0:0:
160,288,37817,1,0,0:0:0:0:
128,260,37900,1,0,0:0:0:0:
96,228,37984,1,0,0:0:0:0:
84,184,38067,1,0,0:0:0:0:
88,140,38150,2,0,P|104:96|144:72,1,85
280,48,38484,5,0,0:0:0:0:
440,156,38650,1,0,0:0:0:0:
408,328,38817,1,0,0:0:0:0:
312,320,38984,1,0,0:0:0:0:
272,324,39067,1,0,0:0:0:0:
232,320,39150,1,0,0:0:0:0:
192,316,39234,1,0,0:0:0:0:
152,308,39317,1,0,0:0:0:0:
116,280,39400,1,0,0:0:0:0:
96,240,39484,1,0,0:0:0:0:
96,192,39567,1,0,0:0:0:0:
124,164,39650,1,0,0:0:0:0:
164,160,39734,1,0,0:0:0:0:
196,168,39817,1,0,0:0:0:0:
236,176,39900,1,0,0:0:0:0:
264,188,39984,1,0,0:0:0:0:
300,196,40067,5,0,0:0:0:0:
332,200,40150,1,0,0:0:0:0:
360,200,40234,1,0,0:0:0:0:
400,192,40317,1,0,0:0:0:0:
420,176,40400,1,0,0:0:0:0:
448,156,40484,2,0,P|476:112|460:56,1,85
