osu file format v14

[General]
AudioFilename: audio.mp3
AudioLeadIn: 0
PreviewTime: -1
Countdown: 1
SampleSet: Normal
StackLeniency: 1
Mode: 0
LetterboxInBreaks: 0
WidescreenStoryboard: 0

[Editor]
Bookmarks: 1212,14750,34904,59058,73827,78750,88596,98442,113212,132596,152673,164904,174750
DistanceSpacing: 1.2
BeatDivisor: 4
GridSize: 16
TimelineZoom: 2.400005

[Metadata]
Title:PARAISO
TitleUnicode:PARAISO
Artist:Nano
ArtistUnicode:ナノ
Creator:JewMongler
Version:Muzukashii
Source:Nano
Tags:Nano PARAISO ナノ MY LIBERATION Chain Chronicle: Haecceitas no Hikari チェインクロニクル~ヘクセイタスの閃〈ひかり〉
BeatmapID:1357547
BeatmapSetID:640172

[Difficulty]
HPDrainRate:6
CircleSize:4
OverallDifficulty:8.5
ApproachRate:9.5
SliderMultiplier:2
SliderTickRate:1

[Events]
//Background and Video events
0,0,"snow.jpg",0,0
//Break Periods
2,152888,159381
//Storyboard Layer 0 (Background)
//Storyboard Layer 1 (Fail)
//Storyboard Layer 2 (Pass)
//Storyboard Layer 3 (Foreground)
//Storyboard Sound Samples

[TimingPoints]
1228,307.692307692308,4,1,0,100,1,0
1228,-166.666666666667,4,1,0,10,0,0
3381,-166.666666666667,4,1,0,10,0,0
5997,-166.666666666667,4,1,0,10,0,0
10766,-166.666666666667,4,1,0,20,0,0
11381,-166.666666666667,4,1,0,30,0,0
11997,-166.666666666667,4,1,0,40,0,0
14766,-100,4,1,0,50,0,0
19689,-90.9090909090909,4,1,0,50,0,0
23689,-153.846153846154,4,1,0,15,0,0
23843,-142.857142857143,4,1,0,20,0,0
23997,-133.333333333333,4,1,0,25,0,0
24151,-125,4,1,0,30,0,0
24304,-117.647058823529,4,1,0,35,0,0
24458,-100,4,1,0,40,0,0
24920,-90.9090909090909,4,1,0,45,0,0
31689,-142.857142857143,4,1,0,20,0,0
31843,-133.333333333333,4,1,0,25,0,0
31997,-125,4,1,0,30,0,0
32151,-117.647058823529,4,1,0,35,0,0
32304,-100,4,1,0,40,0,0
33074,-90.9090909090909,4,1,0,50,0,0
34920,-100,4,1,0,40,0,0
42304,-90.9090909090909,4,1,0,40,0,0
42612,-83.3333333333333,4,1,0,40,0,0
43228,-100,4,1,0,40,0,0
54151,-133.333333333333,4,1,0,20,0,0
56304,-100,4,1,0,50,0,0
59074,-83.3333333333333,4,1,0,50,0,1
60151,-76.9230769230769,4,1,0,50,0,1
60612,-83.3333333333333,4,1,0,50,0,1
69535,-133.333333333333,4,1,0,50,0,1
69997,-83.3333333333333,4,1,0,50,0,1
73843,-100,4,1,0,35,0,0
75689,-90.9090909090909,4,1,0,35,0,0
75997,-83.3333333333333,4,1,0,40,0,0
76304,-133.333333333333,4,1,0,40,0,0
78151,-52.6315789473684,4,1,0,50,0,0
78766,-90.9090909090909,4,1,0,40,0,0
87843,-142.857142857143,4,1,0,30,0,0
87997,-133.333333333333,4,1,0,30,0,0
88151,-125,4,1,0,30,0,0
88304,-117.647058823529,4,1,0,30,0,0
88612,-133.333333333333,4,1,0,20,0,0
93843,-100,4,1,0,30,0,0
97228,-100,4,1,0,40,0,0
98458,-90.9090909090909,4,1,0,40,0,0
107689,-133.333333333333,4,1,0,50,0,0
108304,-90.9090909090909,4,1,0,50,0,0
111074,-90.9090909090909,4,1,0,20,0,0
111381,-90.9090909090909,4,1,0,30,0,0
111689,-90.9090909090909,4,1,0,40,0,0
111997,-90.9090909090909,4,1,0,50,0,0
112304,-90.9090909090909,4,1,0,60,0,0
113228,-200,4,1,0,40,0,0
132612,-90.9090909090909,4,1,0,50,0,0
151381,-125,4,1,0,50,0,0
152612,-90.9090909090909,4,1,0,30,0,0
159997,-90.9090909090909,4,1,0,25,0,0
162458,-90.9090909090909,4,1,0,30,0,0
162689,-90.9090909090909,4,1,0,35,0,0
163074,-90.9090909090909,4,1,0,40,0,0
163458,-90.9090909090909,4,1,0,45,0,0
163843,-90.9090909090909,4,1,0,50,0,0
164304,-166.666666666667,4,1,0,20,0,0
164612,-125,4,1,0,20,0,0
164920,-83.3333333333333,4,1,0,50,0,1
169843,-100,4,1,0,50,0,0
171689,-90.9090909090909,4,1,0,50,0,0
171997,-83.3333333333333,4,1,0,50,0,0
172304,-133.333333333333,4,1,0,50,0,0
174151,-52.6315789473684,4,1,0,50,0,0
174766,-90.9090909090909,4,1,0,50,0,0
183843,-90.9090909090909,4,1,0,10,0,0
183920,-90.9090909090909,4,1,0,15,0,0
183997,-90.9090909090909,4,1,0,20,0,0
184074,-90.9090909090909,4,1,0,25,0,0
184151,-90.9090909090909,4,1,0,30,0,0
184228,-90.9090909090909,4,1,0,35,0,0
184304,-90.9090909090909,4,1,0,40,0,0
184381,-90.9090909090909,4,1,0,45,0,0
184458,-90.9090909090909,4,1,0,50,0,0
184535,-90.9090909090909,4,1,0,55,0,0
184612,-90.9090909090909,4,1,0,60,0,0

[HitObjects]
96,72,1228,6,0,P|168:80|216:96,1,119.999996337891
416,72,1843,2,0,P|344:80|296:96,1,119.999996337891
208,192,2458,2,0,P|272:288|304:192,1,269.999991760254
272,64,3381,1,0,0:0:0:0:
304,193,3535,6,0,B|112:161,1,179.999994506836
384,144,4304,5,0,0:0:0:0:
464,96,4612,1,0,0:0:0:0:
387,43,4920,2,0,P|307:91|339:235,1,239.999992675781
384,144,5843,5,0,0:0:0:0:
384,336,5997,2,0,L|208:272,1,179.999994506836
160,64,6766,5,0,0:0:0:0:
208,144,7074,1,0,0:0:0:0:
256,64,7381,1,0,0:0:0:0:
352,224,7689,5,0,0:0:0:0:
304,144,7843,1,0,0:0:0:0:
256,224,8151,1,0,0:0:0:0:
208,144,8304,2,0,L|80:144,1,119.999996337891
256,64,9228,5,0,0:0:0:0:
256,160,9535,1,0,0:0:0:0:
176,112,9843,2,0,B|80:192,1,119.999996337891
256,64,10458,1,0,0:0:0:0:
336,112,10766,2,0,B|432:192,1,119.999996337891
256,240,11381,2,0,P|278:188|241:137,1,119.999996337891
123,90,11997,2,0,P|277:69|109:285,1,659.999979858399
256,32,14766,5,8,2:0:0:0:
144,192,14920,1,0,0:0:0:0:
368,192,15074,1,0,0:0:0:0:
144,192,15228,2,0,L|144:304,1,100,8|0,2:0|0:0,0:0:0:0:
400,192,15535,1,0,0:0:0:0:
112,192,15689,2,0,L|112:336,1,100,8|0,2:0|0:0,0:0:0:0:
432,192,15997,5,0,0:0:0:0:
432,192,16151,2,0,L|432:80,1,100,8|0,2:0|0:0,0:0:0:0:
256,32,16458,1,0,0:0:0:0:
320,224,16612,2,0,P|257:252|191:234,1,100,8|0,2:0|0:0,0:0:0:0:
97,178,16920,2,0,P|160:150|226:168,1,100
275,328,17228,5,8,2:0:0:0:
400,80,17381,1,0,0:0:0:0:
383,262,17535,1,0,0:0:0:0:
309,111,17689,1,8,2:0:0:0:
472,248,17843,1,0,0:0:0:0:
482,33,17997,1,0,0:0:0:0:
472,248,18151,6,0,L|336:272,1,100,8|0,2:0|0:0,0:0:0:0:
224,336,18458,1,0,0:0:0:0:
32,208,18612,2,0,B|159:162,1,100,8|0,2:0|0:0,0:0:0:0:
271,121,18920,1,0,0:0:0:0:
432,64,19074,2,0,L|432:192,1,100,8|0,2:0|0:0,0:0:0:0:
430,272,19381,5,8,2:0:0:0:
414,272,19458,1,8,2:0:0:0:
398,272,19535,1,8,2:0:0:0:
382,272,19612,1,8,2:0:0:0:
366,272,19689,2,0,L|256:272,1,110.000003356934,8|0,2:0|0:0,0:0:0:0:
212,358,19997,6,0,P|164:310|164:246,1,110.000003356934,8|0,2:0|0:0,0:0:0:0:
256,128,20304,1,0,0:0:0:0:
256,256,20458,1,0,0:0:0:0:
288,16,20612,6,0,P|336:64|336:128,1,110.000003356934,8|0,2:0|0:0,0:0:0:0:
256,256,20920,5,0,0:0:0:0:
300,72,21074,1,0,0:0:0:0:
100,219,21228,2,0,L|132:87,1,110.000003356934,8|0,2:0|0:0,0:0:0:0:
256,272,21535,5,0,0:0:0:0:
207,55,21689,1,0,0:0:0:0:
386,112,21843,2,0,L|412:219,1,110.000003356934,8|0,2:0|0:0,0:0:0:0:
342,334,22151,5,0,0:0:0:0:
286,146,22304,1,0,0:0:0:0:
96,240,22458,2,0,P|144:288|208:304,1,110.000003356934,8|0,2:0|0:0,0:0:0:0:
320,320,22766,5,0,0:0:0:0:
384,144,22920,1,0,0:0:0:0:
176,96,23074,2,0,L|176:256,1,110.000003356934,8|0,2:0|0:0,0:0:0:0:
320,320,23381,5,8,2:0:0:0:
320,320,23458,1,8,2:0:0:0:
320,320,23535,1,8,2:0:0:0:
320,176,23689,5,8,2:0:0:0:
313,163,23766,1,8,2:0:0:0:
303,151,23843,1,8,2:0:0:0:
289,139,23920,1,8,2:0:0:0:
268,126,23997,1,8,2:0:0:0:
242,126,24074,1,8,2:0:0:0:
203,138,24151,1,8,2:0:0:0:
180,166,24228,1,8,2:0:0:0:
172,210,24304,1,8,2:0:0:0:
193,274,24381,1,8,2:0:0:0:
257,299,24458,1,8,2:0:0:0:
320,266,24535,1,8,2:0:0:0:
349,201,24612,2,0,P|304:144|245:125,1,100,8|0,2:0|0:0,0:0:0:0:
87,135,24920,5,0,0:0:0:0:
257,216,25074,2,0,L|306:111,1,110.000003356934,8|0,2:0|0:0,0:0:0:0:
218,5,25381,1,0,0:0:0:0:
110,111,25535,2,0,P|120:170|190:215,1,110.000003356934,8|0,2:0|0:0,0:0:0:0:
289,57,25843,1,0,0:0:0:0:
154,204,25997,2,0,P|209:226|284:191,1,110.000003356934,8|0,2:0|0:0,0:0:0:0:
365,138,26304,1,0,0:0:0:0:
482,100,26458,2,0,B|498:244,1,110.000003356934,8|0,2:0|0:0,0:0:0:0:
399,285,26766,2,0,B|270:306,1,110.000003356934
12,253,27074,5,8,2:0:0:0:
256,192,27228,1,0,0:0:0:0:
9,220,27381,1,0,0:0:0:0:
259,246,27535,1,8,2:0:0:0:
19,190,27689,1,0,0:0:0:0:
243,299,27843,1,0,0:0:0:0:
101,301,27997,2,0,B|77:269|99:192,1,110.000003356934,8|0,2:0|0:0,0:0:0:0:
288,224,28304,5,0,0:0:0:0:
288,224,28381,1,0,0:0:0:0:
288,224,28458,2,0,B|332:203|396:219,1,110.000003356934,8|0,2:0|0:0,0:0:0:0:
368,320,28766,1,0,0:0:0:0:
225,142,28920,2,0,P|186:202|203:267,1,110.000003356934,8|0,2:0|0:0,0:0:0:0:
368,224,29228,5,2,2:0:0:0:
368,200,29304,1,2,2:0:0:0:
368,176,29381,1,2,2:0:0:0:
368,152,29458,1,2,2:0:0:0:
368,128,29535,2,0,L|368:8,1,110.000003356934,8|0,2:0|0:0,0:0:0:0:
218,31,29843,5,0,0:0:0:0:
80,112,29997,1,0,0:0:0:0:
160,240,30151,2,0,P|197:218|278:264,1,110.000003356934,8|0,2:0|0:0,0:0:0:0:
128,336,30458,5,0,0:0:0:0:
228,143,30612,1,0,0:0:0:0:
336,336,30766,2,0,L|208:336,1,110.000003356934,8|0,2:0|0:0,0:0:0:0:
384,144,31074,1,0,0:0:0:0:
272,272,31228,1,0,0:0:0:0:
272,272,31304,1,0,0:0:0:0:
272,272,31381,2,0,L|138:245,1,110.000003356934,8|0,2:0|0:0,0:0:0:0:
78,201,31689,5,8,2:0:0:0:
65,182,31766,1,8,2:0:0:0:
51,151,31843,1,8,2:0:0:0:
48,128,31920,1,8,2:0:0:0:
56,87,31997,1,8,2:0:0:0:
83,48,32074,1,8,2:0:0:0:
146,22,32151,1,8,2:0:0:0:
208,52,32228,1,8,2:0:0:0:
236,114,32304,2,0,P|215:159|179:194,1,100,8|0,2:0|0:0,0:0:0:0:
333,190,32612,6,0,P|295:225|272:288,1,100,8|0,2:0|0:0,0:0:0:0:
144,272,32920,1,0,0:0:0:0:
480,272,33074,2,0,L|368:272,1,110.000003356934,8|0,2:0|0:0,0:0:0:0:
240,224,33381,1,0,0:0:0:0:
336,32,33535,2,0,L|336:160,1,110.000003356934,8|0,2:0|0:0,0:0:0:0:
240,224,33843,5,8,3:0:0:0:
240,224,33920,1,8,3:0:0:0:
240,224,33997,1,8,3:0:0:0:
272,336,34151,1,8,3:0:0:0:
229,329,34228,1,8,3:0:0:0:
186,322,34304,1,8,3:0:0:0:
144,315,34381,1,8,3:0:0:0:
101,308,34458,1,8,3:0:0:0:
144,128,34920,5,0,0:0:0:0:
240,128,35074,2,0,P|278:169|284:248,1,100,2|0,2:0|0:0,0:0:0:0:
192,208,35381,1,2,2:0:0:0:
144,128,35535,1,0,0:0:0:0:
192,48,35689,2,0,P|272:40|320:64,1,100,2|0,2:0|0:0,0:0:0:0:
240,128,35997,1,0,0:0:0:0:
192,208,36151,2,0,P|272:216|320:192,1,100,2|0,2:0|0:0,0:0:0:0:
336,144,36458,6,0,P|373:187|335:260,1,100,0|0,0:0|2:0,0:0:0:0:
318,289,36766,2,0,B|262:289|262:289|214:329|166:289|166:289|94:289,1,200
76,215,37228,5,2,2:0:0:0:
76,215,37304,1,0,0:0:0:0:
76,215,37381,2,0,L|180:191,1,100,0|2,0:0|2:0,0:0:0:0:
256,176,37689,5,0,0:0:0:0:
224,272,37843,1,2,2:0:0:0:
320,256,37997,1,0,0:0:0:0:
256,176,38151,2,0,L|144:176,1,100,2|0,2:0|0:0,0:0:0:0:
176,272,38458,1,2,2:0:0:0:
264,296,38612,2,0,P|320:264|352:232,1,100,0|2,0:0|2:0,0:0:0:0:
224,144,38920,2,0,P|168:176|136:208,1,100,0|2,0:0|2:0,0:0:0:0:
264,296,39228,2,0,B|393:289|393:289|335:232,1,200
144,142,39689,6,0,B|192:110|192:110|240:142|280:102|280:102|344:118,2,200,2|2|2,2:0|2:0|2:0,0:0:0:0:
64,232,40458,1,0,0:0:0:0:
241,200,40612,2,0,B|289:232|289:232|337:200|377:240|377:240|441:224,2,200,2|2|2,2:0|2:0|2:0,0:0:0:0:
128,208,41381,1,0,0:0:0:0:
188,301,41535,1,2,2:0:0:0:
240,192,41689,2,0,L|294:77,2,100,0|2|0,0:0|2:0|0:0,0:0:0:0:
112,160,42151,1,2,2:0:0:0:
112,48,42304,2,0,P|184:56|256:96,1,110.000003356934,0|2,0:0|2:0,0:0:0:0:
96,256,42612,6,0,L|240:224,1,119.999996337891,0|2,0:0|2:0,0:0:0:0:
464,176,42920,1,8,2:0:0:0:
40,168,43228,5,2,2:0:0:0:
68,147,43304,1,2,2:0:0:0:
98,129,43381,1,2,2:0:0:0:
129,114,43458,1,2,2:0:0:0:
162,102,43535,1,2,2:0:0:0:
196,94,43612,1,2,2:0:0:0:
231,89,43689,1,2,2:0:0:0:
266,87,43766,1,2,2:0:0:0:
301,89,43843,1,2,2:0:0:0:
335,94,43920,1,2,2:0:0:0:
392,152,43997,5,8,2:0:0:0:
361,169,44074,1,8,2:0:0:0:
331,186,44151,1,8,2:0:0:0:
300,204,44228,1,8,2:0:0:0:
264,224,44304,2,8,L|160:280,1,100,8|0,2:0|0:0,2:0:0:0:
72,120,44612,5,8,2:0:0:0:
80,208,44766,1,0,0:0:0:0:
176,144,44920,1,0,0:0:0:0:
144,256,45074,1,0,0:0:0:0:
128,64,45228,1,0,0:0:0:0:
224,64,45381,1,8,2:0:0:0:
288,144,45535,6,0,P|288:200|272:240,1,100
176,144,45843,1,8,2:0:0:0:
160,240,45997,2,0,B|176:288|176:288|224:320,1,100
352,192,46304,2,0,B|283:211|283:211|256:256,1,100,0|8,0:0|2:0,0:0:0:0:
336,288,46612,2,0,L|272:384,1,100
185,259,46920,5,0,0:0:0:0:
185,259,46997,1,0,0:0:0:0:
185,259,47074,2,0,L|278:213,1,100,8|0,2:0|0:0,0:0:0:0:
368,176,47381,1,0,0:0:0:0:
272,112,47535,1,0,0:0:0:0:
368,176,47689,1,0,0:0:0:0:
368,32,47843,1,8,2:0:0:0:
272,112,47997,2,0,L|173:187,1,100
112,224,48304,1,8,2:0:0:0:
160,304,48458,6,0,B|224:320|224:320|288:288,1,100
208,224,48766,2,0,B|238:208|238:208|302:224,1,100,0|8,0:0|2:0,0:0:0:0:
407,281,49074,2,0,P|416:219|410:171,1,100
211,122,49381,1,0,0:0:0:0:
227,210,49535,6,0,B|275:178|323:210|323:210|363:170|427:186,2,200,8|0|0,2:0|0:0|0:0,0:0:0:0:
368,104,50304,1,8,2:0:0:0:
260,100,50458,6,0,B|212:132|164:100|164:100|124:140|60:124,2,200,0|8|0,0:0|2:0|0:0,0:0:0:0:
352,32,51228,1,0,0:0:0:0:
368,144,51381,1,8,2:0:0:0:
256,96,51535,2,0,L|288:240,1,100
305,302,51843,1,0,0:0:0:0:
192,224,51997,5,8,2:0:0:0:
192,224,52074,1,0,0:0:0:0:
192,224,52151,2,0,L|88:224,1,100
16,160,52458,1,0,0:0:0:0:
48,80,52612,2,0,B|104:104|104:104|152:168,1,100
212,87,52920,2,0,B|244:127|244:127|308:119,1,100,8|0,2:0|0:0,0:0:0:0:
419,113,53228,5,8,2:0:0:0:
318,319,53381,1,8,2:0:0:0:
338,188,53535,5,8,2:0:0:0:
304,186,53612,1,8,2:0:0:0:
269,184,53689,1,8,2:0:0:0:
234,182,53766,1,8,2:0:0:0:
194,180,53843,1,8,2:0:0:0:
160,178,53920,1,8,2:0:0:0:
125,176,53997,1,8,2:0:0:0:
90,172,54074,1,8,2:0:0:0:
59,170,54151,6,2,L|72:82,1,75.0000028610231,2|2,1:0|1:0,1:0:0:0:
125,131,54766,1,0,0:0:0:0:
128,288,55074,2,0,B|178:246|178:246|222:261|222:261|275:241,1,150.000005722046
352,192,55689,1,0,0:0:0:0:
307,192,55997,1,0,0:0:0:0:
108,329,56304,5,8,2:0:0:0:
227,178,56458,1,0,0:0:0:0:
386,320,56612,2,0,L|274:352,1,100,8|0,2:0|0:0,0:0:0:0:
227,178,56920,1,0,0:0:0:0:
386,64,57074,2,0,L|413:202,1,100,8|0,2:0|0:0,0:0:0:0:
436,320,57381,1,0,0:0:0:0:
256,352,57535,2,0,P|206:329|160:292,1,100,8|0,2:0|0:0,0:0:0:0:
105,164,57843,5,2,2:0:0:0:
112,98,57920,1,2,2:0:0:0:
161,51,57997,1,2,2:0:0:0:
226,40,58074,1,2,2:0:0:0:
288,62,58151,2,0,P|324:130|320:191,1,100
85,261,58458,5,0,0:0:0:0:
400,112,58766,1,0,0:0:0:0:
79,89,59074,6,0,P|143:73|239:105,2,119.999996337891,8|0|8,2:0|2:0|2:0,2:0:0:0:
169,217,59535,1,0,0:0:0:0:
336,48,59689,2,0,L|320:192,1,119.999996337891
304,352,59997,1,8,2:0:0:0:
239,141,60151,2,0,B|223:301|223:301|169:217,1,259.999988098145,2|0,0:0|0:0,0:0:0:0:
80,80,60612,5,8,2:0:0:0:
48,192,60766,1,0,0:0:0:0:
80,320,60920,2,0,L|192:224,1,119.999996337891
224,80,61228,2,0,P|256:128|320:192,1,119.999996337891,8|0,2:0|0:0,0:0:0:0:
336,80,61535,2,0,P|393:86|483:78,1,119.999996337891
112,112,61843,2,0,P|112:181|112:254,1,119.999996337891,8|0,2:0|0:0,0:0:0:0:
160,352,62151,2,0,P|217:358|307:350,1,119.999996337891
400,288,62458,1,8,2:0:0:0:
400,288,62535,1,0,0:0:0:0:
400,288,62612,2,0,P|433:195|426:125,1,119.999996337891
416,48,62920,5,0,0:0:0:0:
192,48,63074,1,8,2:0:0:0:
240,272,63228,1,0,0:0:0:0:
256,144,63381,2,0,L|112:160,1,119.999996337891,8|0,2:0|0:0,0:0:0:0:
240,272,63689,2,0,L|368:256,1,119.999996337891,8|0,2:0|0:0,0:0:0:0:
352,64,63997,2,0,L|356:192,1,119.999996337891
144,112,64304,1,8,2:0:0:0:
144,112,64381,1,0,0:0:0:0:
144,112,64458,2,0,B|112:176|147:244,1,119.999996337891
272,176,64766,1,0,0:0:0:0:
400,112,64920,2,0,B|432:176|397:244,1,119.999996337891,8|0,2:0|0:0,0:0:0:0:
304,304,65228,2,0,L|192:352,1,119.999996337891
112,208,65535,6,0,B|128:304|128:304|160:272,1,119.999996337891,8|0,2:0|0:0,0:0:0:0:
400,208,65843,2,0,B|384:304|384:304|352:272,1,119.999996337891,8|0,2:0|0:0,0:0:0:0:
368,48,66151,2,0,B|384:31|384:31|400:127,1,119.999996337891,8|0,2:0|0:0,0:0:0:0:
144,48,66458,2,0,B|127:31|127:31|111:127,1,119.999996337891,8|0,2:0|0:0,0:0:0:0:
368,192,66766,5,8,2:0:0:0:
256,96,66920,1,0,0:0:0:0:
64,256,67074,2,0,L|200:232,1,119.999996337891,8|0,2:0|0:0,0:0:0:0:
224,256,67304,1,0,0:0:0:0:
224,256,67381,2,0,L|368:224,1,119.999996337891,8|0,2:0|0:0,0:0:0:0:
144,64,67689,5,2,2:0:0:0:
160,88,67766,1,2,2:0:0:0:
176,112,67843,1,2,2:0:0:0:
368,64,67997,5,2,2:0:0:0:
352,88,68074,1,2,2:0:0:0:
336,112,68151,1,2,2:0:0:0:
224,256,68304,2,0,L|64:216,1,119.999996337891,8|0,2:0|0:0,0:0:0:0:
288,128,68612,2,0,L|448:168,1,119.999996337891,8|0,2:0|0:0,0:0:0:0:
420,206,68843,1,2,2:0:0:0:
420,222,68920,2,0,L|287:250,1,119.999996337891,2|0,2:0|0:0,0:0:0:0:
273,8,69228,2,0,L|289:136,1,119.999996337891,8|0,2:0|0:0,0:0:0:0:
179,337,69535,5,8,2:0:0:0:
151,312,69612,1,8,2:0:0:0:
127,283,69689,1,8,2:0:0:0:
108,251,69766,1,8,2:0:0:0:
95,216,69843,1,8,2:0:0:0:
88,179,69920,1,8,2:0:0:0:
83,148,69997,2,0,B|72:70|72:70|104:101,1,119.999996337891,8|0,2:0|0:0,0:0:0:0:
176,176,70304,5,0,0:0:0:0:
240,16,70458,1,8,2:0:0:0:
352,144,70612,1,0,0:0:0:0:
480,272,70766,2,0,L|480:96,1,119.999996337891
240,144,71074,2,0,P|152:192|144:253,1,119.999996337891,8|0,2:0|0:0,0:0:0:0:
256,256,71381,2,0,B|326:358,1,119.999996337891
352,192,71689,2,0,P|373:141|317:56,1,119.999996337891,8|0,2:0|0:0,0:0:0:0:
64,64,71997,5,0,0:0:0:0:
208,32,72151,1,0,0:0:0:0:
240,192,72304,1,8,2:0:0:0:
108,220,72458,2,0,P|198:282|233:179,1,239.999992675781
208,32,72920,1,8,2:0:0:0:
352,160,73074,1,0,0:0:0:0:
352,160,73151,1,0,0:0:0:0:
352,160,73228,2,0,P|272:189|188:205,1,119.999996337891,8|0,2:0|0:0,0:0:0:0:
80,288,73535,2,0,P|160:317|244:333,1,119.999996337891,8|0,2:0|0:0,0:0:0:0:
426,174,73843,6,0,P|385:212|329:249,1,100
272,80,74151,1,0,0:0:0:0:
272,176,74304,2,0,P|336:144|368:96,1,100,0|8,0:0|2:0,0:0:0:0:
352,32,74612,1,0,0:0:0:0:
432,80,74766,2,0,P|436:158|391:203,1,100
353,123,75074,1,0,0:0:0:0:
272,176,75228,2,0,P|264:96|288:56,1,100
353,123,75535,1,0,0:0:0:0:
352,208,75689,6,0,B|352:288|272:336,1,110.000003356934,8|0,2:0|0:0,0:0:0:0:
127,152,75997,2,0,B|209:131|289:178,1,119.999996337891,8|0,2:0|0:0,0:0:0:0:
208,328,76304,5,8,2:0:0:0:
174,313,76381,1,8,2:0:0:0:
142,293,76458,1,8,2:0:0:0:
113,269,76535,1,8,2:0:0:0:
89,241,76612,1,8,2:0:0:0:
304,56,76766,5,8,2:0:0:0:
338,71,76843,1,8,2:0:0:0:
370,91,76920,1,8,2:0:0:0:
399,115,76997,1,8,2:0:0:0:
423,143,77074,1,8,2:0:0:0:
176,184,77228,5,8,2:0:0:0:
165,149,77304,1,8,2:0:0:0:
154,115,77381,1,8,2:0:0:0:
280,40,77535,5,2,2:0:0:0:
304,240,77689,1,2,2:0:0:0:
448,104,77843,1,2,2:0:0:0:
88,200,78151,2,0,B|144:184|144:184|160:120|160:120|272:160,1,189.999994926453,8|0,2:0|0:0,0:0:0:0:
264,216,78458,2,0,P|288:288|312:216,1,189.999994926453
128,48,78766,5,8,2:2:0:0:
176,240,78920,1,0,0:0:0:0:
32,160,79074,1,0,0:0:0:0:
288,112,79228,2,0,P|336:112|400:128,1,110.000003356934,8|0,2:0|0:0,0:0:0:0:
288,288,79535,1,0,0:0:0:0:
221,43,79689,2,0,B|196:196,1,110.000003356934,8|0,2:0|0:0,0:0:0:0:
204,330,79997,5,0,0:0:0:0:
390,192,80151,2,0,L|239:204,1,110.000003356934,8|0,2:0|0:0,0:0:0:0:
107,211,80458,1,0,0:0:0:0:
221,43,80612,2,0,L|232:173,1,110.000003356934,8|0,2:0|0:0,0:0:0:0:
401,178,80920,2,0,L|258:104,1,110.000003356934
176,304,81228,5,8,2:0:0:0:
304,128,81381,1,0,0:0:0:0:
274,304,81535,1,0,0:0:0:0:
159,127,81689,1,8,2:0:0:0:
304,128,81843,1,0,0:0:0:0:
176,304,81997,1,0,0:0:0:0:
159,127,82151,6,0,P|186:72|257:22,1,110.000003356934,8|0,2:0|0:0,0:0:0:0:
384,32,82458,1,0,0:0:0:0:
432,176,82612,2,0,L|336:256,1,110.000003356934,8|0,2:0|0:0,0:0:0:0:
208,352,82920,1,0,0:0:0:0:
48,352,83074,2,0,L|48:224,1,110.000003356934,8|0,2:0|0:0,0:0:0:0:
112,144,83381,5,2,2:0:0:0:
160,128,83458,1,2,2:0:0:0:
192,144,83535,1,2,2:0:0:0:
240,128,83612,1,2,2:0:0:0:
288,144,83689,2,0,L|400:144,1,110.000003356934,2|0,2:0|0:0,0:0:0:0:
480,272,83997,6,0,P|416:312|344:304,1,110.000003356934,8|0,2:0|0:0,0:0:0:0:
384,160,84304,1,0,0:0:0:0:
272,320,84458,1,0,0:0:0:0:
160,160,84612,2,0,L|160:279,1,110.000003356934,8|0,2:0|0:0,0:0:0:0:
288,208,84920,5,0,0:0:0:0:
96,208,85074,1,0,0:0:0:0:
96,32,85228,2,0,L|208:32,1,110.000003356934,8|0,2:0|0:0,0:0:0:0:
448,144,85535,5,0,0:0:0:0:
352,272,85689,1,0,0:0:0:0:
192,272,85843,2,0,L|192:160,1,110.000003356934,8|0,2:0|0:0,0:0:0:0:
192,32,86151,5,0,0:0:0:0:
272,224,86304,1,0,0:0:0:0:
400,112,86458,2,0,L|272:112,1,110.000003356934,8|0,2:0|0:3,0:3:0:0:
96,128,86766,1,0,0:0:0:0:
192,272,86920,1,0,0:0:0:0:
290,112,87074,2,0,P|338:156|366:206,1,110.000003356934,8|0,2:0|0:0,0:0:0:0:
416,320,87381,1,8,2:0:0:0:
416,320,87458,1,8,2:0:0:0:
416,320,87535,1,8,2:0:0:0:
448,128,87689,1,8,2:0:0:0:
352,224,87843,5,2,2:0:0:0:
319,237,87920,1,8,2:0:0:0:
285,234,87997,1,8,2:0:0:0:
256,215,88074,1,2,2:0:0:0:
234,187,88151,1,2,2:0:0:0:
204,182,88228,1,2,2:0:0:0:
169,178,88304,1,8,2:0:0:0:
136,169,88381,1,8,2:0:0:0:
104,152,88458,1,2,2:0:0:0:
88,48,88612,5,2,2:0:0:0:
176,48,88766,1,2,2:0:0:0:
264,48,88920,1,2,2:0:0:0:
344,80,89074,2,0,P|384:136|392:168,1,75.0000028610231,2|8,2:0|2:0,0:0:0:0:
256,208,89535,5,2,2:0:0:0:
344,208,89689,1,2,2:0:0:0:
408,160,89843,1,2,2:0:0:0:
384,80,89997,1,2,2:0:0:0:
168,40,90458,5,2,2:0:0:0:
96,96,90612,1,2,2:0:0:0:
192,128,90766,1,2,2:0:0:0:
128,192,90920,1,2,2:0:0:0:
224,224,91074,1,2,2:0:0:0:
288,160,91228,1,2,2:0:0:0:
288,64,91381,1,2,2:0:0:0:
368,112,91535,2,0,P|384:160|368:208,1,75.0000028610231,2|8,2:0|2:0,0:0:0:0:
304,288,91997,5,2,2:0:0:0:
224,272,92151,1,2,2:0:0:0:
144,256,92304,2,0,L|112:352,1,75.0000028610231,2|2,2:0|2:0,0:0:0:0:
71,126,92920,1,2,2:0:0:0:
142,71,93074,1,2,2:0:0:0:
230,75,93228,1,2,2:0:0:0:
269,151,93381,1,2,2:0:0:0:
306,231,93535,1,2,2:0:0:0:
256,304,93689,1,2,2:0:0:0:
94,202,93843,6,0,B|158:186|158:186|182:154|182:154|214:170|214:170|286:146,2,200,2|8|2,2:0|2:0|2:0,0:0:0:0:
336,96,94612,1,2,2:0:0:0:
280,224,94766,6,0,B|335:205|335:205|367:221|367:221|391:189|391:189|455:173,2,200,2|2|8,2:0|2:0|2:0,0:0:0:0:
32,272,97228,5,8,2:0:0:0:
96,32,97381,1,0,0:0:0:0:
128,192,97535,1,0,0:0:0:0:
352,32,97689,1,8,2:0:0:0:
192,96,97843,1,0,0:0:0:0:
352,176,97997,1,0,0:0:0:0:
312,315,98151,5,8,2:0:0:0:
278,326,98228,1,8,2:0:0:0:
244,337,98304,1,8,2:0:0:0:
212,341,98381,1,8,2:0:0:0:
174,335,98458,2,0,P|127:320|76:280,1,110.000003356934,8|0,2:0|0:0,0:0:0:0:
208,112,98766,2,0,P|288:80|352:64,1,110.000003356934,8|0,2:0|0:0,0:0:0:0:
272,192,99074,1,0,0:0:0:0:
352,144,99228,1,0,0:0:0:0:
208,112,99381,5,2,2:0:0:0:
187,120,99458,1,2,2:0:0:0:
173,132,99535,1,2,2:0:0:0:
159,143,99612,1,2,2:0:0:0:
146,155,99689,2,0,P|138:212|164:275,1,110.000003356934,8|0,2:0|0:0,0:0:0:0:
288,320,99997,5,8,2:0:0:0:
352,144,100151,2,0,L|224:208,1,110.000003356934
208,112,100458,1,0,0:0:0:0:
192,288,100612,2,0,L|144:176,2,110.000003356934,8|0|0,2:0|0:0|0:0,0:0:0:0:
16,208,101074,2,0,L|64:88,1,110.000003356934,0|8,0:0|2:0,0:0:0:0:
234,43,101381,5,2,2:0:0:0:
234,59,101458,1,2,2:0:0:0:
234,75,101535,1,2,2:0:0:0:
234,91,101612,1,2,2:0:0:0:
234,107,101689,2,0,L|306:91,2,55.0000016784668
155,266,101997,5,8,2:0:0:0:
32,160,102151,2,0,P|88:96|160:72,1,110.000003356934
256,64,102458,5,8,2:0:0:0:
379,170,102612,2,0,P|322:233|250:258,1,110.000003356934
263,258,102843,1,0,0:0:0:0:
263,258,102920,2,0,L|119:242,1,110.000003356934,0|8,0:0|2:0,0:0:0:0:
224,32,103228,2,0,P|179:68|128:128,1,110.000003356934
153,245,103535,1,0,0:0:0:0:
320,288,103689,6,0,P|368:200|376:280,2,220.000006713867,0|8|0,0:0|2:0|0:0,0:0:0:0:
272,160,104458,1,8,2:0:0:0:
224,32,104612,6,0,P|176:120|168:40,2,220.000006713867,0|8|0,0:0|2:0|0:0,0:0:0:0:
152,70,105381,1,0,0:0:0:0:
158,251,105535,2,0,B|261:273|327:207|334:135,1,220.000006713867,8|0,2:0|0:0,0:0:0:0:
256,88,105997,1,0,0:0:0:0:
239,88,106074,1,0,0:0:0:0:
223,88,106151,1,8,2:0:0:0:
207,88,106228,1,0,0:0:0:0:
191,90,106304,2,0,P|112:140|97:172,1,110.000003356934
96,304,106612,5,0,0:0:0:0:
256,304,106766,2,0,L|347:304,2,55.0000016784668,0|0|8,0:0|0:0|2:0,0:0:0:0:
96,208,107074,1,8,2:0:0:0:
240,112,107228,1,8,2:0:0:0:
160,272,107381,1,8,2:0:0:0:
160,80,107535,1,8,2:0:0:0:
256,272,107689,5,8,2:0:0:0:
293,263,107766,1,8,2:0:0:0:
328,249,107843,1,8,2:0:0:0:
361,231,107920,1,8,2:0:0:0:
391,209,107997,1,8,2:0:0:0:
418,184,108074,1,8,2:0:0:0:
442,155,108151,1,8,2:0:0:0:
462,123,108228,1,8,2:0:0:0:
470,87,108304,2,0,P|432:79|326:103,1,110.000003356934,8|0,2:0|0:0,0:0:0:0:
384,208,108612,5,0,0:0:0:0:
288,48,108766,1,0,0:0:0:0:
208,160,108920,2,0,B|144:144|144:144|96:96,1,110.000003356934,8|0,2:0|0:0,0:0:0:0:
256,224,109228,2,0,P|252:269|302:204,1,220.000006713867
224,48,109689,1,8,2:0:0:0:
208,160,109843,1,8,2:0:0:0:
304,96,109997,1,8,2:0:0:0:
256,232,110151,5,8,2:0:0:0:
248,256,110228,1,8,2:0:0:0:
232,272,110304,1,8,2:0:0:0:
208,272,110381,1,8,2:0:0:0:
192,288,110458,1,8,2:0:0:0:
176,296,110535,1,8,2:0:0:0:
160,296,110612,1,8,2:0:0:0:
144,304,110689,1,8,2:0:0:0:
133,314,110766,2,0,B|79:282|79:282|44:223,1,110.000003356934,8|0,2:0|0:0,0:0:0:0:
112,112,111074,5,8,2:0:0:0:
112,112,111151,1,8,2:0:0:0:
112,112,111228,2,8,L|144:208,1,55.0000016784668,8|8,2:0|2:0,2:0:0:0:
160,272,111381,5,8,2:0:0:0:
160,272,111458,1,8,2:0:0:0:
160,272,111535,2,8,L|192:176,1,55.0000016784668,8|8,2:0|2:0,2:0:0:0:
240,80,111689,5,8,2:0:0:0:
240,80,111766,1,8,2:0:0:0:
240,80,111843,2,8,L|272:176,1,55.0000016784668,8|8,2:0|2:0,2:0:0:0:
304,320,111997,5,8,2:0:0:0:
304,320,112074,1,8,2:0:0:0:
304,320,112151,2,8,L|336:224,1,55.0000016784668,8|8,2:0|2:0,2:0:0:0:
363,149,112304,5,8,2:0:0:0:
364,133,112381,1,8,2:0:0:0:
356,117,112458,1,8,2:0:0:0:
334,101,112535,1,8,2:0:0:0:
298,88,112612,1,8,2:0:0:0:
259,103,112689,1,8,2:0:0:0:
235,127,112766,1,8,2:0:0:0:
217,169,112843,1,8,2:0:0:0:
189,206,112920,1,8,2:0:0:0:
134,227,112997,1,8,2:0:0:0:
75,211,113074,1,8,2:0:0:0:
25,176,113151,1,8,2:0:0:0:
15,111,113228,6,0,L|79:95,1,50,8|0,2:0|0:0,0:0:0:0:
48,48,113689,2,0,L|112:32,1,50,8|0,2:0|0:0,0:0:0:0:
96,336,114151,6,0,L|96:272,1,50,8|0,2:0|0:0,0:0:0:0:
144,288,114612,2,0,L|144:224,1,50,8|0,2:0|0:0,0:0:0:0:
80,112,115074,5,2,2:0:0:0:
224,48,115228,1,2,2:0:0:0:
80,208,115381,1,2,2:0:0:0:
152,16,115535,1,2,2:0:0:0:
384,80,115689,6,0,L|328:80,1,50,8|0,2:0|0:0,0:0:0:0:
344,136,116151,2,0,L|272:136,1,50,8|0,2:0|0:0,0:0:0:0:
80,232,116612,6,0,L|144:232,1,50,8|0,2:0|0:0,0:0:0:0:
136,288,117074,2,0,L|200:288,1,50,8|0,2:0|0:0,0:0:0:0:
368,200,117535,5,2,2:0:0:0:
352,208,117612,1,2,2:0:0:0:
336,216,117689,1,2,2:0:0:0:
320,224,117766,1,2,2:0:0:0:
304,232,117843,1,2,2:0:0:0:
288,240,117920,1,2,2:0:0:0:
272,248,117997,1,2,2:0:0:0:
256,256,118074,1,2,2:0:0:0:
240,264,118151,2,0,L|216:216,1,50,8|0,2:0|0:0,0:0:0:0:
64,48,118612,6,0,L|96:112,1,50,8|0,2:0|0:0,0:0:0:0:
64,336,119074,2,0,L|96:272,1,50,8|0,2:0|0:0,0:0:0:0:
336,144,119535,5,2,2:0:0:0:
256,336,119689,1,2,2:0:0:0:
176,144,119843,1,2,2:0:0:0:
80,200,119997,6,0,L|144:200,1,50,8|0,2:0|0:0,0:0:0:0:
432,200,120304,2,0,L|368:200,1,50,8|0,2:0|0:0,0:0:0:0:
256,48,120612,2,0,L|256:120,1,50,8|0,2:0|0:0,0:0:0:0:
152,304,121074,2,0,L|184:256,1,50,8|0,2:0|0:0,0:0:0:0:
360,304,121535,2,0,L|328:256,1,50,8|0,2:0|0:0,0:0:0:0:
48,184,121997,2,0,L|96:152,1,50,8|0,2:0|0:0,0:0:0:0:
256,128,122458,5,2,2:0:0:0:
256,240,122612,1,2,2:0:0:0:
256,48,122766,1,2,2:0:0:0:
256,328,122920,1,2,2:0:0:0:
96,104,123074,6,0,L|64:160,1,50,8|0,2:0|0:0,0:0:0:0:
416,104,123535,2,0,L|448:160,1,50,8|0,2:0|0:0,0:0:0:0:
256,296,123997,6,0,L|256:368,1,50,8|0,2:0|0:0,0:0:0:0:
256,88,124458,2,0,L|256:16,1,50,8|0,2:0|0:0,0:0:0:0:
144,200,124920,5,2,2:0:0:0:
352,216,125074,1,2,2:0:0:0:
224,288,125228,1,2,2:0:0:0:
336,120,125381,1,2,2:0:0:0:
432,304,125535,6,0,L|384:272,1,50,8|0,2:0|0:0,0:0:0:0:
80,80,125997,2,0,L|128:112,1,50,8|0,2:0|0:0,0:0:0:0:
168,272,126458,6,0,L|232:248,1,50,8|0,2:0|0:0,0:0:0:0:
344,272,126920,2,0,L|280:248,1,50,8|0,2:0|0:0,0:0:0:0:
160,120,127381,5,2,2:0:0:0:
328,48,127535,1,2,2:0:0:0:
120,200,127689,1,2,2:0:0:0:
320,128,127843,1,2,2:0:0:0:
192,256,127997,2,0,L|144:304,1,50,8|0,2:0|0:0,0:0:0:0:
320,128,128458,2,0,L|368:80,1,50,8|0,2:0|0:0,0:0:0:0:
48,88,128920,2,0,L|104:120,1,50,8|0,2:0|0:0,0:0:0:0:
464,88,129381,2,0,L|408:120,1,50,8|0,2:0|0:0,0:0:0:0:
80,176,129843,5,2,2:0:0:0:
91,198,129920,1,2,2:0:0:0:
105,218,129997,1,2,2:0:0:0:
123,236,130074,1,2,2:0:0:0:
143,250,130151,1,2,2:0:0:0:
166,261,130228,1,2,2:0:0:0:
190,268,130304,1,2,2:0:0:0:
214,272,130381,1,2,2:0:0:0:
240,272,130458,2,0,L|296:272,1,50,8|0,2:0|0:0,0:0:0:0:
128,48,130920,6,0,L|152:112,1,50,8|0,2:0|0:0,0:0:0:0:
384,336,131381,6,0,L|360:272,1,50,8|0,2:0|0:0,0:0:0:0:
384,48,131843,6,0,L|360:112,1,50,8|0,2:0|0:0,0:0:0:0:
384,336,132151,1,2,2:0:0:0:
256,176,132304,1,8,2:0:0:0:
128,336,132458,1,2,2:0:0:0:
64,256,132612,5,2,2:0:0:0:
128,176,132766,1,2,2:0:0:0:
203,250,132920,2,0,P|262:267|315:247,1,110.000003356934
352,176,133228,1,8,2:0:0:0:
256,176,133381,1,0,0:0:0:0:
352,336,133535,2,0,P|416:288|448:224,1,110.000003356934
432,128,133843,1,0,0:0:0:0:
367,30,133997,6,0,P|301:38|249:63,1,110.000003356934,8|0,2:0|0:0,0:0:0:0:
176,160,134304,1,0,0:0:0:0:
35,87,134458,2,0,L|58:205,1,110.000003356934,8|0,2:0|0:0,0:0:0:0:
85,305,134766,2,0,P|139:343|211:329,1,110.000003356934
289,243,135074,2,0,B|414:136|414:136|339:127,1,220.000006713867,8|0,2:0|0:0,0:0:0:0:
240,112,135535,5,0,0:0:0:0:
462,153,135689,1,8,2:0:0:0:
401,37,135843,1,0,0:0:0:0:
289,243,135997,2,0,L|135:230,1,110.000003356934
143,74,136304,1,0,0:0:0:0:
308,139,136458,2,0,B|315:183|315:183|278:267,1,110.000003356934,8|0,2:0|0:0,0:0:0:0:
143,74,136766,1,0,0:0:0:0:
89,249,136920,6,0,P|153:249|228:232,1,110.000003356934,8|0,2:0|0:0,0:0:0:0:
417,131,137228,6,0,P|353:131|278:148,1,110.000003356934
75,139,137535,2,0,L|91:267,1,110.000003356934,8|0,2:0|0:0,0:0:0:0:
192,336,137843,5,0,0:0:0:0:
192,336,137997,1,0,0:0:0:0:
375,326,138151,1,8,2:0:0:0:
375,326,138305,1,0,0:0:0:0:
394,153,138458,2,0,B|408:43,1,110.000003356934
277,213,138766,1,0,0:0:0:0:
240,45,138920,2,0,B|182:51|182:51|128:77,1,110.000003356934,8|0,2:0|0:0,0:0:0:0:
61,121,139228,6,0,L|64:280,1,110.000003356934,0|8,0:0|2:0,0:0:0:0:
125,369,139535,1,0,0:0:0:0:
281,354,139689,2,0,P|345:350|390:280,1,110.000003356934
369,183,139997,2,0,P|411:149|465:149,1,110.000003356934,8|0,2:0|0:0,0:0:0:0:
452,240,140304,5,0,0:0:0:0:
409,58,140458,1,0,0:0:0:0:
269,169,140612,2,0,B|153:260,1,110.000003356934,8|0,2:0|0:0,0:0:0:0:
369,183,140920,2,0,B|456:113,1,110.000003356934
304,40,141228,1,0,0:0:0:0:
181,165,141381,2,0,P|179:230|202:282,1,110.000003356934,8|0,2:0|0:0,0:0:0:0:
428,311,141689,1,0,0:0:0:0:
488,168,141843,6,0,L|378:175,1,110.000003356934,8|0,2:0|0:0,0:0:0:0:
369,190,142074,1,0,0:0:0:0:
369,190,142151,2,0,P|330:246|281:291,1,110.000003356934
288,291,142381,1,0,0:0:0:0:
288,291,142458,2,0,L|176:291,1,110.000003356934,8|0,2:0|0:0,0:0:0:0:
155,137,142766,5,0,0:0:0:0:
115,247,142920,1,0,0:0:0:0:
36,135,143074,1,8,2:0:0:0:
137,25,143228,1,0,0:0:0:0:
115,247,143381,2,0,P|182:247|243:184,1,110.000003356934
286,89,143689,1,0,0:0:0:0:
384,184,143843,2,0,P|394:258|355:321,1,110.000003356934,8|0,2:0|0:0,0:0:0:0:
217,225,144151,2,0,B|162:229|162:229|121:193,1,110.000003356934,0|8,0:0|2:0,0:0:0:0:
188,48,144458,1,0,0:0:0:0:
352,48,144612,6,0,L|352:168,1,110.000003356934
352,208,144843,1,0,0:0:0:0:
352,208,144920,2,0,L|232:168,1,110.000003356934,8|0,2:0|0:0,0:0:0:0:
112,224,145228,1,0,0:0:0:0:
162,334,145381,1,0,0:0:0:0:
168,145,145535,1,8,2:0:0:0:
27,282,145689,1,0,0:0:0:0:
208,256,145843,6,0,P|276:267|336:264,1,110.000003356934
432,240,146151,1,0,0:0:0:0:
284,67,146304,2,0,L|268:211,1,110.000003356934,8|0,2:0|0:0,0:0:0:0:
256,320,146612,1,0,0:0:0:0:
432,240,146766,6,0,L|333:157,1,110.000003356934,8|0,2:0|0:0,0:0:0:0:
299,149,146997,1,0,0:0:0:0:
299,149,147074,2,0,P|258:199|204:236,1,110.000003356934,8|0,2:0|0:0,0:0:0:0:
84,130,147381,2,0,L|73:266,1,110.000003356934,8|0,2:0|0:0,0:0:0:0:
168,323,147689,6,0,L|176:214,1,110.000003356934,8|0,2:0|0:0,0:0:0:0:
343,60,147997,6,0,L|340:170,1,110.000003356934,8|0,2:0|0:0,0:0:0:0:
144,303,148304,6,0,L|155:194,1,110.000003356934,8|0,2:0|0:0,0:0:0:0:
372,76,148612,6,0,L|363:186,1,110.000003356934,8|0,2:0|0:0,0:0:0:0:
131,284,148920,6,0,L|138:175,1,110.000003356934,8|0,2:0|0:0,0:0:0:0:
389,98,149228,6,0,L|380:208,1,110.000003356934,8|0,2:0|0:0,0:0:0:0:
102,266,149535,6,0,L|118:158,1,110.000003356934,8|0,2:0|0:0,0:0:0:0:
414,118,149843,6,0,L|399:227,1,110.000003356934,8|0,2:0|0:0,0:0:0:0:
75,241,150151,6,0,L|97:134,1,110.000003356934,8|0,2:0|0:0,0:0:0:0:
437,145,150458,6,0,L|417:254,1,110.000003356934,8|0,2:0|0:0,0:0:0:0:
49,217,150766,6,0,L|80:112,1,110.000003356934,8|0,2:0|0:0,0:0:0:0:
462,166,151074,6,0,L|432:272,1,110.000003356934,8|0,2:0|0:0,0:0:0:0:
293,365,151381,5,8,2:0:0:0:
262,348,151457,1,8,2:0:0:0:
234,323,151534,1,8,2:0:0:0:
222,285,151611,1,8,2:0:0:0:
209,250,151688,1,8,2:0:0:0:
193,211,151765,1,8,2:0:0:0:
168,181,151842,1,8,2:0:0:0:
124,162,151919,5,8,2:0:0:0:
78,171,151996,1,8,2:0:0:0:
42,219,152074,1,8,2:0:0:0:
47,282,152150,1,8,2:0:0:0:
86,328,152227,1,8,2:0:0:0:
155,344,152304,1,8,2:0:0:0:
219,320,152380,1,8,2:0:0:0:
265,276,152458,1,8,2:0:0:0:
304,220,152535,1,8,2:0:0:0:
340,161,152612,2,0,L|381:78,1,55.0000016784668,8|4,2:0|2:0,0:0:0:0:
56,184,159997,6,0,P|96:144|160:112,1,110.000003356934
144,320,160304,1,8,2:0:0:0:
224,240,160458,1,8,2:0:0:0:
256,352,160612,1,8,2:0:0:0:
352,144,160766,1,8,2:0:0:0:
400,352,160920,1,8,2:0:0:0:
224,128,161074,1,8,2:0:0:0:
464,256,161228,1,8,2:0:0:0:
304,48,161381,1,2,2:0:0:0:
192,272,161535,5,8,2:0:0:0:
416,192,161689,1,8,2:0:0:0:
136,56,161843,1,8,2:0:0:0:
256,336,161997,1,8,2:0:0:0:
384,80,162151,1,8,2:0:0:0:
32,184,162304,1,8,2:0:0:0:
173,79,162458,6,0,P|221:63|309:55,1,110.000003356934,8|8,2:0|2:0,0:0:0:0:
308,62,162689,1,8,2:0:0:0:
334,71,162766,1,8,2:0:0:0:
352,85,162843,1,8,2:0:0:0:
370,102,162920,1,8,2:0:0:0:
386,131,162997,1,8,2:0:0:0:
392,168,163074,1,8,2:0:0:0:
388,202,163151,1,8,2:0:0:0:
367,231,163228,1,8,2:0:0:0:
336,250,163304,1,8,2:0:0:0:
300,256,163381,1,8,2:0:0:0:
262,248,163458,1,8,2:0:0:0:
219,217,163535,1,8,2:0:0:0:
185,158,163612,1,8,2:0:0:0:
200,88,163689,1,8,2:0:0:0:
256,42,163766,1,8,2:0:0:0:
333,38,163843,1,8,2:0:0:0:
399,75,163920,1,8,2:0:0:0:
449,137,163997,1,8,2:0:0:0:
462,211,164074,1,8,2:0:0:0:
435,282,164151,1,8,2:0:0:0:
370,317,164228,1,8,2:0:0:0:
293,332,164304,6,2,P|228:336|228:336,1,59.9999981689454
256,144,164612,2,2,L|352:112,1,80
481,91,164920,5,8,2:0:0:0:
361,215,165074,1,0,0:0:0:0:
257,31,165228,2,0,L|95:95,1,119.999996337891,8|0,2:0|0:0,0:0:0:0:
27,143,165535,1,0,0:0:0:0:
93,309,165689,1,0,0:0:0:0:
212,181,165843,1,8,2:0:0:0:
352,176,165997,2,0,P|416:192|472:176,1,119.999996337891
410,56,166304,1,0,0:0:0:0:
352,272,166458,2,0,L|232:272,1,119.999996337891,8|0,2:0|0:0,0:0:0:0:
101,156,166766,5,0,0:0:0:0:
127,384,166920,1,0,0:0:0:0:
184,199,167074,2,0,P|153:252|158:315,1,119.999996337891,8|0,2:0|0:0,0:0:0:0:
285,271,167381,5,0,0:0:0:0:
285,271,167458,1,0,0:0:0:0:
285,271,167535,1,0,0:0:0:0:
89,113,167689,2,0,B|63:275,1,119.999996337891,8|0,2:0|0:0,0:0:0:0:
256,352,167997,5,0,0:0:0:0:
256,352,168074,1,0,0:0:0:0:
256,352,168151,1,0,0:0:0:0:
368,256,168304,1,8,2:0:0:0:
368,112,168458,2,0,P|304:96|240:128,1,119.999996337891
240,240,168766,1,2,2:0:0:0:
67,297,168920,2,0,P|67:201|118:165,1,119.999996337891,8|0,2:0|0:0,0:0:0:0:
160,256,169228,5,2,2:0:0:0:
272,320,169381,1,2,2:0:0:0:
336,176,169535,2,0,B|272:160|272:160|208:176,1,119.999996337891,8|0,2:0|0:0,0:0:0:0:
272,240,169843,6,0,B|219:253|219:253|160:240,1,100,8|0,2:0|0:0,0:0:0:0:
116,175,170151,1,0,0:0:0:0:
197,123,170304,2,0,L|321:53,1,100,0|8,0:0|2:0,0:0:0:0:
365,27,170612,1,0,0:0:0:0:
367,122,170766,2,0,L|365:247,1,100
293,282,171074,1,0,0:0:0:0:
277,187,171228,2,0,P|230:207|198:263,1,100
293,282,171535,1,0,0:0:0:0:
393,303,171689,6,0,B|537:303,1,110.000003356934,8|0,2:0|0:0,0:0:0:0:
367,122,171997,2,0,L|239:123,1,119.999996337891
216,320,172304,5,8,2:0:0:0:
252,310,172381,1,8,2:0:0:0:
286,296,172458,1,8,2:0:0:0:
319,277,172535,1,8,2:0:0:0:
347,253,172612,1,8,2:0:0:0:
296,64,172766,5,8,2:0:0:0:
259,73,172843,1,8,2:0:0:0:
225,87,172920,1,8,2:0:0:0:
192,106,172997,1,8,2:0:0:0:
164,130,173074,1,8,2:0:0:0:
224,288,173228,1,8,2:0:0:0:
264,272,173305,1,8,2:0:0:0:
304,256,173381,1,8,2:0:0:0:
336,64,173535,5,2,2:0:0:0:
416,256,173689,1,2,2:0:0:0:
416,48,173843,1,2,2:0:0:0:
74,185,174151,2,0,B|130:169|130:169|146:105|146:105|258:145,1,189.999994926453
255,230,174458,2,0,P|231:302|207:230,1,189.999994926453,8|0,2:0|0:0,0:0:0:0:
64,64,174766,5,8,2:0:0:0:
176,128,174920,1,0,0:0:0:0:
176,128,175074,1,0,0:0:0:0:
48,320,175228,2,0,L|192:288,1,110.000003356934,8|0,2:0|0:0,0:0:0:0:
218,225,175535,1,0,0:0:0:0:
371,210,175689,2,0,L|339:354,1,110.000003356934,8|0,2:0|0:0,0:0:0:0:
256,336,175997,5,0,0:0:0:0:
44,123,176151,2,0,L|57:243,1,110.000003356934,8|0,2:0|0:0,0:0:0:0:
100,321,176458,1,0,0:0:0:0:
256,336,176612,2,0,B|224:288|304:240,1,110.000003356934,8|0,2:0|0:0,0:0:0:0:
256,48,176920,2,0,B|288:96|208:144,1,110.000003356934
136,232,177228,5,8,2:0:0:0:
328,71,177381,1,0,0:0:0:0:
136,232,177535,1,0,0:0:0:0:
365,102,177689,1,8,2:0:0:0:
136,232,177843,1,0,0:0:0:0:
388,145,177997,1,0,0:0:0:0:
112,320,178151,6,0,P|64:288|48:208,1,110.000003356934,8|0,2:0|0:0,0:0:0:0:
128,96,178458,1,0,0:0:0:0:
272,112,178612,2,0,P|304:144|320:224,1,110.000003356934,8|0,2:0|0:0,0:0:0:0:
208,304,178920,1,0,0:0:0:0:
48,176,179074,2,0,L|160:144,1,110.000003356934,8|0,2:0|0:0,0:0:0:0:
352,112,179381,5,2,2:0:0:0:
352,128,179458,1,2,2:0:0:0:
352,144,179535,1,2,2:0:0:0:
352,160,179612,1,2,2:0:0:0:
352,176,179689,2,0,L|352:288,1,110.000003356934,2|0,2:0|0:0,0:0:0:0:
160,352,179997,6,0,P|96:320|64:256,1,110.000003356934,8|0,2:0|0:0,0:0:0:0:
48,176,180304,1,0,0:0:0:0:
98,56,180458,1,0,0:0:0:0:
161,260,180612,2,0,L|289:260,1,110.000003356934,8|0,2:0|0:0,0:0:0:0:
416,256,180920,5,0,0:0:0:0:
304,352,181074,1,0,0:0:0:0:
272,176,181228,2,0,B|144:176,1,110.000003356934,8|0,2:0|0:0,0:0:0:0:
96,128,181535,5,0,0:0:0:0:
192,288,181689,1,0,0:0:0:0:
352,208,181843,2,0,B|368:60,1,110.000003356934,8|0,2:0|0:0,0:0:0:0:
224,32,182151,5,0,0:0:0:0:
96,208,182304,1,0,0:0:0:0:
304,192,182458,2,0,L|416:176,1,110.000003356934,8|0,2:0|0:3,0:3:0:0:
496,96,182766,5,0,0:0:0:0:
448,288,182920,1,0,0:0:0:0:
304,192,183074,2,0,L|312:51,1,110.000003356934,8|0,2:0|0:0,0:0:0:0:
416,32,183381,1,0,0:0:0:0:
416,32,183535,2,0,L|410:154,1,110.000003356934,8|0,2:0|0:0,0:0:0:0:
416,256,183843,5,8,2:0:0:0:
416,256,183920,1,8,2:0:0:0:
416,256,183997,1,8,2:0:0:0:
392,256,184074,1,8,2:0:0:0:
368,256,184151,1,8,2:0:0:0:
336,256,184228,1,8,2:0:0:0:
304,256,184304,1,8,2:0:0:0:
272,256,184381,1,8,2:0:0:0:
224,256,184458,1,8,2:0:0:0:
160,256,184535,1,8,2:0:0:0:
88,256,184612,2,0,P|80:168|112:112,1,110.000003356934
160,64,184920,5,0,0:0:0:0:
339,78,185074,2,0,P|355:126|323:174,1,110.000003356934,8|0,2:0|0:0,0:0:0:0:
227,189,185381,1,0,0:0:0:0:
245,19,185535,2,0,B|373:99,1,110.000003356934,8|0,2:0|0:0,0:0:0:0:
432,144,185843,1,0,0:0:0:0:
336,288,185997,2,0,L|256:400,2,110.000003356934,8|0|0,2:0|0:0|0:0,0:0:0:0:
357,100,186458,1,8,2:0:0:0:
277,164,186612,1,0,0:0:0:0:
184,124,186766,6,0,L|72:149,1,110.000003356934
184,336,187074,1,8,2:0:0:0:
256,152,187228,1,0,0:0:0:0:
328,336,187381,1,0,0:0:0:0:
256,64,187535,1,8,2:0:0:0:
184,336,187689,1,0,0:0:0:0:
256,152,187843,1,0,0:0:0:0:
328,336,187997,1,8,2:0:0:0:
496,192,188151,2,0,L|336:160,1,110.000003356934
256,152,188458,1,8,2:0:0:0:
16,192,188612,2,0,L|176:160,1,110.000003356934
256,48,188920,2,0,L|256:208,1,110.000003356934,8|0,2:0|0:0,0:0:0:0:
416,160,189228,5,2,2:0:0:0:
416,160,189304,1,2,2:0:0:0:
416,160,189381,1,2,2:0:0:0:
416,160,189458,1,2,2:0:0:0:
416,160,189535,2,0,P|400:240|374:271,1,110.000003356934,8|0,2:0|0:0,0:0:0:0:
272,336,189843,2,0,P|208:344|144:328,1,110.000003356934
161,121,190151,2,0,L|217:245,1,110.000003356934,8|0,2:0|0:0,0:0:0:0:
272,336,190458,5,0,0:0:0:0:
268,135,190612,1,0,0:0:0:0:
94,202,190766,2,0,L|37:78,1,110.000003356934,8|0,2:0|0:0,0:0:0:0:
196,30,191074,1,0,0:0:0:0:
162,237,191228,1,0,0:0:0:0:
334,230,191381,6,0,P|400:187|410:135,1,110.000003356934,8|0,2:0|0:0,0:0:0:0:
272,48,191689,1,8,2:0:0:0:
96,144,191843,1,8,2:0:0:0:
352,224,191997,1,2,1:0:0:0:
192,32,192151,1,2,1:0:0:0:
192,240,192304,1,8,2:0:0:0:
64,64,192458,1,8,2:0:0:0:
352,64,192612,1,8,2:0:0:0:
192,336,192766,1,2,1:0:0:0:
144,48,192920,6,2,L|208:160,1,110.000003356934,2|8,1:0|2:0,1:0:0:0:
304,304,193228,1,2,1:0:0:0:
112,304,193381,1,2,1:0:0:0:
224,80,193535,1,8,2:0:0:0:
112,304,193689,1,2,1:0:0:0:
192,144,193843,5,8,2:0:0:0:
224,125,193920,1,8,2:0:0:0:
259,126,193997,1,8,2:0:0:0:
292,151,194074,1,8,2:0:0:0:
300,179,194151,1,8,2:0:0:0:
290,198,194228,1,8,2:0:0:0:
278,207,194304,1,8,2:0:0:0:
265,204,194381,1,8,2:0:0:0:
256,192,194458,1,8,2:0:0:0:
