osu file format v14

[General]
AudioFilename: audio.mp3
AudioLeadIn: 0
PreviewTime: 204530
Countdown: 0
SampleSet: Soft
StackLeniency: 0.7
Mode: 0
LetterboxInBreaks: 0
WidescreenStoryboard: 1

[Editor]
Bookmarks: 680,10280,29480,48680,58280,77480,87080,106280,125480,144680,154280,173480,190280,195080,204680,223880,243080,243680,262880,272480
DistanceSpacing: 1.5
BeatDivisor: 8
GridSize: 4
TimelineZoom: 1

[Metadata]
Title:All Eyes On Me
TitleUnicode:All Eyes On Me
Artist:Nano
ArtistUnicode:Nano
Creator:YelloJello
Version:Extra
Source:
Tags:xWaxWingx
BeatmapID:1516912
BeatmapSetID:718150

[Difficulty]
HPDrainRate:6
CircleSize:4
OverallDifficulty:7.5
ApproachRate:9.2
SliderMultiplier:2.25
SliderTickRate:2

[Events]
//Background and Video events
0,0,"Immortal Death Squad - xWaxWingx.jpg",0,0
//Break Periods
//Storyboard Layer 0 (Background)
//Storyboard Layer 1 (Fail)
//Storyboard Layer 2 (Pass)
//Storyboard Layer 3 (Foreground)
//Storyboard Sound Samples

[TimingPoints]
680,600,4,2,1,20,1,0
9680,-100,4,2,1,40,0,0
9830,-133.333333333333,4,2,1,20,0,0
9980,-133.333333333333,4,2,2,5,0,0
10280,-76.9230769230769,4,2,1,90,0,0
10580,-76.9230769230769,4,2,1,60,0,0
12680,-76.9230769230769,4,2,1,70,0,0
12980,-76.9230769230769,4,2,1,60,0,0
15080,-76.9230769230769,4,2,1,90,0,0
15380,-76.9230769230769,4,2,1,60,0,0
17480,-76.9230769230769,4,2,1,90,0,0
17780,-76.9230769230769,4,2,1,60,0,0
19880,-125,4,2,1,90,0,0
20105,-125,4,2,1,5,0,0
20180,-76.9230769230769,4,2,1,60,0,0
22280,-76.9230769230769,4,2,1,90,0,0
22580,-76.9230769230769,4,2,1,60,0,0
24680,-76.9230769230769,4,2,1,90,0,0
24980,-76.9230769230769,4,2,1,60,0,0
29480,-105.263157894737,4,2,1,60,0,0
29630,-105.263157894737,4,2,1,45,0,0
34280,-105.263157894737,4,2,1,60,0,0
34580,-105.263157894737,4,2,1,45,0,0
36680,-105.263157894737,4,2,1,60,0,0
36830,-105.263157894737,4,2,1,45,0,0
39080,-95.2380952380952,4,2,1,60,0,0
39227,-95.2380952380952,4,2,1,45,0,0
43880,-95.2380952380952,4,2,1,60,0,0
44030,-95.2380952380952,4,2,1,45,0,0
46280,-95.2380952380952,4,2,1,60,0,0
48080,-90.9090909090909,4,2,1,60,0,0
48680,-76.9230769230769,4,2,1,90,0,0
48980,-76.9230769230769,4,2,1,45,0,0
51080,-76.9230769230769,4,2,1,60,0,0
51380,-76.9230769230769,4,2,1,45,0,0
53480,-76.9230769230769,4,2,1,75,0,0
53780,-76.9230769230769,4,2,1,45,0,0
55880,-76.9230769230769,4,2,1,60,0,0
56180,-76.9230769230769,4,2,1,45,0,0
58280,-86.9565217391304,4,2,1,60,0,0
58505,-86.9565217391304,4,2,1,45,0,0
63080,-86.9565217391304,4,2,1,60,0,0
63305,-86.9565217391304,4,2,1,45,0,0
243680,600,4,2,1,20,1,0

[Colours]
Combo1 : 255,0,0
Combo2 : 255,255,128
Combo3 : 153,77,0
Combo4 : 255,128,64

[HitObjects]
150,122,680,5,0,0:0:0:0:
150,122,980,2,0,P|204:129|266:102,1,112.5
114,45,1430,2,0,P|76:84|66:143,1,112.5
124,201,1880,6,0,P|121:233|109:275,1,56.25
34,355,2180,2,0,P|93:343|160:360,1,112.5
247,384,2630,2,0,P|270:333|273:277,1,112.5
365,341,3080,5,0,0:0:0:0:
365,341,3380,2,0,P|418:357|474:352,1,112.5
374,237,3830,2,0,P|318:245|267:283,1,112.5
454,269,4280,6,0,P|463:246|470:213,1,56.25
344,107,4580,2,0,P|347:131|358:163,1,56.25
497,108,4880,2,0,P|506:85|513:52,1,56.25
235,0,5180,2,0,P|238:24|249:56,1,56.25
136,15,5480,5,6,3:0:0:0:
136,15,5780,2,0,P|70:-6|46:-2,1,56.25
98,101,6080,2,0,P|164:122|188:118,1,56.25
257,108,6380,1,0,0:0:0:0:
257,108,6530,6,0,P|273:175|272:216,1,84.375
433,0,6830,2,0,P|417:67|418:105,1,56.25
463,214,7130,1,0,0:0:0:0:
463,214,7280,2,0,P|475:188|483:162,1,56.25
272,278,7580,2,0,P|274:305|281:333,1,56.25
372,210,7880,5,6,3:0:0:0:
372,210,8180,2,0,L|378:154,1,56.25
266,222,8480,2,0,L|271:277,1,56.25
162,219,8780,2,0,L|151:164,1,56.25
213,98,9080,1,0,0:0:0:0:
228,74,9230,1,0,0:0:0:0:
136,34,9380,1,0,0:0:0:0:
120,11,9530,1,0,0:0:0:0:
385,94,9680,5,8,0:0:0:0:
488,9,9830,2,0,P|511:47|510:113,1,105.468754023314,0|0,3:0|0:0,0:0:0:0:
301,107,10280,6,0,P|287:163|307:253,1,146.249993305207,4|8,3:2|0:0,0:0:0:0:
385,94,10730,1,0,0:0:0:0:
385,94,10880,2,0,P|361:53|322:26,1,73.1249966526033,8|0,0:0|3:0,0:0:0:0:
236,6,11180,1,0,3:0:0:0:
300,108,11330,1,2,0:0:0:0:
180,115,11480,5,2,0:0:0:0:
180,115,11630,1,8,0:0:0:0:
124,6,11780,2,0,P|93:36|77:74,1,73.1249966526033,2|0,0:0|3:0,0:0:0:0:
180,115,12080,2,0,P|204:150|213:190,1,73.1249966526033,8|0,0:0|3:0,0:0:0:0:
190,299,12380,1,2,0:0:0:0:
94,220,12530,1,8,0:0:0:0:
280,127,12680,6,0,P|332:119|427:137,1,146.249993305207,4|0,3:2|3:0,0:0:0:0:
512,221,13130,1,0,0:0:0:0:
387,326,13280,2,0,P|385:289|391:253,1,73.1249966526033,8|0,0:0|3:0,0:0:0:0:
423,135,13580,1,2,0:0:0:0:
364,35,13730,1,0,3:0:0:0:
242,55,13880,5,2,0:0:0:0:
242,55,14030,2,0,P|199:114|197:130,1,73.1249966526033,8|2,0:0|0:0,0:0:0:0:
177,206,14330,1,0,3:0:0:0:
234,357,14480,1,8,0:0:0:0:
177,206,14630,1,4,3:2:0:0:
271,269,14780,1,0,0:0:0:0:
105,330,14930,1,8,0:0:0:0:
56,225,15080,6,0,P|23:256|1:361,1,146.249993305207,4|0,3:2|3:0,0:0:0:0:
105,330,15530,1,2,0:0:0:0:
177,206,15680,2,0,P|187:169|182:129,1,73.1249966526033,8|0,0:0|3:0,0:0:0:0:
89,76,15980,2,0,P|79:113|84:153,1,73.1249966526033,2|0,0:0|3:0,0:0:0:0:
205,36,16280,5,2,0:0:0:0:
338,144,16430,1,8,0:0:0:0:
201,273,16580,2,0,P|183:242|174:207,1,73.1249966526033,2|0,0:0|3:0,0:0:0:0:
422,119,16880,2,0,P|422:155|412:190,1,73.1249966526033,8|0,0:0|3:0,0:0:0:0:
338,270,17180,1,8,0:0:0:0:
315,49,17330,1,0,0:0:0:0:
230,137,17480,6,0,P|190:156|85:137,1,146.249993305207,4|0,3:2|3:0,0:0:0:0:
66,49,17930,1,0,0:0:0:0:
146,3,18080,2,0,P|155:38|157:74,1,73.1249966526033,8|0,0:0|3:0,0:0:0:0:
71,234,18380,1,2,0:0:0:0:
134,323,18530,1,0,3:0:0:0:
172,219,18680,5,2,3:0:0:0:
235,300,18830,2,0,P|265:277|292:237,1,73.1249966526033,8|2,0:0|0:0,0:0:0:0:
229,136,19130,1,0,3:0:0:0:
401,181,19280,2,0,P|412:215|413:252,1,73.1249966526033,8|4,0:0|3:0,0:0:0:0:
98,237,19580,1,0,0:0:0:0:
328,114,19730,1,8,0:0:0:0:
252,198,19880,6,0,P|233:163|230:118,1,67.5,4|0,3:2|0:0,0:0:0:0:
304,47,20180,2,0,P|324:86|327:131,1,73.1249966526033,4|0,3:2|0:0,0:0:0:0:
371,257,20480,1,8,0:0:0:0:
452,326,20630,1,0,3:0:0:0:
350,362,20780,2,0,P|306:365|276:357,1,73.1249966526033,2|0,0:0|3:0,0:0:0:0:
202,304,21080,5,2,0:0:0:0:
202,304,21230,1,8,0:0:0:0:
268,228,21380,2,0,P|273:200|271:152,1,73.1249966526033,2|0,0:0|3:0,0:0:0:0:
117,189,21680,2,0,P|145:194|193:192,1,73.1249966526033,8|0,0:0|0:0,0:0:0:0:
160,40,21980,2,0,P|155:68|157:116,1,73.1249966526033,2|8,0:0|0:0,0:0:0:0:
304,80,22280,6,0,P|386:67|452:80,1,146.249993305207,4|0,3:2|3:0,0:0:0:0:
511,148,22730,1,0,0:0:0:0:
427,242,22880,2,0,P|418:206|421:170,1,73.1249966526033,8|0,0:0|3:0,0:0:0:0:
447,78,23180,2,0,P|455:42|452:6,1,73.1249966526033,2|0,0:0|3:0,0:0:0:0:
295,149,23480,5,2,0:0:0:0:
285,49,23630,1,8,0:0:0:0:
205,107,23780,2,0,P|196:142|199:178,1,73.1249966526033,2|0,0:0|3:0,0:0:0:0:
229,266,24080,1,8,0:0:0:0:
295,149,24230,1,4,3:2:0:0:
370,263,24380,1,0,0:0:0:0:
299,379,24530,1,8,0:0:0:0:
155,315,24680,6,0,P|143:258|197:182,1,146.249993305207,4|0,3:2|3:0,0:0:0:0:
370,263,25130,1,0,0:0:0:0:
295,149,25280,2,0,P|290:110|292:59,1,73.1249966526033,8|0,0:0|3:0,0:0:0:0:
183,114,25580,2,0,P|188:153|185:203,1,73.1249966526033,2|0,0:0|3:0,0:0:0:0:
155,315,25880,5,2,0:0:0:0:
0,188,26030,1,8,0:0:0:0:
178,41,26180,2,0,P|177:77|182:113,1,73.1249966526033,2|0,0:0|3:0,0:0:0:0:
232,218,26480,1,8,0:0:0:0:
293,127,26630,1,0,3:0:0:0:
338,303,26780,2,0,P|344:267|342:231,1,73.1249966526033,12|0,0:0|0:0,0:0:0:0:
425,267,27080,6,0,P|461:266|496:257,1,73.1249966526033,4|0,3:2|0:0,0:0:0:0:
407,120,27380,1,0,3:0:0:0:
293,127,27530,1,0,0:0:0:0:
483,169,27680,2,0,P|490:143|493:92,1,73.1249966526033,8|0,0:0|3:0,0:0:0:0:
356,0,27980,2,0,P|349:26|346:77,1,73.1249966526033,2|0,0:0|3:0,0:0:0:0:
350,227,28280,5,2,0:0:0:0:
238,78,28430,1,8,0:0:0:0:
170,253,28580,1,2,0:0:0:0:
336,83,28730,1,0,3:0:0:0:
147,131,28880,1,8,0:0:0:0:
270,283,29030,1,12,0:0:0:0:
238,78,29180,1,0,0:0:0:0:
75,202,29330,1,8,0:0:0:0:
314,170,29480,6,0,L|394:159,1,53.4374985730648,4|0,3:2|0:0,0:0:0:0:
457,100,29780,2,0,P|469:152|467:206,1,106.87499714613
358,293,30230,1,0,3:0:0:0:
314,170,30380,2,0,B|292:103,1,53.4374985730648,0|8,3:0|0:0,0:0:0:0:
230,205,30680,6,0,L|222:269,1,53.4374985730648,2|8,0:0|0:0,0:0:0:0:
188,108,30980,1,2,0:0:0:0:
298,119,31130,1,0,3:0:0:0:
122,172,31280,1,8,0:0:0:0:
122,172,31430,2,0,P|100:131|95:96,1,53.4374985730648,0|0,3:0|0:0,0:0:0:0:
94,22,31730,1,8,0:0:0:0:
198,56,31880,6,0,P|195:82|187:107,1,53.4374985730648,0|0,3:0|0:0,0:0:0:0:
122,172,32180,1,0,3:0:0:0:
99,259,32330,1,0,0:0:0:0:
187,233,32480,2,0,P|224:248|239:264,1,53.4374985730648,8|0,0:0|3:0,0:0:0:0:
285,336,32780,1,0,0:0:0:0:
295,165,32930,1,0,3:0:0:0:
412,226,33080,6,0,P|420:187|415:152,1,53.4374985730648,0|8,0:0|0:0,0:0:0:0:
350,10,33380,1,2,0:0:0:0:
295,165,33530,1,0,3:0:0:0:
397,82,33680,1,8,0:0:0:0:
271,41,33830,1,0,3:0:0:0:
295,165,33980,2,0,P|297:201|288:235,1,53.4374985730648,2|8,0:0|0:0,0:0:0:0:
213,300,34280,5,4,3:2:0:0:
73,173,34580,2,0,P|76:199|85:224,1,53.4374985730648,0|0,3:0|0:0,0:0:0:0:
171,145,34880,2,0,P|167:118|158:93,1,53.4374985730648,8|0,0:0|3:0,0:0:0:0:
92,46,35180,1,2,0:0:0:0:
92,46,35330,1,0,3:0:0:0:
234,28,35480,6,0,L|298:21,1,53.4374985730648,2|8,0:0|0:0,0:0:0:0:
381,13,35780,1,2,0:0:0:0:
223,135,35930,2,0,L|159:146,1,53.4374985730648,0|8,3:0|0:0,0:0:0:0:
336,192,36230,1,0,3:0:0:0:
336,192,36380,2,0,P|346:232|343:274,1,53.4374985730648,8|0,0:0|0:0,0:0:0:0:
423,149,36680,6,0,L|438:93,1,53.4374985730648,4|0,3:2|0:0,0:0:0:0:
275,125,36980,2,0,L|211:136,1,53.4374985730648,0|2,3:0|0:0,0:0:0:0:
111,152,37280,2,0,P|116:100|121:91,1,53.4374985730648,8|0,0:0|3:0,0:0:0:0:
204,45,37580,1,2,0:0:0:0:
311,30,37730,1,0,3:0:0:0:
240,210,37880,6,0,L|176:221,1,53.4374985730648,2|8,3:0|0:0,0:0:0:0:
275,125,38180,1,2,0:0:0:0:
306,280,38330,2,0,L|318:347,1,53.4374985730648,0|8,3:0|0:0,0:0:0:0:
103,236,38630,1,0,3:0:0:0:
103,236,38780,2,0,L|91:169,1,53.4374985730648,2|8,0:0|0:0,0:0:0:0:
86,81,39080,6,0,P|112:83|152:101,1,59.0624981975556,4|0,3:2|0:0,0:0:0:0:
259,175,39380,2,0,P|270:151|274:103,1,59.0624981975556,0|0,3:0|0:0,0:0:0:0:
103,236,39680,2,0,P|122:252|166:265,1,59.0624981975556,8|0,0:0|3:0,0:0:0:0:
313,309,39980,2,0,P|304:333|271:368,1,59.0624981975556,2|0,0:0|3:0,0:0:0:0:
236,282,40280,5,2,0:0:0:0:
282,127,40430,2,0,P|302:146|317:193,1,59.0624981975556,8|2,0:0|0:0,0:0:0:0:
171,120,40730,2,0,P|175:93|198:46,1,59.0624981975556,0|8,3:0|0:0,0:0:0:0:
354,1,41030,2,0,P|349:27|325:70,1,59.0624981975556,0|2,3:0|0:0,0:0:0:0:
282,127,41330,1,8,0:0:0:0:
124,208,41480,6,0,L|194:212,1,59.0624981975556,0|0,3:0|0:0,0:0:0:0:
314,213,41780,2,0,L|286:282,1,59.0624981975556,0|2,3:0|0:0,0:0:0:0:
171,120,42080,1,8,0:0:0:0:
234,29,42230,1,0,0:0:0:0:
387,114,42380,1,2,0:0:0:0:
282,127,42530,1,0,3:0:0:0:
398,30,42680,6,0,P|446:50|459:64,1,59.0624981975556,2|8,0:0|0:0,0:0:0:0:
469,137,42980,1,2,0:0:0:0:
387,114,43130,1,0,3:0:0:0:
400,232,43280,2,0,L|408:298,1,59.0624981975556,8|0,0:0|3:0,0:0:0:0:
416,369,43580,1,2,0:0:0:0:
294,239,43730,1,8,0:0:0:0:
177,188,43880,6,0,P|169:224|172:264,1,59.0624981975556,4|2,3:2|0:0,0:0:0:0:
387,114,44180,2,0,P|395:78|392:38,1,59.0624981975556,0|0,3:0|0:0,0:0:0:0:
325,0,44480,1,8,0:0:0:0:
305,155,44630,1,0,3:0:0:0:
183,57,44780,2,0,P|147:49|107:52,1,59.0624981975556,0|0,0:0|3:0,0:0:0:0:
80,131,45080,5,2,0:0:0:0:
29,54,45230,1,8,0:0:0:0:
265,37,45380,2,0,P|264:66|257:95,1,59.0624981975556,2|0,0:0|3:0,0:0:0:0:
206,172,45680,1,8,0:0:0:0:
348,115,45830,1,0,3:0:0:0:
348,115,45980,2,0,P|377:115|406:122,1,59.0624981975556,8|0,0:0|0:0,0:0:0:0:
487,167,46280,5,4,3:2:0:0:
372,268,46430,1,0,0:0:0:0:
348,115,46580,5,0,3:0:0:0:
457,249,46730,1,0,0:0:0:0:
433,98,46880,5,8,0:0:0:0:
316,199,47030,1,0,3:0:0:0:
457,249,47180,2,0,P|471:278|471:312,1,59.0624981975556,2|0,0:0|3:0,0:0:0:0:
421,365,47480,5,2,0:0:0:0:
316,199,47630,1,8,0:0:0:0:
207,365,47780,1,2,0:0:0:0:
322,378,47930,1,0,3:0:0:0:
322,378,48080,6,0,B|334:334|314:288|314:288|294:239|320:188,1,185.625005664826,8|0,0:0|0:0,0:0:0:0:
416,131,48680,6,0,P|363:87|277:82,1,146.249993305207,4|2,3:2|0:0,0:0:0:0:
208,126,49130,1,0,0:0:0:0:
367,67,49280,2,0,P|385:37|389:-9,1,73.1249966526033,8|0,0:0|3:0,0:0:0:0:
282,3,49580,1,2,0:0:0:0:
208,126,49730,1,0,3:0:0:0:
134,3,49880,5,2,0:0:0:0:
134,3,50030,2,0,P|108:14|80:53,1,73.1249966526033,8|2,0:0|0:0,0:0:0:0:
77,141,50330,1,0,0:0:0:0:
141,203,50480,2,0,P|144:231|126:273,1,73.1249966526033,8|0,0:0|3:0,0:0:0:0:
67,350,50780,1,2,0:0:0:0:
27,252,50930,1,8,0:0:0:0:
127,271,51080,6,0,B|157:286|157:286|280:281,1,146.249993305207,4|0,3:2|3:0,0:0:0:0:
350,359,51530,1,2,0:0:0:0:
418,196,51680,2,0,P|427:224|424:288,1,73.1249966526033,8|0,0:0|3:0,0:0:0:0:
329,214,51980,2,0,P|320:186|323:122,1,73.1249966526033,2|0,0:0|3:0,0:0:0:0:
333,64,52280,5,2,0:0:0:0:
429,11,52430,2,0,P|457:2|521:5,1,73.1249966526033,8|2,0:0|0:0,0:0:0:0:
316,48,52730,1,0,3:0:0:0:
245,131,52880,2,0,P|217:140|153:137,1,73.1249966526033,8|4,0:0|3:2,0:0:0:0:
303,35,53180,1,0,0:0:0:0:
418,196,53330,1,8,0:0:0:0:
250,276,53480,6,0,B|217:282|217:282|99:246,1,146.249993305207,4|2,3:2|0:0,0:0:0:0:
37,188,53930,1,0,0:0:0:0:
33,273,54080,2,0,L|30:350,1,73.1249966526033,8|0,0:0|3:0,0:0:0:0:
247,349,54380,2,0,L|250:272,1,73.1249966526033,2|0,0:0|3:0,0:0:0:0:
255,184,54680,5,2,0:0:0:0:
303,43,54830,2,0,P|341:51|375:85,1,73.1249966526033,8|2,0:0|0:0,0:0:0:0:
255,184,55130,1,0,3:0:0:0:
217,48,55280,1,8,0:0:0:0:
385,152,55430,1,0,3:0:0:0:
388,22,55580,1,8,0:0:0:0:
333,220,55730,1,0,0:0:0:0:
217,48,55880,6,0,B|193:58|193:58|52:52,1,146.249993305207,4|0,3:2|3:0,0:0:0:0:
0,9,56330,1,0,0:0:0:0:
55,244,56480,2,0,L|66:155,1,73.1249966526033,8|0,0:0|3:0,0:0:0:0:
72,52,56780,1,2,0:0:0:0:
231,158,56930,1,0,3:0:0:0:
313,59,57080,5,2,0:0:0:0:
313,59,57230,1,8,0:0:0:0:
447,165,57380,2,0,L|442:238,1,73.1249966526033,2|0,0:0|3:0,0:0:0:0:
301,364,57680,1,8,0:0:0:0:
310,230,57830,1,4,3:2:0:0:
437,371,57980,1,0,0:0:0:0:
442,237,58130,1,12,0:2:0:0:
245,170,58280,6,0,P|226:208|231:281,1,97.0312518507243,4|0,3:2|0:0,0:0:0:0:
301,364,58580,2,0,L|202:377,1,97.0312518507243,0|0,3:0|0:0,0:0:0:0:
102,384,58880,2,0,P|94:342|95:308,1,64.6875012338162,8|0,0:0|3:0,0:0:0:0:
127,208,59180,1,2,0:0:0:0:
224,261,59330,1,0,3:0:0:0:
47,249,59480,5,2,0:0:0:0:
47,249,59630,2,0,P|39:208|42:162,1,64.6875012338162,8|0,0:0|0:0,0:0:0:0:
60,89,59930,1,0,3:0:0:0:
131,2,60080,1,8,0:0:0:0:
180,104,60230,1,0,3:0:0:0:
229,2,60380,1,0,0:0:0:0:
308,183,60530,1,8,0:0:0:0:
357,81,60680,5,4,3:2:0:0:
357,81,60830,2,0,P|391:100|418:147,1,64.6875012338162,0|0,0:0|3:0,0:0:0:0:
241,231,61130,1,0,0:0:0:0:
241,231,61280,2,0,P|230:193|244:141,1,64.6875012338162,8|0,0:0|3:0,0:0:0:0:
256,70,61580,1,0,0:0:0:0:
256,70,61730,6,0,P|218:80|166:66,1,64.6875012338162,0|2,3:0|0:0,0:0:0:0:
109,8,62030,2,0,L|99:81,1,64.6875012338162,8|2,0:0|0:0,0:0:0:0:
89,174,62330,1,0,3:0:0:0:
232,317,62480,2,0,P|248:272|248:234,1,64.6875012338162,8|0,0:0|3:0,0:0:0:0:
229,175,62780,1,2,0:0:0:0:
89,317,62930,1,8,0:0:0:0:
324,238,63080,6,0,P|372:227|448:237,1,97.0312518507243,4|0,3:2|3:0,0:0:0:0:
