osu file format v14

[General]
AudioFilename: audio.mp3
AudioLeadIn: 0
PreviewTime: 77709
Countdown: 0
SampleSet: Soft
StackLeniency: 0.7
Mode: 3
LetterboxInBreaks: 1
SpecialStyle: 0
WidescreenStoryboard: 1

[Editor]
DistanceSpacing: 2
BeatDivisor: 16
GridSize: 4
TimelineZoom: 2.799999

[Metadata]
Title:DRAGONLADY (SUPER FIRE PROWREST REMIX)
TitleUnicode:DRAGONLADY (SUPER FIRE PROWREST REMIX)
Artist:Nankumo
ArtistUnicode:Nankumo
Creator:_Gaster
Version:F-F-F-F-FIRE
Source:BMS
Tags:happy Groundbreaking -03- TECHNO #6 BOF2009 COMPILATION ALBUM
BeatmapID:1297730
BeatmapSetID:615223

[Difficulty]
HPDrainRate:7
CircleSize:4
OverallDifficulty:7
ApproachRate:5
SliderMultiplier:1.4
SliderTickRate:1

[Events]
//Background and Video events
0,0,"cube_stagefile_00.jpg",0,0
//Break Periods
//Storyboard Layer 0 (Background)
//Storyboard Layer 1 (Fail)
//Storyboard Layer 2 (Pass)
//Storyboard Layer 3 (Foreground)
//Storyboard Layer 4 (Overlay)
//Storyboard Sound Samples

[TimingPoints]
-1,600000000,4,2,0,0,1,0
0,387.096774193548,4,2,0,0,1,0
193,1,4,2,0,0,1,0
194,600000000,4,2,0,0,1,0
774,387.096774193548,4,2,0,0,1,0
967,1,4,2,0,0,1,0
968,600000000,4,2,0,0,1,0
1548,387.096774193548,4,2,0,0,1,0
1935,-90.9090909090909,4,2,0,0,0,0
2322,-83.3333333333333,4,2,0,0,0,0
3096,387.096774193548,4,2,0,0,1,0
3097,-83.3333333333333,4,2,0,0,0,0
9290,-90.9090909090909,4,2,0,0,0,0
15483,-100,4,2,0,0,0,0
21677,-111.111111111111,4,2,0,0,0,0
23225,-125,4,2,0,0,0,0
24774,-142.857142857143,4,2,0,0,0,0
25548,-166.666666666667,4,2,0,0,0,0
26322,-200,4,2,0,0,0,0
27870,-166.666666666667,4,2,0,0,0,0
28645,-142.857142857143,4,2,0,0,0,0
29419,-125,4,2,0,0,0,0
30193,-111.111111111111,4,2,0,0,0,0
30967,-100,4,2,0,0,0,0
39387,-10000,4,2,0,0,0,0
39653,-10,4,2,0,0,0,0
39700,-10000,4,2,0,0,0,0
39943,-10,4,2,0,0,0,0
39991,-10000,4,2,0,0,0,0
40137,-20,4,2,0,0,0,0
40160,-100,4,2,0,0,0,0
64209,-10000,4,2,0,0,0,0
64233,-50,4,2,0,0,0,0
64258,-100,4,2,0,0,0,0
64306,-10000,4,2,0,0,0,0
64330,-50,4,2,0,0,0,0
64354,-100,4,2,0,0,0,0
64403,-10000,4,2,0,0,0,0
64427,-50,4,2,0,0,0,0
64451,-100,4,2,0,0,0,0
64499,-10000,4,2,0,0,0,0
64524,-50,4,2,0,0,0,0
64548,-100,4,2,0,0,0,0
64596,-10000,4,2,0,0,0,0
64620,-50,4,2,0,0,0,0
64645,-100,4,2,0,0,0,0
64693,-10000,4,2,0,0,0,0
64717,-50,4,2,0,0,0,0
64741,-100,4,2,0,0,0,0
64790,-10000,4,2,0,0,0,0
64814,-50,4,2,0,0,0,0
64838,-100,4,2,0,0,0,0
64887,-10000,4,2,0,0,0,0
64911,-50,4,2,0,0,0,0
64935,-100,4,2,0,0,0,0
64983,-10000,4,2,0,0,0,0
65008,-50,4,2,0,0,0,0
65032,-100,4,2,0,0,0,0
65806,1,4,2,0,0,1,0
66193,387.096774193548,4,2,0,0,1,0
66580,387.096774193548,4,2,0,0,1,0
67354,1,4,2,0,0,1,0
67741,387.096774193548,4,2,0,0,1,0
68129,387.096774193548,4,2,0,0,1,0
68903,1,4,2,0,0,1,0
69290,387.096774193548,4,2,0,0,1,0
69677,387.096774193548,4,2,0,0,1,0
70451,1,4,2,0,0,1,0
70838,387.096774193548,4,2,0,0,1,0
71225,387.096774193548,4,2,0,0,1,0
71999,1,4,2,0,0,1,0
72387,387.096774193548,4,2,0,0,1,0
72774,387.096774193548,4,2,0,0,1,0
73548,1,4,2,0,0,1,0
73935,387.096774193548,4,2,0,0,1,0
74322,387.096774193548,4,2,0,0,1,0
77419,1,4,2,0,0,1,0
77420,600000000,4,2,0,0,1,0
77709,387.096774193548,4,2,0,0,1,0
77710,-50,4,2,0,0,0,0
77806,387.096774193548,4,2,0,0,1,0
83612,387.096774193548,4,2,0,0,1,0
89806,1,4,2,0,0,1,0
89807,600000000,4,2,0,0,1,0
90193,387.096774193548,4,2,0,0,1,0
90580,1,4,2,0,0,1,0
90581,600000000,4,2,0,0,1,0
90967,387.096774193548,4,2,0,0,1,0
91354,1,4,2,0,0,1,0
91355,600000000,4,2,0,0,1,0
91741,387.096774193548,4,2,0,0,1,0
92129,1,4,2,0,0,1,0
92130,600000000,4,2,0,0,1,0
92516,387.096774193548,4,2,0,0,1,0
92903,1,4,2,0,0,1,0
92904,600000000,4,2,0,0,1,0
93290,387.096774193548,4,2,0,0,1,0
93677,-25,4,2,0,0,0,0
93701,1,4,2,0,0,1,0
93702,600000000,4,2,0,0,1,0
94161,387.096774193548,4,2,0,0,1,0
97741,1,4,2,0,0,1,0
97742,600000000,4,2,0,0,1,0
98322,387.096774193548,4,2,0,0,1,0
98516,1,4,2,0,0,1,0
98517,600000000,4,2,0,0,1,0
99096,387.096774193548,4,2,0,0,1,0
100644,387.096774193548,4,2,0,0,1,0
105967,-10000,4,2,0,0,0,0
106040,-25,4,2,0,0,0,0
106064,-10000,4,2,0,0,0,0
106137,-25,4,2,0,0,0,0
106161,-10000,4,2,0,0,0,0
106233,-25,4,2,0,0,0,0
106258,-10000,4,2,0,0,0,0
106330,-25,4,2,0,0,0,0
106354,-10000,4,2,0,0,0,0
106427,-25,4,2,0,0,0,0
106451,-10000,4,2,0,0,0,0
106524,-25,4,2,0,0,0,0
106548,-10000,4,2,0,0,0,0
106620,-25,4,2,0,0,0,0
106645,-10000,4,2,0,0,0,0
106717,-25,4,2,0,0,0,0
106741,-10000,4,2,0,0,0,0
106814,-25,4,2,0,0,0,0
106838,-100,4,2,0,0,0,0
116032,1,4,2,0,0,1,0
119129,387.096774193548,4,2,0,0,1,0
119225,387.096774193548,4,2,0,0,1,0
122225,1,4,2,0,0,1,0
125322,387.096774193548,4,2,0,0,1,0
125419,387.096774193548,4,2,0,0,1,0
137806,-111.111111111111,4,2,0,0,0,0
138580,-125,4,2,0,0,0,0
139354,-142.857142857143,4,2,0,0,0,0
140129,-166.666666666667,4,2,0,0,0,0
140903,-200,4,2,0,0,0,0
141290,-166.666666666667,4,2,0,0,0,0
141677,-142.857142857143,4,2,0,0,0,0
142064,-125,4,2,0,0,0,0
142451,-111.111111111111,4,2,0,0,0,0
142838,-100,4,2,0,0,0,0
143225,-90.9090909090909,4,2,0,0,0,0
143612,-83.3333333333333,4,2,0,0,0,0
143999,1,4,2,0,0,1,0
145451,387.096774193548,4,2,0,0,1,0
145548,387.096774193548,4,2,0,0,1,0
150193,387.096774193548,4,2,0,0,1,0
155564,-10000,4,2,0,0,0,0
155588,-50,4,2,0,0,0,0
155612,-100,4,2,0,0,0,0
155661,-10000,4,2,0,0,0,0
155685,-50,4,2,0,0,0,0
155709,-100,4,2,0,0,0,0
155758,-10000,4,2,0,0,0,0
155782,-50,4,2,0,0,0,0
155806,-100,4,2,0,0,0,0
155854,-10000,4,2,0,0,0,0
155879,-50,4,2,0,0,0,0
155903,-100,4,2,0,0,0,0
155951,-10000,4,2,0,0,0,0
155975,-50,4,2,0,0,0,0
155999,-100,4,2,0,0,0,0
156048,-10000,4,2,0,0,0,0
156072,-50,4,2,0,0,0,0
156096,-100,4,2,0,0,0,0
156145,-10000,4,2,0,0,0,0
156169,-50,4,2,0,0,0,0
156193,-100,4,2,0,0,0,0
156241,-10000,4,2,0,0,0,0
156266,-50,4,2,0,0,0,0
156290,-100,4,2,0,0,0,0
156338,-10000,4,2,0,0,0,0
156362,-50,4,2,0,0,0,0
156387,-100,4,2,0,0,0,0
168774,1,4,2,0,0,1,0
168775,600000000,4,2,0,0,1,0
169161,387.096774193548,4,2,0,0,1,0
169548,1,4,2,0,0,1,0
169549,600000000,4,2,0,0,1,0
169935,387.096774193548,4,2,0,0,1,0
170322,1,4,2,0,0,1,0
170323,600000000,4,2,0,0,1,0
170709,387.096774193548,4,2,0,0,1,0
171096,1,4,2,0,0,1,0
171097,600000000,4,2,0,0,1,0
171483,387.096774193548,4,2,0,0,1,0
171870,1,4,2,0,0,1,0
171871,600000000,4,2,0,0,1,0
172258,387.096774193548,4,2,0,0,1,0
172645,-25,4,2,0,0,0,0
172669,1,4,2,0,0,1,0
172670,600000000,4,2,0,0,1,0
173129,387.096774193548,4,2,0,0,1,0
173419,-25,4,2,0,0,0,0
173443,1,4,2,0,0,1,0
173444,600000000,4,2,0,0,1,0
173903,387.096774193548,4,2,0,0,1,0
174193,-25,4,2,0,0,0,0
174217,1,4,2,0,0,1,0
174218,600000000,4,2,0,0,1,0
174677,387.096774193548,4,2,0,0,1,0
178258,1,4,2,0,0,1,0
178259,600000000,4,2,0,0,1,0
178838,387.096774193548,4,2,0,0,1,0
179032,1,4,2,0,0,1,0
179033,600000000,4,2,0,0,1,0
179612,387.096774193548,4,2,0,0,1,0
181160,387.096774193548,4,2,0,0,1,0

[HitObjects]
64,192,0,5,0,0:0:0:0:
192,192,0,1,0,0:0:0:0:
320,192,0,1,0,0:0:0:0:
448,192,0,1,0,0:0:0:0:
320,192,193,1,0,0:0:0:0:
192,192,193,1,0,0:0:0:0:
64,192,774,1,0,0:0:0:0:
192,192,774,1,0,0:0:0:0:
448,192,774,1,0,0:0:0:0:
320,192,774,1,0,0:0:0:0:
192,192,967,1,0,0:0:0:0:
320,192,967,1,0,0:0:0:0:
448,192,1548,1,0,0:0:0:0:
192,192,1548,1,0,0:0:0:0:
64,192,1548,1,0,0:0:0:0:
320,192,1548,1,0,0:0:0:0:
320,192,1741,1,0,0:0:0:0:
192,192,1741,1,0,0:0:0:0:
192,192,1838,1,0,0:0:0:0:
320,192,1838,1,0,0:0:0:0:
64,192,1935,1,0,0:0:0:0:
192,192,1935,1,0,0:0:0:0:
448,192,1935,1,0,0:0:0:0:
320,192,1935,1,0,0:0:0:0:
320,192,2129,1,0,0:0:0:0:
192,192,2129,1,0,0:0:0:0:
192,192,2225,1,0,0:0:0:0:
320,192,2225,1,0,0:0:0:0:
64,192,2322,1,0,0:0:0:0:
64,192,2419,1,0,0:0:0:0:
192,192,2516,1,0,0:0:0:0:
192,192,2612,1,0,0:0:0:0:
320,192,2709,1,0,0:0:0:0:
320,192,2806,1,0,0:0:0:0:
448,192,2903,1,0,0:0:0:0:
448,192,2999,1,0,0:0:0:0:
448,192,3096,1,0,0:0:0:0:
192,192,3096,1,0,0:0:0:0:
64,192,3096,1,0,0:0:0:0:
320,192,3096,1,0,0:0:0:0:
64,192,3290,1,0,0:0:0:0:
64,192,3387,1,0,0:0:0:0:
192,192,3483,1,0,0:0:0:0:
320,192,3483,1,0,0:0:0:0:
448,192,3483,1,0,0:0:0:0:
64,192,3580,1,0,0:0:0:0:
64,192,3677,1,0,0:0:0:0:
320,192,3774,1,0,0:0:0:0:
64,192,3870,1,0,0:0:0:0:
448,192,3870,1,0,0:0:0:0:
192,192,3870,1,0,0:0:0:0:
320,192,4064,1,0,0:0:0:0:
320,192,4161,1,0,0:0:0:0:
64,192,4258,1,0,0:0:0:0:
448,192,4258,1,0,0:0:0:0:
192,192,4258,1,0,0:0:0:0:
320,192,4354,1,0,0:0:0:0:
320,192,4451,1,0,0:0:0:0:
448,192,4548,1,0,0:0:0:0:
192,192,4645,1,0,0:0:0:0:
320,192,4645,1,0,0:0:0:0:
64,192,4645,1,0,0:0:0:0:
448,192,4838,1,0,0:0:0:0:
448,192,4935,1,0,0:0:0:0:
320,192,5032,1,0,0:0:0:0:
64,192,5032,1,0,0:0:0:0:
192,192,5032,1,0,0:0:0:0:
448,192,5129,1,0,0:0:0:0:
448,192,5225,1,0,0:0:0:0:
192,192,5322,1,0,0:0:0:0:
64,192,5419,1,0,0:0:0:0:
320,192,5419,1,0,0:0:0:0:
448,192,5419,1,0,0:0:0:0:
448,192,5516,1,0,0:0:0:0:
448,192,5612,1,0,0:0:0:0:
192,192,5612,1,0,0:0:0:0:
448,192,5709,1,0,0:0:0:0:
192,192,5709,1,0,0:0:0:0:
448,192,5806,1,0,0:0:0:0:
64,192,5806,1,0,0:0:0:0:
320,192,5806,1,0,0:0:0:0:
192,192,5903,1,0,0:0:0:0:
192,192,5999,1,0,0:0:0:0:
64,192,6096,1,0,0:0:0:0:
320,192,6193,1,0,0:0:0:0:
192,192,6193,1,0,0:0:0:0:
448,192,6193,1,0,0:0:0:0:
64,192,6387,1,0,0:0:0:0:
64,192,6483,1,0,0:0:0:0:
192,192,6580,1,0,0:0:0:0:
320,192,6580,1,0,0:0:0:0:
448,192,6580,1,0,0:0:0:0:
64,192,6677,1,0,0:0:0:0:
64,192,6774,1,0,0:0:0:0:
320,192,6870,1,0,0:0:0:0:
192,192,6967,1,0,0:0:0:0:
64,192,6967,1,0,0:0:0:0:
448,192,6967,1,0,0:0:0:0:
320,192,7161,1,0,0:0:0:0:
320,192,7258,1,0,0:0:0:0:
192,192,7354,1,0,0:0:0:0:
64,192,7354,1,0,0:0:0:0:
448,192,7354,1,0,0:0:0:0:
320,192,7451,1,0,0:0:0:0:
320,192,7548,1,0,0:0:0:0:
192,192,7645,1,0,0:0:0:0:
64,192,7741,1,0,0:0:0:0:
320,192,7741,1,0,0:0:0:0:
448,192,7741,1,0,0:0:0:0:
192,192,7935,1,0,0:0:0:0:
192,192,8032,1,0,0:0:0:0:
64,192,8129,1,0,0:0:0:0:
320,192,8129,1,0,0:0:0:0:
448,192,8129,1,0,0:0:0:0:
192,192,8225,1,0,0:0:0:0:
192,192,8322,1,0,0:0:0:0:
320,192,8419,1,0,0:0:0:0:
64,192,8516,1,0,0:0:0:0:
192,192,8516,1,0,0:0:0:0:
448,192,8516,1,0,0:0:0:0:
448,192,8612,1,0,0:0:0:0:
320,192,8709,1,0,0:0:0:0:
320,192,8806,1,0,0:0:0:0:
192,192,8903,1,0,0:0:0:0:
192,192,8999,1,0,0:0:0:0:
64,192,9096,1,0,0:0:0:0:
64,192,9193,1,0,0:0:0:0:
448,192,9290,1,0,0:0:0:0:
320,192,9290,1,0,0:0:0:0:
192,192,9290,1,0,0:0:0:0:
64,192,9483,1,0,0:0:0:0:
64,192,9580,1,0,0:0:0:0:
192,192,9677,1,0,0:0:0:0:
320,192,9677,1,0,0:0:0:0:
448,192,9677,1,0,0:0:0:0:
64,192,9774,1,0,0:0:0:0:
64,192,9870,1,0,0:0:0:0:
448,192,9967,1,0,0:0:0:0:
320,192,10064,1,0,0:0:0:0:
64,192,10064,1,0,0:0:0:0:
192,192,10064,1,0,0:0:0:0:
448,192,10258,1,0,0:0:0:0:
448,192,10354,1,0,0:0:0:0:
320,192,10451,1,0,0:0:0:0:
192,192,10451,1,0,0:0:0:0:
64,192,10451,1,0,0:0:0:0:
448,192,10548,1,0,0:0:0:0:
448,192,10645,1,0,0:0:0:0:
192,192,10741,1,0,0:0:0:0:
320,192,10838,1,0,0:0:0:0:
448,192,10838,1,0,0:0:0:0:
64,192,10838,1,0,0:0:0:0:
192,192,11032,1,0,0:0:0:0:
192,192,11129,1,0,0:0:0:0:
320,192,11225,1,0,0:0:0:0:
448,192,11225,1,0,0:0:0:0:
64,192,11225,1,0,0:0:0:0:
192,192,11322,1,0,0:0:0:0:
192,192,11419,1,0,0:0:0:0:
320,192,11516,1,0,0:0:0:0:
192,192,11612,1,0,0:0:0:0:
64,192,11612,1,0,0:0:0:0:
448,192,11612,1,0,0:0:0:0:
192,192,11709,1,0,0:0:0:0:
64,192,11709,1,0,0:0:0:0:
320,192,11806,1,0,0:0:0:0:
320,192,11903,1,0,0:0:0:0:
64,192,11999,1,0,0:0:0:0:
448,192,11999,1,0,0:0:0:0:
192,192,11999,1,0,0:0:0:0:
320,192,12096,1,0,0:0:0:0:
320,192,12193,1,0,0:0:0:0:
64,192,12290,1,0,0:0:0:0:
192,192,12387,1,0,0:0:0:0:
320,192,12387,1,0,0:0:0:0:
448,192,12387,1,0,0:0:0:0:
64,192,12580,1,0,0:0:0:0:
64,192,12677,1,0,0:0:0:0:
320,192,12774,1,0,0:0:0:0:
448,192,12774,1,0,0:0:0:0:
192,192,12774,1,0,0:0:0:0:
64,192,12870,1,0,0:0:0:0:
64,192,12967,1,0,0:0:0:0:
192,192,13064,1,0,0:0:0:0:
64,192,13161,1,0,0:0:0:0:
320,192,13161,1,0,0:0:0:0:
448,192,13161,1,0,0:0:0:0:
192,192,13354,1,0,0:0:0:0:
192,192,13451,1,0,0:0:0:0:
320,192,13548,1,0,0:0:0:0:
448,192,13548,1,0,0:0:0:0:
64,192,13548,1,0,0:0:0:0:
192,192,13645,1,0,0:0:0:0:
192,192,13741,1,0,0:0:0:0:
320,192,13838,1,0,0:0:0:0:
192,192,13935,1,0,0:0:0:0:
64,192,13935,1,0,0:0:0:0:
448,192,13935,1,0,0:0:0:0:
320,192,14129,1,0,0:0:0:0:
320,192,14225,1,0,0:0:0:0:
192,192,14322,1,0,0:0:0:0:
64,192,14322,1,0,0:0:0:0:
448,192,14322,1,0,0:0:0:0:
320,192,14419,1,0,0:0:0:0:
320,192,14516,1,0,0:0:0:0:
448,192,14612,1,0,0:0:0:0:
320,192,14709,1,0,0:0:0:0:
192,192,14709,1,0,0:0:0:0:
64,192,14709,1,0,0:0:0:0:
64,192,14806,1,0,0:0:0:0:
192,192,14903,1,0,0:0:0:0:
192,192,14999,1,0,0:0:0:0:
320,192,15096,1,0,0:0:0:0:
320,192,15193,1,0,0:0:0:0:
448,192,15290,1,0,0:0:0:0:
448,192,15387,1,0,0:0:0:0:
448,192,15483,1,0,0:0:0:0:
320,192,15483,1,0,0:0:0:0:
192,192,15483,1,0,0:0:0:0:
64,192,15483,1,0,0:0:0:0:
192,192,15677,1,0,0:0:0:0:
448,192,15677,1,0,0:0:0:0:
192,192,15774,1,0,0:0:0:0:
448,192,15774,1,0,0:0:0:0:
320,192,15870,1,0,0:0:0:0:
64,192,15870,1,0,0:0:0:0:
192,192,15967,1,0,0:0:0:0:
448,192,15967,1,0,0:0:0:0:
192,192,16064,1,0,0:0:0:0:
448,192,16064,1,0,0:0:0:0:
320,192,16161,1,0,0:0:0:0:
192,192,16258,1,0,0:0:0:0:
64,192,16258,1,0,0:0:0:0:
448,192,16258,1,0,0:0:0:0:
64,192,16451,1,0,0:0:0:0:
320,192,16451,1,0,0:0:0:0:
64,192,16548,1,0,0:0:0:0:
320,192,16548,1,0,0:0:0:0:
192,192,16645,1,0,0:0:0:0:
448,192,16645,1,0,0:0:0:0:
64,192,16741,1,0,0:0:0:0:
320,192,16741,1,0,0:0:0:0:
64,192,16838,1,0,0:0:0:0:
320,192,16838,1,0,0:0:0:0:
448,192,16935,1,0,0:0:0:0:
64,192,17032,1,0,0:0:0:0:
320,192,17032,1,0,0:0:0:0:
192,192,17032,1,0,0:0:0:0:
448,192,17225,1,0,0:0:0:0:
64,192,17225,1,0,0:0:0:0:
448,192,17322,1,0,0:0:0:0:
64,192,17322,1,0,0:0:0:0:
192,192,17419,1,0,0:0:0:0:
320,192,17419,1,0,0:0:0:0:
64,192,17516,1,0,0:0:0:0:
448,192,17516,1,0,0:0:0:0:
64,192,17612,1,0,0:0:0:0:
448,192,17612,1,0,0:0:0:0:
320,192,17709,1,0,0:0:0:0:
64,192,17806,1,0,0:0:0:0:
448,192,17806,1,0,0:0:0:0:
192,192,17806,1,0,0:0:0:0:
64,192,17903,1,0,0:0:0:0:
64,192,17999,1,0,0:0:0:0:
320,192,17999,1,0,0:0:0:0:
448,192,17999,1,0,0:0:0:0:
64,192,18096,1,0,0:0:0:0:
448,192,18096,1,0,0:0:0:0:
320,192,18096,1,0,0:0:0:0:
64,192,18193,1,0,0:0:0:0:
192,192,18193,1,0,0:0:0:0:
320,192,18290,1,0,0:0:0:0:
448,192,18290,1,0,0:0:0:0:
320,192,18387,1,0,0:0:0:0:
448,192,18387,1,0,0:0:0:0:
192,192,18483,1,0,0:0:0:0:
64,192,18580,1,0,0:0:0:0:
448,192,18580,1,0,0:0:0:0:
320,192,18580,1,0,0:0:0:0:
192,192,18774,1,0,0:0:0:0:
320,192,18774,1,0,0:0:0:0:
320,192,18870,1,0,0:0:0:0:
192,192,18870,1,0,0:0:0:0:
64,192,18967,1,0,0:0:0:0:
448,192,18967,1,0,0:0:0:0:
320,192,19064,1,0,0:0:0:0:
192,192,19064,1,0,0:0:0:0:
192,192,19161,1,0,0:0:0:0:
320,192,19161,1,0,0:0:0:0:
64,192,19258,1,0,0:0:0:0:
192,192,19354,1,0,0:0:0:0:
320,192,19354,1,0,0:0:0:0:
448,192,19354,1,0,0:0:0:0:
64,192,19548,1,0,0:0:0:0:
192,192,19548,1,0,0:0:0:0:
64,192,19645,1,0,0:0:0:0:
192,192,19645,1,0,0:0:0:0:
320,192,19741,1,0,0:0:0:0:
448,192,19741,1,0,0:0:0:0:
192,192,19838,1,0,0:0:0:0:
64,192,19838,1,0,0:0:0:0:
64,192,19935,1,0,0:0:0:0:
192,192,19935,1,0,0:0:0:0:
448,192,20032,1,0,0:0:0:0:
320,192,20129,1,0,0:0:0:0:
192,192,20129,1,0,0:0:0:0:
64,192,20129,1,0,0:0:0:0:
64,192,20322,1,0,0:0:0:0:
448,192,20322,1,0,0:0:0:0:
64,192,20419,1,0,0:0:0:0:
448,192,20419,1,0,0:0:0:0:
320,192,20516,1,0,0:0:0:0:
192,192,20516,1,0,0:0:0:0:
64,192,20612,1,0,0:0:0:0:
448,192,20612,1,0,0:0:0:0:
64,192,20709,1,0,0:0:0:0:
448,192,20709,1,0,0:0:0:0:
320,192,20806,1,0,0:0:0:0:
192,192,20903,1,0,0:0:0:0:
64,192,20903,1,0,0:0:0:0:
448,192,20903,1,0,0:0:0:0:
64,192,20999,1,0,0:0:0:0:
192,192,21096,1,0,0:0:0:0:
192,192,21193,1,0,0:0:0:0:
320,192,21290,1,0,0:0:0:0:
320,192,21387,1,0,0:0:0:0:
448,192,21483,1,0,0:0:0:0:
448,192,21580,1,0,0:0:0:0:
320,192,21677,1,0,0:0:0:0:
192,192,21677,1,0,0:0:0:0:
64,192,21677,1,0,0:0:0:0:
64,192,21870,1,0,0:0:0:0:
320,192,21870,1,0,0:0:0:0:
64,192,21967,1,0,0:0:0:0:
320,192,21967,1,0,0:0:0:0:
192,192,22161,1,0,0:0:0:0:
448,192,22161,1,0,0:0:0:0:
192,192,22258,1,0,0:0:0:0:
448,192,22258,1,0,0:0:0:0:
64,192,22451,1,0,0:0:0:0:
448,192,22451,1,0,0:0:0:0:
192,192,22451,1,0,0:0:0:0:
320,192,22451,1,0,0:0:0:0:
192,192,22645,1,0,0:0:0:0:
64,192,22645,1,0,0:0:0:0:
64,192,22741,1,0,0:0:0:0:
192,192,22741,1,0,0:0:0:0:
320,192,22935,1,0,0:0:0:0:
448,192,22935,1,0,0:0:0:0:
320,192,23032,1,0,0:0:0:0:
448,192,23032,1,0,0:0:0:0:
192,192,23225,1,0,0:0:0:0:
320,192,23225,1,0,0:0:0:0:
448,192,23225,1,0,0:0:0:0:
64,192,23225,1,0,0:0:0:0:
64,192,23419,1,0,0:0:0:0:
448,192,23419,1,0,0:0:0:0:
64,192,23516,1,0,0:0:0:0:
448,192,23516,1,0,0:0:0:0:
320,192,23709,1,0,0:0:0:0:
192,192,23709,1,0,0:0:0:0:
320,192,23806,1,0,0:0:0:0:
192,192,23806,1,0,0:0:0:0:
448,192,23999,1,0,0:0:0:0:
192,192,23999,1,0,0:0:0:0:
64,192,23999,1,0,0:0:0:0:
320,192,23999,1,0,0:0:0:0:
192,192,24193,1,0,0:0:0:0:
448,192,24193,1,0,0:0:0:0:
192,192,24290,1,0,0:0:0:0:
448,192,24290,1,0,0:0:0:0:
320,192,24483,1,0,0:0:0:0:
64,192,24483,1,0,0:0:0:0:
320,192,24580,1,0,0:0:0:0:
64,192,24580,1,0,0:0:0:0:
448,192,24774,1,0,0:0:0:0:
192,192,24774,1,0,0:0:0:0:
320,192,24774,1,0,0:0:0:0:
64,192,24774,1,0,0:0:0:0:
320,192,24967,1,0,0:0:0:0:
448,192,24967,1,0,0:0:0:0:
320,192,25064,1,0,0:0:0:0:
448,192,25064,1,0,0:0:0:0:
192,192,25258,1,0,0:0:0:0:
64,192,25258,1,0,0:0:0:0:
192,192,25354,1,0,0:0:0:0:
64,192,25354,1,0,0:0:0:0:
448,192,25548,1,0,0:0:0:0:
192,192,25548,1,0,0:0:0:0:
64,192,25548,1,0,0:0:0:0:
320,192,25548,1,0,0:0:0:0:
192,192,25741,1,0,0:0:0:0:
64,192,25741,1,0,0:0:0:0:
64,192,25838,1,0,0:0:0:0:
192,192,25838,1,0,0:0:0:0:
320,192,26032,1,0,0:0:0:0:
448,192,26032,1,0,0:0:0:0:
320,192,26129,1,0,0:0:0:0:
448,192,26129,1,0,0:0:0:0:
448,192,26322,1,0,0:0:0:0:
320,192,26322,1,0,0:0:0:0:
192,192,26322,1,0,0:0:0:0:
64,192,26322,1,0,0:0:0:0:
448,192,26516,1,0,0:0:0:0:
64,192,26516,1,0,0:0:0:0:
64,192,26612,1,0,0:0:0:0:
448,192,26612,1,0,0:0:0:0:
192,192,26806,1,0,0:0:0:0:
320,192,26806,1,0,0:0:0:0:
192,192,26903,1,0,0:0:0:0:
320,192,26903,1,0,0:0:0:0:
64,192,27096,1,0,0:0:0:0:
64,192,27193,1,0,0:0:0:0:
192,192,27290,1,0,0:0:0:0:
192,192,27387,1,0,0:0:0:0:
320,192,27483,1,0,0:0:0:0:
320,192,27580,1,0,0:0:0:0:
448,192,27677,1,0,0:0:0:0:
448,192,27774,1,0,0:0:0:0:
64,192,27870,128,0,27967:0:0:0:0:
64,192,28064,128,0,28258:0:0:0:0:
448,192,28258,128,0,28354:0:0:0:0:
320,192,28354,128,0,28451:0:0:0:0:
64,192,28451,128,0,28548:0:0:0:0:
192,192,28548,128,0,28645:0:0:0:0:
448,192,28645,128,0,28741:0:0:0:0:
448,192,28838,128,0,29032:0:0:0:0:
64,192,29032,128,0,29129:0:0:0:0:
192,192,29129,128,0,29225:0:0:0:0:
448,192,29225,128,0,29322:0:0:0:0:
320,192,29322,128,0,29419:0:0:0:0:
64,192,29419,128,0,29516:0:0:0:0:
64,192,29612,128,0,29806:0:0:0:0:
448,192,29806,128,0,29903:0:0:0:0:
320,192,29903,128,0,29999:0:0:0:0:
64,192,29999,128,0,30096:0:0:0:0:
192,192,30096,128,0,30193:0:0:0:0:
448,192,30193,1,0,0:0:0:0:
448,192,30290,1,0,0:0:0:0:
448,192,30387,1,0,0:0:0:0:
448,192,30483,1,0,0:0:0:0:
64,192,30580,128,0,30677:0:0:0:0:
192,192,30677,128,0,30774:0:0:0:0:
448,192,30774,128,0,30870:0:0:0:0:
320,192,30870,128,0,30967:0:0:0:0:
64,192,30967,128,0,31064:0:0:0:0:
64,192,31161,128,0,31354:0:0:0:0:
448,192,31161,1,0,0:0:0:0:
320,192,31258,1,0,0:0:0:0:
448,192,31354,128,0,31451:0:0:0:0:
192,192,31354,1,0,0:0:0:0:
320,192,31451,128,0,31548:0:0:0:0:
64,192,31548,128,0,31645:0:0:0:0:
192,192,31645,128,0,31741:0:0:0:0:
448,192,31741,128,0,31838:0:0:0:0:
448,192,31935,128,0,32129:0:0:0:0:
64,192,31935,1,0,0:0:0:0:
192,192,32032,1,0,0:0:0:0:
64,192,32129,128,0,32225:0:0:0:0:
320,192,32129,1,0,0:0:0:0:
192,192,32225,128,0,32322:0:0:0:0:
448,192,32322,128,0,32419:0:0:0:0:
320,192,32419,128,0,32516:0:0:0:0:
64,192,32516,128,0,32612:0:0:0:0:
64,192,32709,128,0,32903:0:0:0:0:
448,192,32709,1,0,0:0:0:0:
320,192,32806,1,0,0:0:0:0:
448,192,32903,128,0,32999:0:0:0:0:
192,192,32903,1,0,0:0:0:0:
320,192,32999,128,0,33096:0:0:0:0:
64,192,33096,128,0,33193:0:0:0:0:
192,192,33193,128,0,33290:0:0:0:0:
448,192,33290,128,0,33387:0:0:0:0:
192,192,33387,1,0,0:0:0:0:
64,192,33387,1,0,0:0:0:0:
448,192,33483,1,0,0:0:0:0:
320,192,33483,1,0,0:0:0:0:
448,192,33580,1,0,0:0:0:0:
320,192,33580,1,0,0:0:0:0:
192,192,33677,1,0,0:0:0:0:
64,192,33677,1,0,0:0:0:0:
192,192,33774,1,0,0:0:0:0:
64,192,33774,1,0,0:0:0:0:
192,192,33870,1,0,0:0:0:0:
320,192,33870,1,0,0:0:0:0:
320,192,33966,1,0,0:0:0:0:
448,192,33967,1,0,0:0:0:0:
320,192,34064,1,0,0:0:0:0:
192,192,34064,1,0,0:0:0:0:
448,192,34064,128,0,34161:0:0:0:0:
64,192,34064,128,0,34161:0:0:0:0:
64,192,34258,128,0,34451:0:0:0:0:
448,192,34258,128,0,34451:0:0:0:0:
320,192,34258,1,0,0:0:0:0:
192,192,34354,1,0,0:0:0:0:
192,192,34451,128,0,34548:0:0:0:0:
320,192,34451,1,0,0:0:0:0:
64,192,34548,128,0,34645:0:0:0:0:
320,192,34645,128,0,34741:0:0:0:0:
448,192,34741,128,0,34838:0:0:0:0:
320,192,34838,128,0,34935:0:0:0:0:
64,192,34838,128,0,34935:0:0:0:0:
192,192,34838,1,0,0:0:0:0:
64,192,35032,128,0,35225:0:0:0:0:
320,192,35032,128,0,35225:0:0:0:0:
448,192,35032,1,0,0:0:0:0:
192,192,35129,1,0,0:0:0:0:
192,192,35225,128,0,35322:0:0:0:0:
448,192,35225,1,0,0:0:0:0:
320,192,35322,128,0,35419:0:0:0:0:
448,192,35419,128,0,35516:0:0:0:0:
64,192,35516,128,0,35612:0:0:0:0:
192,192,35612,128,0,35709:0:0:0:0:
320,192,35612,1,0,0:0:0:0:
448,192,35612,128,0,35709:0:0:0:0:
192,192,35806,128,0,35999:0:0:0:0:
448,192,35806,128,0,35999:0:0:0:0:
64,192,35806,1,0,0:0:0:0:
320,192,35903,1,0,0:0:0:0:
320,192,35999,128,0,36096:0:0:0:0:
64,192,35999,1,0,0:0:0:0:
192,192,36096,128,0,36193:0:0:0:0:
64,192,36193,128,0,36290:0:0:0:0:
448,192,36290,128,0,36387:0:0:0:0:
192,192,36387,128,0,36483:0:0:0:0:
320,192,36387,128,0,36483:0:0:0:0:
64,192,36387,1,0,0:0:0:0:
64,192,36483,1,0,0:0:0:0:
448,192,36483,1,0,0:0:0:0:
320,192,36580,128,0,36774:0:0:0:0:
192,192,36580,128,0,36774:0:0:0:0:
448,192,36580,1,0,0:0:0:0:
64,192,36677,1,0,0:0:0:0:
64,192,36774,128,0,36870:0:0:0:0:
448,192,36774,1,0,0:0:0:0:
320,192,36870,128,0,36967:0:0:0:0:
192,192,36967,128,0,37064:0:0:0:0:
448,192,37064,128,0,37161:0:0:0:0:
64,192,37161,128,0,37258:0:0:0:0:
192,192,37161,128,0,37258:0:0:0:0:
320,192,37161,1,0,0:0:0:0:
64,192,37354,128,0,37548:0:0:0:0:
192,192,37354,128,0,37548:0:0:0:0:
448,192,37354,1,0,0:0:0:0:
320,192,37451,1,0,0:0:0:0:
320,192,37548,128,0,37645:0:0:0:0:
448,192,37548,1,0,0:0:0:0:
64,192,37645,128,0,37741:0:0:0:0:
448,192,37741,128,0,37838:0:0:0:0:
192,192,37838,128,0,37935:0:0:0:0:
448,192,37935,128,0,38032:0:0:0:0:
320,192,37935,128,0,38032:0:0:0:0:
64,192,37935,1,0,0:0:0:0:
320,192,38129,128,0,38322:0:0:0:0:
448,192,38129,128,0,38322:0:0:0:0:
192,192,38129,1,0,0:0:0:0:
64,192,38225,1,0,0:0:0:0:
192,192,38322,1,0,0:0:0:0:
64,192,38322,128,0,38419:0:0:0:0:
448,192,38419,128,0,38516:0:0:0:0:
192,192,38516,128,0,38612:0:0:0:0:
320,192,38612,128,0,38709:0:0:0:0:
448,192,38709,128,0,38806:0:0:0:0:
64,192,38709,128,0,38806:0:0:0:0:
192,192,38709,1,0,0:0:0:0:
64,192,38903,128,0,39096:0:0:0:0:
448,192,38903,128,0,39096:0:0:0:0:
192,192,38903,1,0,0:0:0:0:
320,192,38999,1,0,0:0:0:0:
192,192,39096,1,0,0:0:0:0:
320,192,39096,128,0,39193:0:0:0:0:
192,192,39193,128,0,39290:0:0:0:0:
448,192,39290,128,0,39387:0:0:0:0:
192,192,39387,1,0,0:0:0:0:
64,192,39387,1,0,0:0:0:0:
320,192,39387,1,0,0:0:0:0:
192,192,39677,1,0,0:0:0:0:
320,192,39677,1,0,0:0:0:0:
64,192,39677,1,0,0:0:0:0:
192,192,39967,1,0,0:0:0:0:
64,192,39967,1,0,0:0:0:0:
320,192,39967,1,0,0:0:0:0:
192,192,40161,1,0,0:0:0:0:
320,192,40161,1,0,0:0:0:0:
64,192,40161,1,0,0:0:0:0:
192,192,40258,1,0,0:0:0:0:
320,192,40258,1,0,0:0:0:0:
448,192,40258,128,0,40354:0:0:0:0:
64,192,40258,128,0,40354:0:0:0:0:
64,192,40451,128,0,40645:0:0:0:0:
448,192,40451,128,0,40645:0:0:0:0:
192,192,40451,1,0,0:0:0:0:
320,192,40548,1,0,0:0:0:0:
320,192,40645,128,0,40741:0:0:0:0:
192,192,40645,1,0,0:0:0:0:
64,192,40741,128,0,40838:0:0:0:0:
192,192,40838,128,0,40935:0:0:0:0:
448,192,40935,128,0,41032:0:0:0:0:
64,192,41032,128,0,41129:0:0:0:0:
320,192,41032,128,0,41129:0:0:0:0:
192,192,41032,1,0,0:0:0:0:
320,192,41225,128,0,41419:0:0:0:0:
64,192,41225,128,0,41419:0:0:0:0:
448,192,41225,1,0,0:0:0:0:
192,192,41322,1,0,0:0:0:0:
192,192,41419,128,0,41516:0:0:0:0:
448,192,41419,1,0,0:0:0:0:
448,192,41516,128,0,41612:0:0:0:0:
64,192,41612,128,0,41709:0:0:0:0:
320,192,41709,128,0,41806:0:0:0:0:
192,192,41806,128,0,41903:0:0:0:0:
448,192,41806,128,0,41903:0:0:0:0:
64,192,41806,1,0,0:0:0:0:
192,192,41999,128,0,42193:0:0:0:0:
448,192,41999,128,0,42193:0:0:0:0:
64,192,41999,1,0,0:0:0:0:
320,192,42096,1,0,0:0:0:0:
320,192,42193,128,0,42290:0:0:0:0:
64,192,42193,1,0,0:0:0:0:
192,192,42290,128,0,42387:0:0:0:0:
64,192,42387,128,0,42483:0:0:0:0:
448,192,42483,128,0,42580:0:0:0:0:
192,192,42580,1,0,0:0:0:0:
320,192,42580,128,0,42677:0:0:0:0:
64,192,42580,1,0,0:0:0:0:
64,192,42676,1,0,0:0:0:0:
192,192,42774,1,0,0:0:0:0:
320,192,42774,128,0,42967:0:0:0:0:
448,192,42774,1,0,0:0:0:0:
192,192,42870,1,0,0:0:0:0:
64,192,42870,1,0,0:0:0:0:
192,192,42967,1,0,0:0:0:0:
64,192,42967,128,0,43064:0:0:0:0:
448,192,42967,1,0,0:0:0:0:
320,192,43064,128,0,43161:0:0:0:0:
192,192,43161,128,0,43258:0:0:0:0:
448,192,43258,128,0,43354:0:0:0:0:
64,192,43354,128,0,43451:0:0:0:0:
192,192,43354,128,0,43451:0:0:0:0:
320,192,43354,1,0,0:0:0:0:
64,192,43548,128,0,43741:0:0:0:0:
192,192,43548,128,0,43741:0:0:0:0:
320,192,43548,1,0,0:0:0:0:
448,192,43645,1,0,0:0:0:0:
448,192,43741,128,0,43838:0:0:0:0:
320,192,43741,1,0,0:0:0:0:
192,192,43838,128,0,43935:0:0:0:0:
320,192,43935,128,0,44032:0:0:0:0:
64,192,44032,128,0,44129:0:0:0:0:
320,192,44129,128,0,44225:0:0:0:0:
448,192,44129,128,0,44225:0:0:0:0:
192,192,44129,1,0,0:0:0:0:
320,192,44322,128,0,44516:0:0:0:0:
448,192,44322,128,0,44516:0:0:0:0:
64,192,44322,1,0,0:0:0:0:
192,192,44419,1,0,0:0:0:0:
192,192,44516,128,0,44612:0:0:0:0:
64,192,44516,1,0,0:0:0:0:
448,192,44612,128,0,44709:0:0:0:0:
64,192,44709,128,0,44806:0:0:0:0:
320,192,44806,128,0,44903:0:0:0:0:
64,192,44903,128,0,44999:0:0:0:0:
448,192,44903,128,0,44999:0:0:0:0:
192,192,44903,1,0,0:0:0:0:
64,192,45096,128,0,45290:0:0:0:0:
448,192,45096,128,0,45290:0:0:0:0:
320,192,45096,1,0,0:0:0:0:
192,192,45193,1,0,0:0:0:0:
192,192,45290,128,0,45387:0:0:0:0:
320,192,45290,1,0,0:0:0:0:
64,192,45387,128,0,45483:0:0:0:0:
320,192,45483,128,0,45580:0:0:0:0:
448,192,45580,128,0,45677:0:0:0:0:
192,192,45677,128,0,45774:0:0:0:0:
320,192,45677,128,0,45774:0:0:0:0:
64,192,45677,1,0,0:0:0:0:
64,192,45774,1,0,0:0:0:0:
448,192,45774,1,0,0:0:0:0:
320,192,45870,128,0,46064:0:0:0:0:
192,192,45870,128,0,46064:0:0:0:0:
448,192,45870,1,0,0:0:0:0:
64,192,45967,1,0,0:0:0:0:
448,192,46064,1,0,0:0:0:0:
64,192,46064,1,0,0:0:0:0:
192,192,46112,1,0,0:0:0:0:
320,192,46112,1,0,0:0:0:0:
448,192,46161,1,0,0:0:0:0:
64,192,46161,1,0,0:0:0:0:
320,192,46258,1,0,0:0:0:0:
192,192,46258,1,0,0:0:0:0:
320,192,46354,1,0,0:0:0:0:
192,192,46354,1,0,0:0:0:0:
64,192,46451,1,0,0:0:0:0:
192,192,46451,128,0,46548:0:0:0:0:
448,192,46451,128,0,46548:0:0:0:0:
320,192,46451,1,0,0:0:0:0:
192,192,46645,128,0,46838:0:0:0:0:
448,192,46645,128,0,46838:0:0:0:0:
64,192,46645,1,0,0:0:0:0:
320,192,46741,1,0,0:0:0:0:
320,192,46838,128,0,46935:0:0:0:0:
64,192,46838,1,0,0:0:0:0:
192,192,46935,128,0,47032:0:0:0:0:
64,192,47032,128,0,47129:0:0:0:0:
448,192,47129,128,0,47225:0:0:0:0:
320,192,47225,128,0,47322:0:0:0:0:
192,192,47225,1,0,0:0:0:0:
64,192,47225,128,0,47322:0:0:0:0:
64,192,47419,128,0,47612:0:0:0:0:
320,192,47419,128,0,47612:0:0:0:0:
448,192,47419,1,0,0:0:0:0:
192,192,47516,1,0,0:0:0:0:
192,192,47612,128,0,47709:0:0:0:0:
448,192,47612,1,0,0:0:0:0:
64,192,47709,128,0,47806:0:0:0:0:
448,192,47806,128,0,47903:0:0:0:0:
320,192,47903,128,0,47999:0:0:0:0:
192,192,47999,1,0,0:0:0:0:
64,192,47999,128,0,48096:0:0:0:0:
448,192,47999,128,0,48096:0:0:0:0:
448,192,48193,128,0,48387:0:0:0:0:
64,192,48193,128,0,48387:0:0:0:0:
192,192,48193,1,0,0:0:0:0:
320,192,48290,1,0,0:0:0:0:
192,192,48387,1,0,0:0:0:0:
320,192,48387,128,0,48483:0:0:0:0:
448,192,48483,128,0,48580:0:0:0:0:
192,192,48580,128,0,48677:0:0:0:0:
64,192,48677,128,0,48774:0:0:0:0:
192,192,48774,128,0,48870:0:0:0:0:
448,192,48774,1,0,0:0:0:0:
320,192,48774,1,0,0:0:0:0:
448,192,48870,1,0,0:0:0:0:
192,192,48967,128,0,49161:0:0:0:0:
320,192,48967,1,0,0:0:0:0:
64,192,48967,1,0,0:0:0:0:
448,192,49064,1,0,0:0:0:0:
320,192,49064,1,0,0:0:0:0:
320,192,49161,1,0,0:0:0:0:
448,192,49161,128,0,49258:0:0:0:0:
64,192,49161,1,0,0:0:0:0:
192,192,49258,128,0,49354:0:0:0:0:
64,192,49354,128,0,49451:0:0:0:0:
320,192,49451,128,0,49548:0:0:0:0:
448,192,49548,1,0,0:0:0:0:
192,192,49548,1,0,0:0:0:0:
64,192,49548,1,0,0:0:0:0:
320,192,49645,1,0,0:0:0:0:
64,192,49741,1,0,0:0:0:0:
192,192,49741,1,0,0:0:0:0:
192,192,49838,1,0,0:0:0:0:
64,192,49838,1,0,0:0:0:0:
64,192,49935,1,0,0:0:0:0:
320,192,49935,1,0,0:0:0:0:
448,192,49935,1,0,0:0:0:0:
192,192,50032,1,0,0:0:0:0:
320,192,50129,1,0,0:0:0:0:
192,192,50225,1,0,0:0:0:0:
64,192,50322,1,0,0:0:0:0:
448,192,50322,1,0,0:0:0:0:
320,192,50322,1,0,0:0:0:0:
192,192,50419,1,0,0:0:0:0:
320,192,50516,1,0,0:0:0:0:
448,192,50516,1,0,0:0:0:0:
320,192,50612,1,0,0:0:0:0:
448,192,50612,1,0,0:0:0:0:
192,192,50709,1,0,0:0:0:0:
64,192,50709,1,0,0:0:0:0:
448,192,50709,1,0,0:0:0:0:
320,192,50806,1,0,0:0:0:0:
192,192,50903,1,0,0:0:0:0:
448,192,50999,1,0,0:0:0:0:
320,192,51096,1,0,0:0:0:0:
192,192,51096,1,0,0:0:0:0:
64,192,51096,1,0,0:0:0:0:
448,192,51193,1,0,0:0:0:0:
320,192,51290,1,0,0:0:0:0:
192,192,51290,1,0,0:0:0:0:
320,192,51387,1,0,0:0:0:0:
192,192,51387,1,0,0:0:0:0:
448,192,51483,1,0,0:0:0:0:
64,192,51483,1,0,0:0:0:0:
192,192,51483,1,0,0:0:0:0:
320,192,51580,1,0,0:0:0:0:
64,192,51677,1,0,0:0:0:0:
192,192,51774,1,0,0:0:0:0:
64,192,51870,1,0,0:0:0:0:
448,192,51870,1,0,0:0:0:0:
448,192,51967,1,0,0:0:0:0:
64,192,51967,1,0,0:0:0:0:
320,192,52064,1,0,0:0:0:0:
192,192,52064,1,0,0:0:0:0:
64,192,52161,1,0,0:0:0:0:
448,192,52161,1,0,0:0:0:0:
192,192,52258,1,0,0:0:0:0:
320,192,52258,1,0,0:0:0:0:
64,192,52306,1,0,0:0:0:0:
448,192,52306,1,0,0:0:0:0:
320,192,52354,1,0,0:0:0:0:
192,192,52354,1,0,0:0:0:0:
64,192,52451,1,0,0:0:0:0:
448,192,52451,1,0,0:0:0:0:
192,192,52548,1,0,0:0:0:0:
320,192,52548,1,0,0:0:0:0:
448,192,52645,1,0,0:0:0:0:
320,192,52645,1,0,0:0:0:0:
64,192,52645,1,0,0:0:0:0:
192,192,52645,1,0,0:0:0:0:
64,192,52741,1,0,0:0:0:0:
192,192,52741,1,0,0:0:0:0:
192,192,53032,1,0,0:0:0:0:
64,192,53032,1,0,0:0:0:0:
448,192,53129,1,0,0:0:0:0:
320,192,53129,1,0,0:0:0:0:
192,192,53225,1,0,0:0:0:0:
320,192,53225,1,0,0:0:0:0:
320,192,53322,1,0,0:0:0:0:
192,192,53322,1,0,0:0:0:0:
192,192,53419,1,0,0:0:0:0:
64,192,53419,1,0,0:0:0:0:
448,192,53419,1,0,0:0:0:0:
320,192,53516,1,0,0:0:0:0:
64,192,53612,1,0,0:0:0:0:
448,192,53612,1,0,0:0:0:0:
64,192,53709,1,0,0:0:0:0:
448,192,53709,1,0,0:0:0:0:
64,192,53806,1,0,0:0:0:0:
192,192,53806,1,0,0:0:0:0:
320,192,53903,1,0,0:0:0:0:
448,192,53903,1,0,0:0:0:0:
192,192,53903,1,0,0:0:0:0:
320,192,54193,1,0,0:0:0:0:
448,192,54193,1,0,0:0:0:0:
192,192,54193,1,0,0:0:0:0:
64,192,54193,1,0,0:0:0:0:
320,192,54387,1,0,0:0:0:0:
448,192,54387,1,0,0:0:0:0:
320,192,54483,1,0,0:0:0:0:
448,192,54483,1,0,0:0:0:0:
192,192,54580,1,0,0:0:0:0:
64,192,54580,1,0,0:0:0:0:
192,192,54677,1,0,0:0:0:0:
320,192,54677,1,0,0:0:0:0:
192,192,54774,1,0,0:0:0:0:
64,192,54774,1,0,0:0:0:0:
64,192,54870,1,0,0:0:0:0:
192,192,54870,1,0,0:0:0:0:
192,192,54967,1,0,0:0:0:0:
320,192,54967,1,0,0:0:0:0:
448,192,54967,1,0,0:0:0:0:
192,192,55161,1,0,0:0:0:0:
448,192,55161,1,0,0:0:0:0:
192,192,55258,1,0,0:0:0:0:
448,192,55258,1,0,0:0:0:0:
192,192,55354,1,0,0:0:0:0:
64,192,55354,1,0,0:0:0:0:
320,192,55354,1,0,0:0:0:0:
192,192,55548,1,0,0:0:0:0:
320,192,55548,1,0,0:0:0:0:
320,192,55645,1,0,0:0:0:0:
448,192,55645,1,0,0:0:0:0:
192,192,55741,1,0,0:0:0:0:
64,192,55741,1,0,0:0:0:0:
192,192,55935,1,0,0:0:0:0:
64,192,55935,1,0,0:0:0:0:
192,192,56225,1,0,0:0:0:0:
320,192,56225,1,0,0:0:0:0:
320,192,56322,1,0,0:0:0:0:
448,192,56322,1,0,0:0:0:0:
448,192,56419,1,0,0:0:0:0:
320,192,56419,1,0,0:0:0:0:
320,192,56516,1,0,0:0:0:0:
192,192,56516,1,0,0:0:0:0:
64,192,56516,1,0,0:0:0:0:
64,192,56709,1,0,0:0:0:0:
192,192,56709,1,0,0:0:0:0:
64,192,56806,1,0,0:0:0:0:
192,192,56806,1,0,0:0:0:0:
320,192,56903,1,0,0:0:0:0:
448,192,56903,1,0,0:0:0:0:
192,192,56999,1,0,0:0:0:0:
448,192,56999,1,0,0:0:0:0:
64,192,56999,1,0,0:0:0:0:
64,192,57290,1,0,0:0:0:0:
448,192,57290,1,0,0:0:0:0:
320,192,57290,1,0,0:0:0:0:
192,192,57290,1,0,0:0:0:0:
64,192,57580,1,0,0:0:0:0:
448,192,57580,1,0,0:0:0:0:
64,192,57677,1,0,0:0:0:0:
448,192,57677,1,0,0:0:0:0:
192,192,57677,1,0,0:0:0:0:
320,192,57773,1,0,0:0:0:0:
192,192,57774,1,0,0:0:0:0:
448,192,57870,1,0,0:0:0:0:
320,192,57870,1,0,0:0:0:0:
320,192,57966,1,0,0:0:0:0:
192,192,57967,1,0,0:0:0:0:
64,192,58064,1,0,0:0:0:0:
448,192,58064,1,0,0:0:0:0:
192,192,58161,1,0,0:0:0:0:
64,192,58161,1,0,0:0:0:0:
448,192,58258,1,0,0:0:0:0:
64,192,58258,1,0,0:0:0:0:
192,192,58354,1,0,0:0:0:0:
64,192,58354,1,0,0:0:0:0:
192,192,58451,1,0,0:0:0:0:
320,192,58451,1,0,0:0:0:0:
448,192,58451,1,0,0:0:0:0:
192,192,58838,1,0,0:0:0:0:
448,192,58838,1,0,0:0:0:0:
320,192,58934,1,0,0:0:0:0:
192,192,58935,1,0,0:0:0:0:
64,192,59031,1,0,0:0:0:0:
448,192,59032,1,0,0:0:0:0:
192,192,59129,1,0,0:0:0:0:
448,192,59129,1,0,0:0:0:0:
64,192,59225,1,0,0:0:0:0:
320,192,59225,1,0,0:0:0:0:
192,192,59225,1,0,0:0:0:0:
320,192,59322,1,0,0:0:0:0:
448,192,59322,1,0,0:0:0:0:
192,192,59516,1,0,0:0:0:0:
64,192,59516,1,0,0:0:0:0:
192,192,59612,1,0,0:0:0:0:
320,192,59612,1,0,0:0:0:0:
448,192,59612,1,0,0:0:0:0:
448,192,59806,1,0,0:0:0:0:
320,192,59806,1,0,0:0:0:0:
192,192,59902,1,0,0:0:0:0:
448,192,59903,1,0,0:0:0:0:
320,192,59999,1,0,0:0:0:0:
64,192,59999,1,0,0:0:0:0:
192,192,60096,1,0,0:0:0:0:
320,192,60096,1,0,0:0:0:0:
448,192,60387,1,0,0:0:0:0:
320,192,60387,1,0,0:0:0:0:
192,192,60387,1,0,0:0:0:0:
64,192,60387,1,0,0:0:0:0:
320,192,60580,1,0,0:0:0:0:
192,192,60580,1,0,0:0:0:0:
192,192,60677,1,0,0:0:0:0:
64,192,60677,1,0,0:0:0:0:
448,192,60774,1,0,0:0:0:0:
320,192,60774,1,0,0:0:0:0:
192,192,60870,1,0,0:0:0:0:
64,192,60870,1,0,0:0:0:0:
320,192,60870,1,0,0:0:0:0:
192,192,60967,1,0,0:0:0:0:
448,192,60967,1,0,0:0:0:0:
448,192,61064,1,0,0:0:0:0:
192,192,61064,1,0,0:0:0:0:
64,192,61161,1,0,0:0:0:0:
448,192,61161,1,0,0:0:0:0:
320,192,61161,1,0,0:0:0:0:
320,192,61258,1,0,0:0:0:0:
192,192,61258,1,0,0:0:0:0:
320,192,61548,1,0,0:0:0:0:
192,192,61548,1,0,0:0:0:0:
448,192,61548,1,0,0:0:0:0:
64,192,61548,1,0,0:0:0:0:
64,192,61741,1,0,0:0:0:0:
448,192,61741,1,0,0:0:0:0:
64,192,61838,1,0,0:0:0:0:
448,192,61838,1,0,0:0:0:0:
320,192,61935,1,0,0:0:0:0:
64,192,61935,1,0,0:0:0:0:
192,192,61935,1,0,0:0:0:0:
320,192,62322,1,0,0:0:0:0:
192,192,62322,1,0,0:0:0:0:
64,192,62322,1,0,0:0:0:0:
448,192,62708,1,0,0:0:0:0:
320,192,62708,1,0,0:0:0:0:
320,192,62805,1,0,0:0:0:0:
448,192,62805,1,0,0:0:0:0:
320,192,62902,1,0,0:0:0:0:
192,192,62903,1,0,0:0:0:0:
64,192,62999,1,0,0:0:0:0:
192,192,62999,1,0,0:0:0:0:
64,192,63096,1,0,0:0:0:0:
192,192,63096,1,0,0:0:0:0:
320,192,63096,1,0,0:0:0:0:
448,192,63483,128,0,63870:0:0:0:0:
64,192,63483,128,0,63870:0:0:0:0:
320,192,63870,1,0,0:0:0:0:
192,192,63870,1,0,0:0:0:0:
64,192,63967,128,0,64064:0:0:0:0:
448,192,63967,128,0,64064:0:0:0:0:
192,192,64064,1,0,0:0:0:0:
320,192,64064,1,0,0:0:0:0:
320,192,64160,128,0,64208:0:0:0:0:
448,192,64161,128,0,64209:0:0:0:0:
192,192,64257,128,0,64305:0:0:0:0:
64,192,64258,128,0,64306:0:0:0:0:
64,192,64354,128,0,64403:0:0:0:0:
192,192,64354,128,0,64402:0:0:0:0:
320,192,64450,128,0,64499:0:0:0:0:
448,192,64451,128,0,64499:0:0:0:0:
320,192,64547,128,0,64595:0:0:0:0:
448,192,64548,128,0,64596:0:0:0:0:
192,192,64644,128,0,64692:0:0:0:0:
64,192,64645,128,0,64693:0:0:0:0:
64,192,64741,128,0,64789:0:0:0:0:
192,192,64741,128,0,64789:0:0:0:0:
192,192,64837,128,0,64886:0:0:0:0:
320,192,64837,128,0,64886:0:0:0:0:
320,192,64934,128,0,64983:0:0:0:0:
448,192,64935,128,0,64983:0:0:0:0:
192,192,65032,1,0,0:0:0:0:
320,192,65032,1,0,0:0:0:0:
448,192,65032,1,0,0:0:0:0:
64,192,65032,128,0,65225:0:0:0:0:
192,192,65322,128,0,65419:0:0:0:0:
320,192,65516,128,0,65612:0:0:0:0:
448,192,65709,128,0,65806:0:0:0:0:
64,192,66193,128,0,66387:0:0:0:0:
192,192,66193,128,0,66387:0:0:0:0:
320,192,66193,128,0,66387:0:0:0:0:
448,192,66580,128,0,66774:0:0:0:0:
320,192,66870,128,0,66967:0:0:0:0:
192,192,67064,128,0,67161:0:0:0:0:
64,192,67258,128,0,67354:0:0:0:0:
192,192,67741,128,0,67935:0:0:0:0:
448,192,67741,128,0,67935:0:0:0:0:
320,192,67741,128,0,67935:0:0:0:0:
64,192,68129,128,0,68322:0:0:0:0:
448,192,68419,128,0,68516:0:0:0:0:
192,192,68612,128,0,68709:0:0:0:0:
320,192,68806,128,0,68903:0:0:0:0:
64,192,69290,128,0,69483:0:0:0:0:
192,192,69290,128,0,69483:0:0:0:0:
448,192,69290,128,0,69483:0:0:0:0:
448,192,69677,128,0,69870:0:0:0:0:
64,192,69967,128,0,70064:0:0:0:0:
320,192,70161,128,0,70258:0:0:0:0:
192,192,70354,128,0,70451:0:0:0:0:
64,192,70838,128,0,71032:0:0:0:0:
320,192,70838,128,0,71032:0:0:0:0:
448,192,70838,128,0,71032:0:0:0:0:
64,192,71225,128,0,71419:0:0:0:0:
320,192,71516,128,0,71612:0:0:0:0:
192,192,71709,128,0,71806:0:0:0:0:
64,192,71903,128,0,71999:0:0:0:0:
192,192,72387,128,0,72580:0:0:0:0:
448,192,72387,128,0,72580:0:0:0:0:
320,192,72387,128,0,72580:0:0:0:0:
448,192,72774,128,0,72967:0:0:0:0:
192,192,73064,128,0,73161:0:0:0:0:
320,192,73258,128,0,73354:0:0:0:0:
448,192,73451,128,0,73548:0:0:0:0:
320,192,73935,128,0,74129:0:0:0:0:
192,192,73935,128,0,74129:0:0:0:0:
64,192,73935,128,0,74129:0:0:0:0:
64,192,74322,128,0,74516:0:0:0:0:
320,192,74612,128,0,74709:0:0:0:0:
192,192,74806,128,0,74903:0:0:0:0:
64,192,74999,128,0,75096:0:0:0:0:
448,192,75096,128,0,75290:0:0:0:0:
192,192,75387,128,0,75483:0:0:0:0:
320,192,75580,128,0,75677:0:0:0:0:
448,192,75774,128,0,75870:0:0:0:0:
64,192,75870,1,0,0:0:0:0:
64,192,75967,1,0,0:0:0:0:
320,192,76063,1,0,0:0:0:0:
320,192,76160,1,0,0:0:0:0:
192,192,76258,1,0,0:0:0:0:
192,192,76354,1,0,0:0:0:0:
448,192,76451,1,0,0:0:0:0:
448,192,76547,1,0,0:0:0:0:
320,192,76645,1,0,0:0:0:0:
320,192,76741,1,0,0:0:0:0:
64,192,76838,1,0,0:0:0:0:
64,192,76934,1,0,0:0:0:0:
448,192,77032,1,0,0:0:0:0:
448,192,77129,1,0,0:0:0:0:
192,192,77225,1,0,0:0:0:0:
192,192,77322,1,0,0:0:0:0:
320,192,77419,1,0,0:0:0:0:
64,192,77419,1,0,0:0:0:0:
448,192,77419,1,0,0:0:0:0:
320,192,77806,1,0,0:0:0:0:
448,192,77806,1,0,0:0:0:0:
64,192,77806,128,0,77903:0:0:0:0:
192,192,77806,128,0,77999:0:0:0:0:
320,192,77903,128,0,77999:0:0:0:0:
64,192,77999,1,0,0:0:0:0:
320,192,78096,128,0,78193:0:0:0:0:
448,192,78096,128,0,78193:0:0:0:0:
192,192,78193,1,0,0:0:0:0:
64,192,78193,1,0,0:0:0:0:
448,192,78290,128,0,78387:0:0:0:0:
64,192,78387,128,0,78483:0:0:0:0:
192,192,78387,1,0,0:0:0:0:
320,192,78483,128,0,78580:0:0:0:0:
192,192,78580,1,0,0:0:0:0:
64,192,78580,1,0,0:0:0:0:
448,192,78580,1,0,0:0:0:0:
320,192,78677,128,0,78774:0:0:0:0:
448,192,78774,1,0,0:0:0:0:
64,192,78870,128,0,79161:0:0:0:0:
192,192,78967,1,0,0:0:0:0:
320,192,78967,128,0,79161:0:0:0:0:
448,192,78967,1,0,0:0:0:0:
192,192,79161,1,0,0:0:0:0:
320,192,79258,128,0,79354:0:0:0:0:
448,192,79258,128,0,79354:0:0:0:0:
64,192,79354,1,0,0:0:0:0:
192,192,79354,1,0,0:0:0:0:
192,192,79451,128,0,79548:0:0:0:0:
320,192,79451,128,0,79548:0:0:0:0:
448,192,79548,1,0,0:0:0:0:
192,192,79645,128,0,79741:0:0:0:0:
64,192,79645,128,0,79741:0:0:0:0:
320,192,79741,1,0,0:0:0:0:
448,192,79741,1,0,0:0:0:0:
64,192,79838,128,0,79935:0:0:0:0:
448,192,79935,128,0,80032:0:0:0:0:
320,192,79935,1,0,0:0:0:0:
192,192,80032,128,0,80129:0:0:0:0:
320,192,80129,1,0,0:0:0:0:
448,192,80129,1,0,0:0:0:0:
64,192,80129,1,0,0:0:0:0:
192,192,80225,128,0,80322:0:0:0:0:
320,192,80322,1,0,0:0:0:0:
448,192,80419,128,0,80709:0:0:0:0:
320,192,80516,1,0,0:0:0:0:
192,192,80516,128,0,80709:0:0:0:0:
64,192,80516,1,0,0:0:0:0:
320,192,80709,1,0,0:0:0:0:
64,192,80806,128,0,80903:0:0:0:0:
192,192,80806,128,0,80903:0:0:0:0:
320,192,80903,1,0,0:0:0:0:
448,192,80903,1,0,0:0:0:0:
64,192,80999,128,0,81096:0:0:0:0:
448,192,80999,128,0,81096:0:0:0:0:
192,192,81096,1,0,0:0:0:0:
320,192,81193,128,0,81290:0:0:0:0:
448,192,81193,128,0,81290:0:0:0:0:
64,192,81290,1,0,0:0:0:0:
192,192,81290,1,0,0:0:0:0:
448,192,81387,128,0,81483:0:0:0:0:
64,192,81483,128,0,81580:0:0:0:0:
320,192,81483,1,0,0:0:0:0:
192,192,81580,128,0,81677:0:0:0:0:
64,192,81677,1,0,0:0:0:0:
320,192,81677,1,0,0:0:0:0:
448,192,81677,1,0,0:0:0:0:
192,192,81774,128,0,81870:0:0:0:0:
64,192,81870,1,0,0:0:0:0:
320,192,81967,128,0,82258:0:0:0:0:
192,192,82064,1,0,0:0:0:0:
64,192,82064,128,0,82258:0:0:0:0:
448,192,82064,1,0,0:0:0:0:
192,192,82258,1,0,0:0:0:0:
448,192,82354,128,0,82451:0:0:0:0:
320,192,82354,128,0,82451:0:0:0:0:
64,192,82451,1,0,0:0:0:0:
192,192,82451,1,0,0:0:0:0:
192,192,82548,128,0,82645:0:0:0:0:
320,192,82548,128,0,82645:0:0:0:0:
448,192,82645,1,0,0:0:0:0:
192,192,82741,128,0,82838:0:0:0:0:
64,192,82741,128,0,82838:0:0:0:0:
320,192,82838,1,0,0:0:0:0:
448,192,82838,1,0,0:0:0:0:
320,192,82935,1,0,0:0:0:0:
448,192,82935,1,0,0:0:0:0:
192,192,83032,1,0,0:0:0:0:
64,192,83032,1,0,0:0:0:0:
64,192,83129,1,0,0:0:0:0:
192,192,83129,1,0,0:0:0:0:
320,192,83225,1,0,0:0:0:0:
448,192,83225,1,0,0:0:0:0:
320,192,83322,1,0,0:0:0:0:
448,192,83322,1,0,0:0:0:0:
320,192,83418,1,0,0:0:0:0:
192,192,83418,1,0,0:0:0:0:
64,192,83516,1,0,0:0:0:0:
192,192,83516,1,0,0:0:0:0:
192,192,83612,128,0,83806:0:0:0:0:
320,192,83612,1,0,0:0:0:0:
448,192,83612,128,0,83806:0:0:0:0:
64,192,83612,1,0,0:0:0:0:
320,192,83806,1,0,0:0:0:0:
64,192,83903,128,0,83999:0:0:0:0:
320,192,83903,128,0,83999:0:0:0:0:
448,192,83999,1,0,0:0:0:0:
192,192,83999,1,0,0:0:0:0:
192,192,84096,128,0,84193:0:0:0:0:
320,192,84096,128,0,84193:0:0:0:0:
64,192,84193,1,0,0:0:0:0:
448,192,84290,128,0,84387:0:0:0:0:
192,192,84290,128,0,84387:0:0:0:0:
64,192,84387,1,0,0:0:0:0:
320,192,84387,1,0,0:0:0:0:
64,192,84483,128,0,84580:0:0:0:0:
192,192,84580,128,0,84677:0:0:0:0:
320,192,84580,1,0,0:0:0:0:
448,192,84677,128,0,84774:0:0:0:0:
320,192,84774,1,0,0:0:0:0:
192,192,84774,1,0,0:0:0:0:
64,192,84774,1,0,0:0:0:0:
320,192,84870,128,0,84967:0:0:0:0:
192,192,84967,1,0,0:0:0:0:
64,192,85064,128,0,85354:0:0:0:0:
192,192,85161,1,0,0:0:0:0:
448,192,85161,1,0,0:0:0:0:
320,192,85161,128,0,85354:0:0:0:0:
192,192,85354,1,0,0:0:0:0:
448,192,85451,128,0,85548:0:0:0:0:
320,192,85451,128,0,85548:0:0:0:0:
192,192,85548,1,0,0:0:0:0:
64,192,85548,1,0,0:0:0:0:
64,192,85645,128,0,85741:0:0:0:0:
448,192,85645,128,0,85741:0:0:0:0:
320,192,85741,1,0,0:0:0:0:
192,192,85838,128,0,85935:0:0:0:0:
64,192,85838,128,0,85935:0:0:0:0:
448,192,85935,1,0,0:0:0:0:
320,192,85935,1,0,0:0:0:0:
448,192,86032,128,0,86129:0:0:0:0:
64,192,86129,128,0,86225:0:0:0:0:
320,192,86129,1,0,0:0:0:0:
320,192,86225,128,0,86322:0:0:0:0:
448,192,86322,1,0,0:0:0:0:
64,192,86322,1,0,0:0:0:0:
192,192,86322,1,0,0:0:0:0:
192,192,86419,128,0,86516:0:0:0:0:
320,192,86516,1,0,0:0:0:0:
448,192,86612,128,0,86903:0:0:0:0:
320,192,86709,1,0,0:0:0:0:
64,192,86709,1,0,0:0:0:0:
192,192,86709,128,0,86903:0:0:0:0:
320,192,86903,1,0,0:0:0:0:
64,192,86999,128,0,87096:0:0:0:0:
320,192,86999,128,0,87096:0:0:0:0:
192,192,87096,1,0,0:0:0:0:
448,192,87096,1,0,0:0:0:0:
64,192,87193,128,0,87290:0:0:0:0:
448,192,87193,128,0,87290:0:0:0:0:
192,192,87290,1,0,0:0:0:0:
192,192,87387,128,0,87483:0:0:0:0:
448,192,87387,128,0,87483:0:0:0:0:
320,192,87483,1,0,0:0:0:0:
64,192,87483,1,0,0:0:0:0:
192,192,87580,128,0,87677:0:0:0:0:
320,192,87677,128,0,87774:0:0:0:0:
448,192,87677,1,0,0:0:0:0:
64,192,87774,128,0,87870:0:0:0:0:
192,192,87870,1,0,0:0:0:0:
320,192,87870,1,0,0:0:0:0:
448,192,87870,1,0,0:0:0:0:
448,192,87967,128,0,88064:0:0:0:0:
64,192,88064,1,0,0:0:0:0:
192,192,88161,128,0,88451:0:0:0:0:
320,192,88258,1,0,0:0:0:0:
448,192,88258,128,0,88451:0:0:0:0:
64,192,88258,1,0,0:0:0:0:
64,192,88451,1,0,0:0:0:0:
320,192,88548,128,0,88645:0:0:0:0:
64,192,88548,128,0,88645:0:0:0:0:
192,192,88645,1,0,0:0:0:0:
448,192,88645,1,0,0:0:0:0:
320,192,88741,128,0,88838:0:0:0:0:
192,192,88741,128,0,88838:0:0:0:0:
64,192,88838,1,0,0:0:0:0:
192,192,88935,128,0,89032:0:0:0:0:
448,192,88935,128,0,89032:0:0:0:0:
320,192,89032,1,0,0:0:0:0:
64,192,89032,1,0,0:0:0:0:
64,192,89129,1,0,0:0:0:0:
320,192,89129,1,0,0:0:0:0:
192,192,89225,1,0,0:0:0:0:
448,192,89225,1,0,0:0:0:0:
192,192,89322,1,0,0:0:0:0:
448,192,89322,1,0,0:0:0:0:
320,192,89419,1,0,0:0:0:0:
64,192,89419,1,0,0:0:0:0:
320,192,89516,1,0,0:0:0:0:
64,192,89516,1,0,0:0:0:0:
192,192,89612,1,0,0:0:0:0:
448,192,89612,1,0,0:0:0:0:
192,192,89709,1,0,0:0:0:0:
448,192,89709,1,0,0:0:0:0:
192,192,90193,128,0,90387:0:0:0:0:
448,192,90193,128,0,90290:0:0:0:0:
320,192,90290,128,0,90387:0:0:0:0:
64,192,90483,128,0,90580:0:0:0:0:
192,192,90483,128,0,90580:0:0:0:0:
64,192,90967,128,0,91064:0:0:0:0:
192,192,90967,128,0,91161:0:0:0:0:
448,192,91064,128,0,91161:0:0:0:0:
320,192,91258,128,0,91354:0:0:0:0:
448,192,91258,128,0,91354:0:0:0:0:
64,192,91741,128,0,91935:0:0:0:0:
448,192,91741,128,0,91838:0:0:0:0:
192,192,91838,128,0,91935:0:0:0:0:
320,192,92032,128,0,92129:0:0:0:0:
192,192,92032,128,0,92129:0:0:0:0:
448,192,92516,128,0,92709:0:0:0:0:
64,192,92516,128,0,92612:0:0:0:0:
192,192,92612,128,0,92709:0:0:0:0:
320,192,92806,128,0,92903:0:0:0:0:
64,192,92806,128,0,92903:0:0:0:0:
64,192,93290,128,0,93387:0:0:0:0:
320,192,93290,128,0,93483:0:0:0:0:
448,192,93387,128,0,93483:0:0:0:0:
64,192,93580,128,0,93677:0:0:0:0:
192,192,93580,128,0,93677:0:0:0:0:
320,192,93677,128,0,93701:0:0:0:0:
448,192,93677,128,0,93701:0:0:0:0:
64,192,94161,128,0,94258:0:0:0:0:
192,192,94161,128,0,94258:0:0:0:0:
320,192,94354,128,0,94451:0:0:0:0:
448,192,94354,128,0,94451:0:0:0:0:
64,192,94451,1,0,0:0:0:0:
64,192,94548,1,0,0:0:0:0:
320,192,94644,1,0,0:0:0:0:
320,192,94741,1,0,0:0:0:0:
192,192,94838,1,0,0:0:0:0:
192,192,94935,1,0,0:0:0:0:
448,192,95031,1,0,0:0:0:0:
448,192,95128,1,0,0:0:0:0:
320,192,95225,1,0,0:0:0:0:
320,192,95322,1,0,0:0:0:0:
64,192,95419,1,0,0:0:0:0:
64,192,95515,1,0,0:0:0:0:
448,192,95612,1,0,0:0:0:0:
448,192,95709,1,0,0:0:0:0:
192,192,95806,1,0,0:0:0:0:
192,192,95902,1,0,0:0:0:0:
448,192,95999,1,0,0:0:0:0:
320,192,95999,1,0,0:0:0:0:
448,192,96096,1,0,0:0:0:0:
320,192,96096,1,0,0:0:0:0:
192,192,96193,1,0,0:0:0:0:
64,192,96193,1,0,0:0:0:0:
64,192,96290,1,0,0:0:0:0:
192,192,96290,1,0,0:0:0:0:
320,192,96386,1,0,0:0:0:0:
448,192,96386,1,0,0:0:0:0:
320,192,96483,1,0,0:0:0:0:
448,192,96483,1,0,0:0:0:0:
64,192,96580,1,0,0:0:0:0:
192,192,96580,1,0,0:0:0:0:
192,192,96677,1,0,0:0:0:0:
64,192,96677,1,0,0:0:0:0:
320,192,96774,1,0,0:0:0:0:
448,192,96774,1,0,0:0:0:0:
320,192,96870,1,0,0:0:0:0:
448,192,96870,1,0,0:0:0:0:
64,192,96967,1,0,0:0:0:0:
192,192,96967,1,0,0:0:0:0:
64,192,97064,1,0,0:0:0:0:
192,192,97064,1,0,0:0:0:0:
320,192,97161,1,0,0:0:0:0:
448,192,97161,1,0,0:0:0:0:
320,192,97257,1,0,0:0:0:0:
448,192,97258,1,0,0:0:0:0:
192,192,97354,1,0,0:0:0:0:
320,192,97354,1,0,0:0:0:0:
64,192,97451,1,0,0:0:0:0:
192,192,97451,1,0,0:0:0:0:
448,192,97548,1,0,0:0:0:0:
64,192,97548,1,0,0:0:0:0:
192,192,97548,1,0,0:0:0:0:
320,192,97548,1,0,0:0:0:0:
448,192,97741,1,0,0:0:0:0:
64,192,97741,1,0,0:0:0:0:
64,192,98322,1,0,0:0:0:0:
192,192,98322,1,0,0:0:0:0:
320,192,98322,1,0,0:0:0:0:
448,192,98322,1,0,0:0:0:0:
448,192,98516,1,0,0:0:0:0:
64,192,98516,1,0,0:0:0:0:
64,192,99096,1,0,0:0:0:0:
192,192,99096,1,0,0:0:0:0:
320,192,99096,1,0,0:0:0:0:
448,192,99096,1,0,0:0:0:0:
192,192,99289,1,0,0:0:0:0:
64,192,99290,1,0,0:0:0:0:
192,192,99386,1,0,0:0:0:0:
64,192,99387,1,0,0:0:0:0:
320,192,99483,1,0,0:0:0:0:
192,192,99483,1,0,0:0:0:0:
64,192,99483,1,0,0:0:0:0:
448,192,99483,1,0,0:0:0:0:
320,192,99676,1,0,0:0:0:0:
448,192,99677,1,0,0:0:0:0:
320,192,99773,1,0,0:0:0:0:
448,192,99773,1,0,0:0:0:0:
64,192,99870,1,0,0:0:0:0:
320,192,99870,1,0,0:0:0:0:
448,192,99870,1,0,0:0:0:0:
192,192,99870,1,0,0:0:0:0:
64,192,99967,1,0,0:0:0:0:
192,192,99967,1,0,0:0:0:0:
448,192,100064,1,0,0:0:0:0:
320,192,100064,1,0,0:0:0:0:
448,192,100161,1,0,0:0:0:0:
320,192,100161,1,0,0:0:0:0:
64,192,100258,1,0,0:0:0:0:
192,192,100258,1,0,0:0:0:0:
192,192,100354,1,0,0:0:0:0:
64,192,100354,1,0,0:0:0:0:
192,192,100451,1,0,0:0:0:0:
320,192,100451,1,0,0:0:0:0:
448,192,100548,1,0,0:0:0:0:
320,192,100548,1,0,0:0:0:0:
448,192,100645,1,0,0:0:0:0:
192,192,100645,1,0,0:0:0:0:
64,192,100645,1,0,0:0:0:0:
320,192,100645,1,0,0:0:0:0:
192,192,100838,1,0,0:0:0:0:
64,192,100838,1,0,0:0:0:0:
64,192,100935,1,0,0:0:0:0:
192,192,100935,1,0,0:0:0:0:
320,192,101032,1,0,0:0:0:0:
448,192,101032,1,0,0:0:0:0:
192,192,101129,1,0,0:0:0:0:
64,192,101129,1,0,0:0:0:0:
192,192,101225,1,0,0:0:0:0:
64,192,101225,1,0,0:0:0:0:
320,192,101322,1,0,0:0:0:0:
192,192,101419,1,0,0:0:0:0:
64,192,101419,1,0,0:0:0:0:
448,192,101419,1,0,0:0:0:0:
192,192,101612,1,0,0:0:0:0:
448,192,101612,1,0,0:0:0:0:
448,192,101709,1,0,0:0:0:0:
192,192,101709,1,0,0:0:0:0:
320,192,101806,1,0,0:0:0:0:
64,192,101806,1,0,0:0:0:0:
192,192,101903,1,0,0:0:0:0:
448,192,101903,1,0,0:0:0:0:
192,192,101999,1,0,0:0:0:0:
448,192,101999,1,0,0:0:0:0:
64,192,102096,1,0,0:0:0:0:
192,192,102193,1,0,0:0:0:0:
320,192,102193,1,0,0:0:0:0:
448,192,102193,1,0,0:0:0:0:
320,192,102387,1,0,0:0:0:0:
448,192,102387,1,0,0:0:0:0:
320,192,102483,1,0,0:0:0:0:
448,192,102483,1,0,0:0:0:0:
192,192,102580,1,0,0:0:0:0:
64,192,102580,1,0,0:0:0:0:
320,192,102677,1,0,0:0:0:0:
448,192,102677,1,0,0:0:0:0:
320,192,102774,1,0,0:0:0:0:
448,192,102774,1,0,0:0:0:0:
192,192,102870,1,0,0:0:0:0:
64,192,102967,1,0,0:0:0:0:
320,192,102967,1,0,0:0:0:0:
448,192,102967,1,0,0:0:0:0:
448,192,103064,1,0,0:0:0:0:
448,192,103161,1,0,0:0:0:0:
192,192,103161,1,0,0:0:0:0:
64,192,103161,1,0,0:0:0:0:
448,192,103258,1,0,0:0:0:0:
192,192,103258,1,0,0:0:0:0:
64,192,103258,1,0,0:0:0:0:
448,192,103354,1,0,0:0:0:0:
320,192,103354,1,0,0:0:0:0:
64,192,103451,1,0,0:0:0:0:
192,192,103451,1,0,0:0:0:0:
192,192,103548,1,0,0:0:0:0:
64,192,103548,1,0,0:0:0:0:
448,192,103645,1,0,0:0:0:0:
192,192,103741,1,0,0:0:0:0:
320,192,103741,1,0,0:0:0:0:
64,192,103741,1,0,0:0:0:0:
320,192,103935,1,0,0:0:0:0:
192,192,103935,1,0,0:0:0:0:
192,192,104032,1,0,0:0:0:0:
320,192,104032,1,0,0:0:0:0:
64,192,104129,1,0,0:0:0:0:
448,192,104129,1,0,0:0:0:0:
320,192,104225,1,0,0:0:0:0:
192,192,104225,1,0,0:0:0:0:
320,192,104322,1,0,0:0:0:0:
192,192,104322,1,0,0:0:0:0:
64,192,104419,1,0,0:0:0:0:
192,192,104516,1,0,0:0:0:0:
320,192,104516,1,0,0:0:0:0:
448,192,104516,1,0,0:0:0:0:
320,192,104709,1,0,0:0:0:0:
448,192,104709,1,0,0:0:0:0:
320,192,104806,1,0,0:0:0:0:
448,192,104806,1,0,0:0:0:0:
192,192,104903,1,0,0:0:0:0:
64,192,104903,1,0,0:0:0:0:
448,192,104999,1,0,0:0:0:0:
320,192,104999,1,0,0:0:0:0:
448,192,105096,1,0,0:0:0:0:
320,192,105096,1,0,0:0:0:0:
192,192,105193,1,0,0:0:0:0:
64,192,105290,1,0,0:0:0:0:
320,192,105290,1,0,0:0:0:0:
448,192,105290,1,0,0:0:0:0:
448,192,105483,1,0,0:0:0:0:
64,192,105483,1,0,0:0:0:0:
448,192,105580,1,0,0:0:0:0:
64,192,105580,1,0,0:0:0:0:
192,192,105677,1,0,0:0:0:0:
320,192,105677,1,0,0:0:0:0:
64,192,105774,1,0,0:0:0:0:
448,192,105774,1,0,0:0:0:0:
64,192,105870,1,0,0:0:0:0:
448,192,105870,1,0,0:0:0:0:
320,192,105967,1,0,0:0:0:0:
192,192,105967,1,0,0:0:0:0:
192,192,106064,1,0,0:0:0:0:
64,192,106064,1,0,0:0:0:0:
192,192,106161,1,0,0:0:0:0:
64,192,106161,1,0,0:0:0:0:
320,192,106256,1,0,0:0:0:0:
448,192,106258,1,0,0:0:0:0:
320,192,106353,1,0,0:0:0:0:
448,192,106354,1,0,0:0:0:0:
192,192,106450,1,0,0:0:0:0:
64,192,106451,1,0,0:0:0:0:
192,192,106547,1,0,0:0:0:0:
64,192,106548,1,0,0:0:0:0:
192,192,106644,1,0,0:0:0:0:
320,192,106644,1,0,0:0:0:0:
320,192,106741,1,0,0:0:0:0:
448,192,106741,1,0,0:0:0:0:
192,192,106838,1,0,0:0:0:0:
448,192,106838,1,0,0:0:0:0:
320,192,106838,1,0,0:0:0:0:
64,192,106838,128,0,106935:0:0:0:0:
64,192,107032,128,0,107225:0:0:0:0:
192,192,107032,1,0,0:0:0:0:
320,192,107032,1,0,0:0:0:0:
448,192,107129,1,0,0:0:0:0:
320,192,107225,1,0,0:0:0:0:
192,192,107322,128,0,107516:0:0:0:0:
448,192,107322,1,0,0:0:0:0:
320,192,107419,1,0,0:0:0:0:
64,192,107419,1,0,0:0:0:0:
320,192,107612,128,0,107806:0:0:0:0:
64,192,107612,1,0,0:0:0:0:
192,192,107612,1,0,0:0:0:0:
64,192,107709,1,0,0:0:0:0:
192,192,107709,1,0,0:0:0:0:
448,192,107903,128,0,108096:0:0:0:0:
192,192,107903,1,0,0:0:0:0:
64,192,107903,1,0,0:0:0:0:
64,192,107999,1,0,0:0:0:0:
192,192,107999,1,0,0:0:0:0:
320,192,108192,128,0,108385:0:0:0:0:
64,192,108192,1,0,0:0:0:0:
192,192,108193,1,0,0:0:0:0:
64,192,108289,1,0,0:0:0:0:
192,192,108290,1,0,0:0:0:0:
64,192,108385,1,0,0:0:0:0:
448,192,108387,128,0,108483:0:0:0:0:
192,192,108387,1,0,0:0:0:0:
448,192,108580,128,0,108774:0:0:0:0:
320,192,108580,1,0,0:0:0:0:
192,192,108580,1,0,0:0:0:0:
64,192,108677,1,0,0:0:0:0:
192,192,108774,1,0,0:0:0:0:
320,192,108870,128,0,109064:0:0:0:0:
64,192,108870,1,0,0:0:0:0:
192,192,108967,1,0,0:0:0:0:
448,192,108967,1,0,0:0:0:0:
192,192,109161,128,0,109354:0:0:0:0:
448,192,109161,1,0,0:0:0:0:
320,192,109161,1,0,0:0:0:0:
320,192,109258,1,0,0:0:0:0:
448,192,109258,1,0,0:0:0:0:
64,192,109451,128,0,109645:0:0:0:0:
448,192,109451,1,0,0:0:0:0:
320,192,109451,1,0,0:0:0:0:
320,192,109548,1,0,0:0:0:0:
448,192,109548,1,0,0:0:0:0:
448,192,109740,1,0,0:0:0:0:
320,192,109740,1,0,0:0:0:0:
192,192,109740,128,0,109934:0:0:0:0:
320,192,109837,1,0,0:0:0:0:
448,192,109837,1,0,0:0:0:0:
320,192,109934,128,0,110031:0:0:0:0:
448,192,109934,1,0,0:0:0:0:
64,192,109935,128,0,110032:0:0:0:0:
64,192,110129,128,0,110322:0:0:0:0:
192,192,110129,128,0,110322:0:0:0:0:
448,192,110129,1,0,0:0:0:0:
320,192,110225,1,0,0:0:0:0:
448,192,110322,1,0,0:0:0:0:
320,192,110419,128,0,110612:0:0:0:0:
192,192,110419,128,0,110612:0:0:0:0:
64,192,110419,1,0,0:0:0:0:
448,192,110516,1,0,0:0:0:0:
320,192,110708,1,0,0:0:0:0:
64,192,110708,128,0,110902:0:0:0:0:
448,192,110709,128,0,110903:0:0:0:0:
192,192,110709,1,0,0:0:0:0:
320,192,110805,1,0,0:0:0:0:
192,192,110806,1,0,0:0:0:0:
64,192,110999,128,0,111193:0:0:0:0:
448,192,110999,128,0,111193:0:0:0:0:
192,192,110999,1,0,0:0:0:0:
320,192,110999,1,0,0:0:0:0:
192,192,111096,1,0,0:0:0:0:
320,192,111096,1,0,0:0:0:0:
192,192,111289,1,0,0:0:0:0:
64,192,111289,128,0,111482:0:0:0:0:
320,192,111289,1,0,0:0:0:0:
448,192,111289,128,0,111579:0:0:0:0:
192,192,111385,1,0,0:0:0:0:
320,192,111385,1,0,0:0:0:0:
192,192,111482,1,0,0:0:0:0:
320,192,111482,128,0,111579:0:0:0:0:
192,192,111580,1,0,0:0:0:0:
320,192,111677,128,0,111870:0:0:0:0:
448,192,111677,128,0,111870:0:0:0:0:
64,192,111677,1,0,0:0:0:0:
192,192,111774,1,0,0:0:0:0:
64,192,111870,1,0,0:0:0:0:
64,192,111967,128,0,112161:0:0:0:0:
448,192,111967,128,0,112161:0:0:0:0:
192,192,111967,1,0,0:0:0:0:
320,192,112064,1,0,0:0:0:0:
192,192,112161,1,0,0:0:0:0:
320,192,112161,1,0,0:0:0:0:
64,192,112258,1,0,0:0:0:0:
448,192,112258,1,0,0:0:0:0:
64,192,112354,1,0,0:0:0:0:
448,192,112354,1,0,0:0:0:0:
320,192,112451,1,0,0:0:0:0:
192,192,112451,1,0,0:0:0:0:
64,192,112548,1,0,0:0:0:0:
448,192,112548,1,0,0:0:0:0:
64,192,112645,1,0,0:0:0:0:
448,192,112645,1,0,0:0:0:0:
320,192,112741,1,0,0:0:0:0:
192,192,112741,1,0,0:0:0:0:
64,192,112838,1,0,0:0:0:0:
448,192,112838,1,0,0:0:0:0:
64,192,112935,1,0,0:0:0:0:
448,192,112935,1,0,0:0:0:0:
320,192,113032,1,0,0:0:0:0:
192,192,113032,1,0,0:0:0:0:
64,192,113032,128,0,113129:0:0:0:0:
192,192,113322,128,0,113419:0:0:0:0:
192,192,113612,128,0,113709:0:0:0:0:
320,192,113806,128,0,113903:0:0:0:0:
448,192,113999,128,0,114096:0:0:0:0:
64,192,114290,128,0,114387:0:0:0:0:
448,192,114483,128,0,114532:0:0:0:0:
448,192,114580,128,0,114629:0:0:0:0:
448,192,114677,128,0,114774:0:0:0:0:
320,192,114774,128,0,114870:0:0:0:0:
320,192,115064,128,0,115161:0:0:0:0:
192,192,115258,128,0,115354:0:0:0:0:
64,192,115451,128,0,115548:0:0:0:0:
448,192,115741,128,0,115838:0:0:0:0:
320,192,115935,128,0,116032:0:0:0:0:
64,192,116129,128,0,116225:0:0:0:0:
192,192,116419,128,0,116516:0:0:0:0:
192,192,116709,128,0,116806:0:0:0:0:
320,192,116903,128,0,116999:0:0:0:0:
448,192,117096,128,0,117193:0:0:0:0:
64,192,117387,128,0,117483:0:0:0:0:
448,192,117580,128,0,117629:0:0:0:0:
448,192,117677,128,0,117725:0:0:0:0:
448,192,117774,128,0,117870:0:0:0:0:
320,192,117870,128,0,117967:0:0:0:0:
320,192,118161,128,0,118258:0:0:0:0:
192,192,118354,128,0,118451:0:0:0:0:
64,192,118548,128,0,118645:0:0:0:0:
448,192,118838,128,0,118935:0:0:0:0:
320,192,119032,128,0,119129:0:0:0:0:
448,192,119225,128,0,119322:0:0:0:0:
320,192,119516,128,0,119612:0:0:0:0:
320,192,119806,128,0,119903:0:0:0:0:
192,192,119999,128,0,120096:0:0:0:0:
64,192,120193,128,0,120290:0:0:0:0:
448,192,120483,128,0,120580:0:0:0:0:
64,192,120677,128,0,120725:0:0:0:0:
64,192,120774,128,0,120822:0:0:0:0:
64,192,120870,128,0,120967:0:0:0:0:
192,192,120967,128,0,121064:0:0:0:0:
192,192,121258,128,0,121354:0:0:0:0:
320,192,121451,128,0,121548:0:0:0:0:
448,192,121645,128,0,121741:0:0:0:0:
64,192,121935,128,0,122032:0:0:0:0:
192,192,122129,128,0,122225:0:0:0:0:
448,192,122322,128,0,122419:0:0:0:0:
320,192,122612,128,0,122709:0:0:0:0:
320,192,122903,128,0,122999:0:0:0:0:
192,192,123096,128,0,123193:0:0:0:0:
64,192,123290,128,0,123387:0:0:0:0:
448,192,123580,128,0,123677:0:0:0:0:
64,192,123774,128,0,123822:0:0:0:0:
64,192,123870,128,0,123919:0:0:0:0:
64,192,123967,128,0,124064:0:0:0:0:
192,192,124064,128,0,124161:0:0:0:0:
192,192,124354,128,0,124451:0:0:0:0:
320,192,124548,128,0,124645:0:0:0:0:
448,192,124741,128,0,124838:0:0:0:0:
64,192,125032,128,0,125129:0:0:0:0:
192,192,125225,128,0,125322:0:0:0:0:
192,192,125419,1,0,0:0:0:0:
64,192,125419,1,0,0:0:0:0:
448,192,125419,1,0,0:0:0:0:
320,192,125419,1,0,0:0:0:0:
320,192,125516,1,0,0:0:0:0:
448,192,125516,1,0,0:0:0:0:
192,192,125709,1,0,0:0:0:0:
64,192,125709,1,0,0:0:0:0:
448,192,125903,1,0,0:0:0:0:
320,192,125903,1,0,0:0:0:0:
320,192,125999,1,0,0:0:0:0:
192,192,125999,1,0,0:0:0:0:
192,192,126096,1,0,0:0:0:0:
320,192,126096,1,0,0:0:0:0:
64,192,126193,1,0,0:0:0:0:
192,192,126193,1,0,0:0:0:0:
448,192,126193,1,0,0:0:0:0:
320,192,126290,1,0,0:0:0:0:
448,192,126387,1,0,0:0:0:0:
192,192,126387,1,0,0:0:0:0:
64,192,126483,1,0,0:0:0:0:
320,192,126483,1,0,0:0:0:0:
192,192,126580,1,0,0:0:0:0:
64,192,126580,1,0,0:0:0:0:
192,192,126677,1,0,0:0:0:0:
320,192,126677,1,0,0:0:0:0:
448,192,126677,1,0,0:0:0:0:
448,192,126967,1,0,0:0:0:0:
320,192,126967,1,0,0:0:0:0:
192,192,126967,1,0,0:0:0:0:
64,192,126967,1,0,0:0:0:0:
448,192,127161,1,0,0:0:0:0:
320,192,127161,1,0,0:0:0:0:
320,192,127258,1,0,0:0:0:0:
448,192,127258,1,0,0:0:0:0:
192,192,127354,1,0,0:0:0:0:
64,192,127354,1,0,0:0:0:0:
192,192,127451,1,0,0:0:0:0:
320,192,127451,1,0,0:0:0:0:
448,192,127548,1,0,0:0:0:0:
320,192,127548,1,0,0:0:0:0:
192,192,127645,1,0,0:0:0:0:
64,192,127645,1,0,0:0:0:0:
320,192,127741,1,0,0:0:0:0:
192,192,127741,1,0,0:0:0:0:
448,192,127741,1,0,0:0:0:0:
320,192,127838,1,0,0:0:0:0:
64,192,127838,1,0,0:0:0:0:
192,192,127935,1,0,0:0:0:0:
320,192,127935,1,0,0:0:0:0:
192,192,128032,1,0,0:0:0:0:
320,192,128032,1,0,0:0:0:0:
192,192,128129,1,0,0:0:0:0:
64,192,128129,1,0,0:0:0:0:
448,192,128129,1,0,0:0:0:0:
192,192,128322,1,0,0:0:0:0:
448,192,128322,1,0,0:0:0:0:
192,192,128419,1,0,0:0:0:0:
320,192,128419,1,0,0:0:0:0:
64,192,128516,1,0,0:0:0:0:
448,192,128516,1,0,0:0:0:0:
320,192,128516,1,0,0:0:0:0:
192,192,128709,1,0,0:0:0:0:
64,192,128709,1,0,0:0:0:0:
320,192,128709,1,0,0:0:0:0:
448,192,128999,1,0,0:0:0:0:
320,192,128999,1,0,0:0:0:0:
64,192,129096,1,0,0:0:0:0:
320,192,129096,1,0,0:0:0:0:
64,192,129193,1,0,0:0:0:0:
320,192,129193,1,0,0:0:0:0:
192,192,129290,1,0,0:0:0:0:
320,192,129290,1,0,0:0:0:0:
448,192,129290,1,0,0:0:0:0:
192,192,129387,1,0,0:0:0:0:
64,192,129387,1,0,0:0:0:0:
192,192,129483,1,0,0:0:0:0:
448,192,129483,1,0,0:0:0:0:
320,192,129580,1,0,0:0:0:0:
64,192,129580,1,0,0:0:0:0:
64,192,129677,1,0,0:0:0:0:
448,192,129677,1,0,0:0:0:0:
192,192,129774,1,0,0:0:0:0:
320,192,129774,1,0,0:0:0:0:
448,192,129774,1,0,0:0:0:0:
64,192,130064,1,0,0:0:0:0:
192,192,130064,1,0,0:0:0:0:
448,192,130064,1,0,0:0:0:0:
320,192,130064,1,0,0:0:0:0:
320,192,130354,1,0,0:0:0:0:
192,192,130354,1,0,0:0:0:0:
64,192,130451,1,0,0:0:0:0:
320,192,130451,1,0,0:0:0:0:
448,192,130451,1,0,0:0:0:0:
64,192,130548,1,0,0:0:0:0:
192,192,130548,1,0,0:0:0:0:
192,192,130644,1,0,0:0:0:0:
448,192,130645,1,0,0:0:0:0:
448,192,130741,1,0,0:0:0:0:
64,192,130741,1,0,0:0:0:0:
448,192,130838,1,0,0:0:0:0:
320,192,130838,1,0,0:0:0:0:
192,192,130838,1,0,0:0:0:0:
64,192,130935,1,0,0:0:0:0:
192,192,130935,1,0,0:0:0:0:
448,192,131032,1,0,0:0:0:0:
320,192,131032,1,0,0:0:0:0:
192,192,131032,1,0,0:0:0:0:
64,192,131129,1,0,0:0:0:0:
192,192,131129,1,0,0:0:0:0:
64,192,131225,1,0,0:0:0:0:
448,192,131225,1,0,0:0:0:0:
320,192,131225,1,0,0:0:0:0:
192,192,131612,1,0,0:0:0:0:
448,192,131612,1,0,0:0:0:0:
320,192,131709,1,0,0:0:0:0:
64,192,131709,1,0,0:0:0:0:
192,192,131806,1,0,0:0:0:0:
320,192,131806,1,0,0:0:0:0:
320,192,131903,1,0,0:0:0:0:
192,192,131903,1,0,0:0:0:0:
64,192,131999,1,0,0:0:0:0:
192,192,131999,1,0,0:0:0:0:
448,192,131999,1,0,0:0:0:0:
64,192,132096,1,0,0:0:0:0:
320,192,132096,1,0,0:0:0:0:
448,192,132096,1,0,0:0:0:0:
64,192,132290,1,0,0:0:0:0:
192,192,132290,1,0,0:0:0:0:
64,192,132387,1,0,0:0:0:0:
448,192,132387,1,0,0:0:0:0:
448,192,132483,1,0,0:0:0:0:
320,192,132483,1,0,0:0:0:0:
320,192,132580,1,0,0:0:0:0:
192,192,132580,1,0,0:0:0:0:
192,192,132677,1,0,0:0:0:0:
64,192,132677,1,0,0:0:0:0:
320,192,132774,1,0,0:0:0:0:
448,192,132774,1,0,0:0:0:0:
64,192,132774,1,0,0:0:0:0:
192,192,132870,1,0,0:0:0:0:
320,192,132870,1,0,0:0:0:0:
448,192,132870,1,0,0:0:0:0:
448,192,133161,1,0,0:0:0:0:
320,192,133161,1,0,0:0:0:0:
192,192,133161,1,0,0:0:0:0:
64,192,133161,1,0,0:0:0:0:
192,192,133354,1,0,0:0:0:0:
64,192,133354,1,0,0:0:0:0:
64,192,133451,1,0,0:0:0:0:
192,192,133451,1,0,0:0:0:0:
320,192,133548,1,0,0:0:0:0:
448,192,133548,1,0,0:0:0:0:
448,192,133645,1,0,0:0:0:0:
320,192,133645,1,0,0:0:0:0:
64,192,133741,1,0,0:0:0:0:
192,192,133741,1,0,0:0:0:0:
192,192,133838,1,0,0:0:0:0:
320,192,133838,1,0,0:0:0:0:
320,192,133935,1,0,0:0:0:0:
192,192,133935,1,0,0:0:0:0:
64,192,134032,1,0,0:0:0:0:
192,192,134032,1,0,0:0:0:0:
448,192,134032,1,0,0:0:0:0:
192,192,134322,1,0,0:0:0:0:
64,192,134322,1,0,0:0:0:0:
448,192,134322,1,0,0:0:0:0:
320,192,134322,1,0,0:0:0:0:
192,192,134516,1,0,0:0:0:0:
320,192,134516,1,0,0:0:0:0:
192,192,134612,1,0,0:0:0:0:
320,192,134612,1,0,0:0:0:0:
192,192,134709,1,0,0:0:0:0:
64,192,134709,1,0,0:0:0:0:
320,192,134709,1,0,0:0:0:0:
448,192,134709,1,0,0:0:0:0:
448,192,135096,1,0,0:0:0:0:
64,192,135096,1,0,0:0:0:0:
192,192,135096,1,0,0:0:0:0:
320,192,135096,1,0,0:0:0:0:
448,192,135483,1,0,0:0:0:0:
320,192,135483,1,0,0:0:0:0:
320,192,135580,1,0,0:0:0:0:
448,192,135580,1,0,0:0:0:0:
192,192,135677,1,0,0:0:0:0:
320,192,135677,1,0,0:0:0:0:
64,192,135774,1,0,0:0:0:0:
192,192,135774,1,0,0:0:0:0:
64,192,135870,1,0,0:0:0:0:
192,192,135870,1,0,0:0:0:0:
320,192,135870,1,0,0:0:0:0:
448,192,135870,1,0,0:0:0:0:
320,192,136258,1,0,0:0:0:0:
448,192,136258,1,0,0:0:0:0:
192,192,136258,1,0,0:0:0:0:
64,192,136258,1,0,0:0:0:0:
64,192,136645,1,0,0:0:0:0:
192,192,136645,1,0,0:0:0:0:
320,192,136645,1,0,0:0:0:0:
448,192,136645,1,0,0:0:0:0:
64,192,137031,1,0,0:0:0:0:
192,192,137031,1,0,0:0:0:0:
192,192,137128,1,0,0:0:0:0:
64,192,137128,1,0,0:0:0:0:
192,192,137225,1,0,0:0:0:0:
320,192,137225,1,0,0:0:0:0:
448,192,137322,1,0,0:0:0:0:
320,192,137322,1,0,0:0:0:0:
448,192,137419,1,0,0:0:0:0:
320,192,137419,1,0,0:0:0:0:
192,192,137419,1,0,0:0:0:0:
64,192,137419,1,0,0:0:0:0:
448,192,137806,1,0,0:0:0:0:
192,192,137806,1,0,0:0:0:0:
64,192,137806,1,0,0:0:0:0:
320,192,137806,1,0,0:0:0:0:
448,192,138193,1,0,0:0:0:0:
192,192,138193,1,0,0:0:0:0:
320,192,138193,1,0,0:0:0:0:
64,192,138193,1,0,0:0:0:0:
448,192,138580,1,0,0:0:0:0:
64,192,138580,1,0,0:0:0:0:
192,192,138677,1,0,0:0:0:0:
320,192,138677,1,0,0:0:0:0:
64,192,138773,1,0,0:0:0:0:
448,192,138773,1,0,0:0:0:0:
192,192,138870,1,0,0:0:0:0:
320,192,138870,1,0,0:0:0:0:
192,192,138967,1,0,0:0:0:0:
64,192,138967,1,0,0:0:0:0:
320,192,138967,1,0,0:0:0:0:
448,192,138967,1,0,0:0:0:0:
64,192,139354,1,0,0:0:0:0:
320,192,139354,1,0,0:0:0:0:
448,192,139354,1,0,0:0:0:0:
192,192,139354,1,0,0:0:0:0:
64,192,139741,1,0,0:0:0:0:
192,192,139741,1,0,0:0:0:0:
320,192,139741,1,0,0:0:0:0:
448,192,139741,1,0,0:0:0:0:
64,192,140129,1,0,0:0:0:0:
64,192,140225,1,0,0:0:0:0:
320,192,140322,1,0,0:0:0:0:
320,192,140419,1,0,0:0:0:0:
192,192,140515,1,0,0:0:0:0:
192,192,140612,1,0,0:0:0:0:
448,192,140709,1,0,0:0:0:0:
448,192,140806,1,0,0:0:0:0:
64,192,140903,1,0,0:0:0:0:
192,192,140903,1,0,0:0:0:0:
448,192,141193,1,0,0:0:0:0:
320,192,141193,1,0,0:0:0:0:
64,192,141290,1,0,0:0:0:0:
192,192,141290,1,0,0:0:0:0:
448,192,141483,1,0,0:0:0:0:
320,192,141483,1,0,0:0:0:0:
64,192,141677,1,0,0:0:0:0:
64,192,141774,1,0,0:0:0:0:
320,192,141870,1,0,0:0:0:0:
320,192,141967,1,0,0:0:0:0:
448,192,142064,1,0,0:0:0:0:
192,192,142064,1,0,0:0:0:0:
192,192,142354,1,0,0:0:0:0:
320,192,142354,1,0,0:0:0:0:
64,192,142451,1,0,0:0:0:0:
448,192,142451,1,0,0:0:0:0:
64,192,142548,1,0,0:0:0:0:
320,192,142644,1,0,0:0:0:0:
320,192,142741,1,0,0:0:0:0:
192,192,142838,1,0,0:0:0:0:
448,192,142838,1,0,0:0:0:0:
192,192,142935,1,0,0:0:0:0:
448,192,143031,1,0,0:0:0:0:
448,192,143128,1,0,0:0:0:0:
320,192,143225,1,0,0:0:0:0:
64,192,143225,1,0,0:0:0:0:
320,192,143322,1,0,0:0:0:0:
64,192,143322,1,0,0:0:0:0:
448,192,143418,1,0,0:0:0:0:
192,192,143418,1,0,0:0:0:0:
448,192,143515,1,0,0:0:0:0:
192,192,143515,1,0,0:0:0:0:
320,192,143612,1,0,0:0:0:0:
64,192,143612,1,0,0:0:0:0:
320,192,143709,1,0,0:0:0:0:
192,192,143806,1,0,0:0:0:0:
192,192,143902,1,0,0:0:0:0:
64,192,143999,128,0,144096:0:0:0:0:
192,192,144290,128,0,144387:0:0:0:0:
192,192,144580,128,0,144677:0:0:0:0:
320,192,144774,128,0,144870:0:0:0:0:
448,192,144967,128,0,145064:0:0:0:0:
64,192,145258,128,0,145354:0:0:0:0:
448,192,145548,1,0,0:0:0:0:
320,192,145548,1,0,0:0:0:0:
64,192,145548,128,0,145645:0:0:0:0:
192,192,145548,128,0,145645:0:0:0:0:
64,192,145741,128,0,145935:0:0:0:0:
448,192,145741,1,0,0:0:0:0:
320,192,145838,128,0,145935:0:0:0:0:
448,192,145935,1,0,0:0:0:0:
192,192,145935,1,0,0:0:0:0:
192,192,146032,128,0,146225:0:0:0:0:
320,192,146032,128,0,146129:0:0:0:0:
64,192,146129,1,0,0:0:0:0:
448,192,146225,128,0,146322:0:0:0:0:
320,192,146322,128,0,146516:0:0:0:0:
192,192,146322,1,0,0:0:0:0:
64,192,146322,1,0,0:0:0:0:
64,192,146419,128,0,146516:0:0:0:0:
192,192,146516,1,0,0:0:0:0:
448,192,146612,128,0,146806:0:0:0:0:
320,192,146612,1,0,0:0:0:0:
192,192,146709,128,0,146806:0:0:0:0:
320,192,146709,1,0,0:0:0:0:
64,192,146709,1,0,0:0:0:0:
64,192,146903,1,0,0:0:0:0:
320,192,146903,128,0,146999:0:0:0:0:
192,192,146903,128,0,147096:0:0:0:0:
64,192,146999,1,0,0:0:0:0:
64,192,147096,128,0,147193:0:0:0:0:
320,192,147096,1,0,0:0:0:0:
448,192,147096,1,0,0:0:0:0:
64,192,147290,128,0,147483:0:0:0:0:
448,192,147483,1,0,0:0:0:0:
320,192,147483,1,0,0:0:0:0:
192,192,147580,128,0,147774:0:0:0:0:
448,192,147870,1,0,0:0:0:0:
320,192,147870,1,0,0:0:0:0:
64,192,147870,128,0,148064:0:0:0:0:
320,192,147967,1,0,0:0:0:0:
448,192,147967,1,0,0:0:0:0:
448,192,148064,1,0,0:0:0:0:
320,192,148064,1,0,0:0:0:0:
320,192,148161,1,0,0:0:0:0:
448,192,148161,1,0,0:0:0:0:
192,192,148161,128,0,148354:0:0:0:0:
448,192,148258,1,0,0:0:0:0:
320,192,148258,1,0,0:0:0:0:
320,192,148451,128,0,148645:0:0:0:0:
192,192,148645,1,0,0:0:0:0:
64,192,148645,1,0,0:0:0:0:
448,192,148645,128,0,148741:0:0:0:0:
448,192,148838,128,0,149032:0:0:0:0:
192,192,149032,1,0,0:0:0:0:
64,192,149032,1,0,0:0:0:0:
320,192,149129,128,0,149322:0:0:0:0:
192,192,149419,1,0,0:0:0:0:
64,192,149419,1,0,0:0:0:0:
448,192,149419,128,0,149612:0:0:0:0:
64,192,149516,1,0,0:0:0:0:
192,192,149516,1,0,0:0:0:0:
192,192,149612,1,0,0:0:0:0:
64,192,149612,1,0,0:0:0:0:
64,192,149709,1,0,0:0:0:0:
192,192,149709,1,0,0:0:0:0:
320,192,149709,128,0,149903:0:0:0:0:
192,192,149806,1,0,0:0:0:0:
64,192,149806,1,0,0:0:0:0:
192,192,149999,128,0,150193:0:0:0:0:
64,192,150193,1,0,0:0:0:0:
320,192,150193,1,0,0:0:0:0:
448,192,150193,128,0,150290:0:0:0:0:
192,192,150387,1,0,0:0:0:0:
64,192,150387,1,0,0:0:0:0:
320,192,150483,128,0,150580:0:0:0:0:
448,192,150483,1,0,0:0:0:0:
64,192,150580,1,0,0:0:0:0:
192,192,150580,1,0,0:0:0:0:
320,192,150774,128,0,150870:0:0:0:0:
64,192,150774,1,0,0:0:0:0:
448,192,150774,1,0,0:0:0:0:
192,192,150967,128,0,151064:0:0:0:0:
448,192,150967,1,0,0:0:0:0:
320,192,150967,1,0,0:0:0:0:
64,192,151161,128,0,151258:0:0:0:0:
192,192,151161,1,0,0:0:0:0:
320,192,151161,1,0,0:0:0:0:
448,192,151258,1,0,0:0:0:0:
192,192,151354,1,0,0:0:0:0:
320,192,151354,1,0,0:0:0:0:
448,192,151451,128,0,151548:0:0:0:0:
192,192,151548,1,0,0:0:0:0:
320,192,151548,1,0,0:0:0:0:
64,192,151645,128,0,151693:0:0:0:0:
64,192,151741,128,0,151790:0:0:0:0:
448,192,151741,1,0,0:0:0:0:
320,192,151741,1,0,0:0:0:0:
64,192,151838,128,0,151935:0:0:0:0:
192,192,151935,128,0,152032:0:0:0:0:
320,192,151935,1,0,0:0:0:0:
448,192,151935,1,0,0:0:0:0:
64,192,152032,1,0,0:0:0:0:
320,192,152129,1,0,0:0:0:0:
448,192,152129,1,0,0:0:0:0:
192,192,152225,128,0,152322:0:0:0:0:
64,192,152225,1,0,0:0:0:0:
448,192,152322,1,0,0:0:0:0:
320,192,152419,128,0,152516:0:0:0:0:
64,192,152516,1,0,0:0:0:0:
192,192,152516,1,0,0:0:0:0:
448,192,152612,128,0,152709:0:0:0:0:
64,192,152612,1,0,0:0:0:0:
192,192,152612,1,0,0:0:0:0:
320,192,152806,1,0,0:0:0:0:
192,192,152806,1,0,0:0:0:0:
64,192,152903,128,0,152999:0:0:0:0:
320,192,152903,1,0,0:0:0:0:
192,192,152903,1,0,0:0:0:0:
192,192,153096,128,0,153193:0:0:0:0:
320,192,153096,1,0,0:0:0:0:
448,192,153096,1,0,0:0:0:0:
448,192,153193,1,0,0:0:0:0:
320,192,153193,1,0,0:0:0:0:
320,192,153290,128,0,153387:0:0:0:0:
64,192,153290,1,0,0:0:0:0:
448,192,153290,1,0,0:0:0:0:
320,192,153483,128,0,153677:0:0:0:0:
64,192,153677,1,0,0:0:0:0:
448,192,153677,1,0,0:0:0:0:
192,192,153774,128,0,153967:0:0:0:0:
320,192,154063,1,0,0:0:0:0:
448,192,154064,1,0,0:0:0:0:
320,192,154160,1,0,0:0:0:0:
448,192,154161,1,0,0:0:0:0:
320,192,154257,1,0,0:0:0:0:
192,192,154257,1,0,0:0:0:0:
192,192,154354,1,0,0:0:0:0:
64,192,154354,1,0,0:0:0:0:
192,192,154451,1,0,0:0:0:0:
64,192,154451,1,0,0:0:0:0:
320,192,154645,128,0,154838:0:0:0:0:
448,192,154838,128,0,155225:0:0:0:0:
64,192,154838,128,0,155225:0:0:0:0:
192,192,155032,1,0,0:0:0:0:
320,192,155032,1,0,0:0:0:0:
320,192,155129,1,0,0:0:0:0:
192,192,155129,1,0,0:0:0:0:
320,192,155225,1,0,0:0:0:0:
192,192,155225,1,0,0:0:0:0:
64,192,155322,128,0,155419:0:0:0:0:
448,192,155322,128,0,155419:0:0:0:0:
192,192,155419,1,0,0:0:0:0:
320,192,155419,1,0,0:0:0:0:
192,192,155515,128,0,155563:0:0:0:0:
64,192,155516,128,0,155564:0:0:0:0:
320,192,155612,128,0,155660:0:0:0:0:
448,192,155612,128,0,155661:0:0:0:0:
320,192,155709,128,0,155757:0:0:0:0:
448,192,155709,128,0,155758:0:0:0:0:
192,192,155805,128,0,155854:0:0:0:0:
64,192,155806,128,0,155854:0:0:0:0:
192,192,155902,128,0,155951:0:0:0:0:
64,192,155903,128,0,155951:0:0:0:0:
320,192,155999,128,0,156047:0:0:0:0:
448,192,155999,128,0,156048:0:0:0:0:
320,192,156096,128,0,156144:0:0:0:0:
448,192,156096,128,0,156145:0:0:0:0:
192,192,156193,128,0,156241:0:0:0:0:
320,192,156193,128,0,156241:0:0:0:0:
192,192,156289,128,0,156338:0:0:0:0:
64,192,156290,128,0,156338:0:0:0:0:
192,192,156387,1,0,0:0:0:0:
64,192,156387,1,0,0:0:0:0:
448,192,156387,128,0,156483:0:0:0:0:
320,192,156387,128,0,156483:0:0:0:0:
64,192,156580,1,0,0:0:0:0:
320,192,156677,128,0,156774:0:0:0:0:
192,192,156677,128,0,156774:0:0:0:0:
448,192,156677,1,0,0:0:0:0:
64,192,156774,1,0,0:0:0:0:
448,192,156870,1,0,0:0:0:0:
320,192,156967,128,0,157064:0:0:0:0:
192,192,156967,128,0,157064:0:0:0:0:
64,192,156967,1,0,0:0:0:0:
192,192,157161,128,0,157258:0:0:0:0:
64,192,157161,128,0,157258:0:0:0:0:
448,192,157161,1,0,0:0:0:0:
320,192,157258,1,0,0:0:0:0:
64,192,157354,128,0,157451:0:0:0:0:
448,192,157354,128,0,157451:0:0:0:0:
192,192,157354,1,0,0:0:0:0:
320,192,157451,1,0,0:0:0:0:
448,192,157548,1,0,0:0:0:0:
192,192,157645,128,0,157741:0:0:0:0:
320,192,157645,128,0,157741:0:0:0:0:
64,192,157645,1,0,0:0:0:0:
448,192,157741,1,0,0:0:0:0:
64,192,157838,128,0,157887:0:0:0:0:
192,192,157838,128,0,157887:0:0:0:0:
320,192,157838,1,0,0:0:0:0:
64,192,157935,128,0,157983:0:0:0:0:
192,192,157935,128,0,157983:0:0:0:0:
448,192,157935,1,0,0:0:0:0:
64,192,158032,128,0,158129:0:0:0:0:
192,192,158032,128,0,158225:0:0:0:0:
320,192,158129,128,0,158225:0:0:0:0:
448,192,158129,1,0,0:0:0:0:
64,192,158225,1,0,0:0:0:0:
448,192,158322,1,0,0:0:0:0:
192,192,158419,128,0,158516:0:0:0:0:
320,192,158419,128,0,158516:0:0:0:0:
64,192,158419,1,0,0:0:0:0:
448,192,158516,1,0,0:0:0:0:
448,192,158612,128,0,158709:0:0:0:0:
320,192,158612,128,0,158709:0:0:0:0:
64,192,158709,1,0,0:0:0:0:
192,192,158709,1,0,0:0:0:0:
192,192,158805,1,0,0:0:0:0:
448,192,158806,128,0,158903:0:0:0:0:
64,192,158806,128,0,158903:0:0:0:0:
448,192,158999,1,0,0:0:0:0:
320,192,158999,1,0,0:0:0:0:
192,192,159096,128,0,159193:0:0:0:0:
64,192,159096,128,0,159193:0:0:0:0:
320,192,159096,1,0,0:0:0:0:
448,192,159096,1,0,0:0:0:0:
320,192,159290,128,0,159387:0:0:0:0:
448,192,159290,128,0,159387:0:0:0:0:
64,192,159290,1,0,0:0:0:0:
192,192,159290,1,0,0:0:0:0:
192,192,159387,1,0,0:0:0:0:
64,192,159387,1,0,0:0:0:0:
320,192,159483,1,0,0:0:0:0:
448,192,159483,1,0,0:0:0:0:
64,192,159483,128,0,159580:0:0:0:0:
192,192,159483,128,0,159580:0:0:0:0:
320,192,159580,1,0,0:0:0:0:
448,192,159580,1,0,0:0:0:0:
192,192,159676,1,0,0:0:0:0:
64,192,159676,1,0,0:0:0:0:
192,192,159773,1,0,0:0:0:0:
64,192,159773,1,0,0:0:0:0:
320,192,159870,1,0,0:0:0:0:
448,192,159870,1,0,0:0:0:0:
448,192,159967,1,0,0:0:0:0:
320,192,159967,1,0,0:0:0:0:
64,192,160063,1,0,0:0:0:0:
192,192,160063,1,0,0:0:0:0:
64,192,160160,1,0,0:0:0:0:
192,192,160160,1,0,0:0:0:0:
448,192,160258,1,0,0:0:0:0:
320,192,160258,1,0,0:0:0:0:
320,192,160354,1,0,0:0:0:0:
448,192,160354,1,0,0:0:0:0:
320,192,160451,1,0,0:0:0:0:
192,192,160451,1,0,0:0:0:0:
64,192,160547,1,0,0:0:0:0:
192,192,160547,1,0,0:0:0:0:
192,192,160644,1,0,0:0:0:0:
64,192,160644,1,0,0:0:0:0:
320,192,160838,128,0,161129:0:0:0:0:
64,192,161032,1,0,0:0:0:0:
192,192,161032,1,0,0:0:0:0:
448,192,161032,128,0,161129:0:0:0:0:
64,192,161129,1,0,0:0:0:0:
192,192,161129,1,0,0:0:0:0:
448,192,161225,1,0,0:0:0:0:
320,192,161225,1,0,0:0:0:0:
448,192,161322,1,0,0:0:0:0:
320,192,161322,1,0,0:0:0:0:
64,192,161418,1,0,0:0:0:0:
192,192,161418,1,0,0:0:0:0:
192,192,161516,1,0,0:0:0:0:
64,192,161516,1,0,0:0:0:0:
320,192,161612,1,0,0:0:0:0:
448,192,161612,1,0,0:0:0:0:
320,192,161709,1,0,0:0:0:0:
448,192,161709,1,0,0:0:0:0:
64,192,161805,1,0,0:0:0:0:
192,192,161805,1,0,0:0:0:0:
192,192,161903,1,0,0:0:0:0:
64,192,161903,1,0,0:0:0:0:
320,192,161999,1,0,0:0:0:0:
192,192,161999,1,0,0:0:0:0:
448,192,162096,1,0,0:0:0:0:
320,192,162096,1,0,0:0:0:0:
320,192,162193,1,0,0:0:0:0:
448,192,162193,1,0,0:0:0:0:
192,192,162387,128,0,162580:0:0:0:0:
320,192,162580,1,0,0:0:0:0:
448,192,162580,1,0,0:0:0:0:
64,192,162580,128,0,162677:0:0:0:0:
320,192,162774,1,0,0:0:0:0:
448,192,162774,1,0,0:0:0:0:
192,192,162870,128,0,162967:0:0:0:0:
64,192,162870,1,0,0:0:0:0:
448,192,162967,1,0,0:0:0:0:
320,192,162967,1,0,0:0:0:0:
64,192,163064,1,0,0:0:0:0:
192,192,163161,128,0,163258:0:0:0:0:
320,192,163161,1,0,0:0:0:0:
448,192,163161,1,0,0:0:0:0:
320,192,163354,128,0,163451:0:0:0:0:
64,192,163354,1,0,0:0:0:0:
448,192,163354,1,0,0:0:0:0:
192,192,163451,1,0,0:0:0:0:
448,192,163548,128,0,163645:0:0:0:0:
64,192,163548,1,0,0:0:0:0:
320,192,163548,1,0,0:0:0:0:
192,192,163645,1,0,0:0:0:0:
320,192,163741,1,0,0:0:0:0:
448,192,163741,1,0,0:0:0:0:
64,192,163838,128,0,163935:0:0:0:0:
192,192,163838,1,0,0:0:0:0:
320,192,163935,1,0,0:0:0:0:
448,192,164032,128,0,164080:0:0:0:0:
192,192,164032,1,0,0:0:0:0:
448,192,164129,128,0,164177:0:0:0:0:
64,192,164129,1,0,0:0:0:0:
320,192,164129,1,0,0:0:0:0:
448,192,164225,128,0,164322:0:0:0:0:
320,192,164322,128,0,164419:0:0:0:0:
192,192,164322,1,0,0:0:0:0:
64,192,164322,1,0,0:0:0:0:
448,192,164419,1,0,0:0:0:0:
192,192,164516,1,0,0:0:0:0:
64,192,164516,1,0,0:0:0:0:
320,192,164612,128,0,164709:0:0:0:0:
448,192,164612,1,0,0:0:0:0:
64,192,164709,1,0,0:0:0:0:
192,192,164806,128,0,164903:0:0:0:0:
448,192,164903,1,0,0:0:0:0:
320,192,164903,1,0,0:0:0:0:
64,192,164999,128,0,165096:0:0:0:0:
320,192,164999,1,0,0:0:0:0:
448,192,164999,1,0,0:0:0:0:
320,192,165193,1,0,0:0:0:0:
192,192,165193,1,0,0:0:0:0:
448,192,165290,1,0,0:0:0:0:
320,192,165290,1,0,0:0:0:0:
192,192,165290,1,0,0:0:0:0:
320,192,165387,1,0,0:0:0:0:
448,192,165387,1,0,0:0:0:0:
192,192,165483,1,0,0:0:0:0:
64,192,165483,1,0,0:0:0:0:
64,192,165580,1,0,0:0:0:0:
192,192,165580,1,0,0:0:0:0:
192,192,165677,1,0,0:0:0:0:
320,192,165677,1,0,0:0:0:0:
192,192,165774,1,0,0:0:0:0:
320,192,165774,1,0,0:0:0:0:
320,192,165870,1,0,0:0:0:0:
448,192,165870,1,0,0:0:0:0:
320,192,165967,1,0,0:0:0:0:
448,192,165967,1,0,0:0:0:0:
64,192,166063,1,0,0:0:0:0:
192,192,166063,1,0,0:0:0:0:
64,192,166160,1,0,0:0:0:0:
192,192,166160,1,0,0:0:0:0:
192,192,166258,1,0,0:0:0:0:
320,192,166258,1,0,0:0:0:0:
320,192,166354,1,0,0:0:0:0:
192,192,166354,1,0,0:0:0:0:
448,192,166451,1,0,0:0:0:0:
64,192,166451,1,0,0:0:0:0:
448,192,166548,1,0,0:0:0:0:
64,192,166548,1,0,0:0:0:0:
192,192,166644,1,0,0:0:0:0:
448,192,166645,1,0,0:0:0:0:
448,192,166741,1,0,0:0:0:0:
192,192,166741,1,0,0:0:0:0:
320,192,166838,1,0,0:0:0:0:
64,192,166838,1,0,0:0:0:0:
64,192,166934,1,0,0:0:0:0:
320,192,166934,1,0,0:0:0:0:
448,192,167031,1,0,0:0:0:0:
64,192,167031,1,0,0:0:0:0:
448,192,167128,1,0,0:0:0:0:
64,192,167128,1,0,0:0:0:0:
320,192,167225,1,0,0:0:0:0:
192,192,167225,1,0,0:0:0:0:
192,192,167322,1,0,0:0:0:0:
320,192,167322,1,0,0:0:0:0:
192,192,167418,1,0,0:0:0:0:
448,192,167418,1,0,0:0:0:0:
192,192,167515,1,0,0:0:0:0:
448,192,167515,1,0,0:0:0:0:
320,192,167612,1,0,0:0:0:0:
64,192,167612,1,0,0:0:0:0:
320,192,167709,1,0,0:0:0:0:
64,192,167709,1,0,0:0:0:0:
320,192,167805,1,0,0:0:0:0:
192,192,167806,1,0,0:0:0:0:
320,192,167902,1,0,0:0:0:0:
192,192,167903,1,0,0:0:0:0:
64,192,167999,1,0,0:0:0:0:
448,192,167999,1,0,0:0:0:0:
64,192,168096,1,0,0:0:0:0:
448,192,168096,1,0,0:0:0:0:
192,192,168192,1,0,0:0:0:0:
320,192,168193,1,0,0:0:0:0:
192,192,168289,1,0,0:0:0:0:
320,192,168290,1,0,0:0:0:0:
448,192,168386,1,0,0:0:0:0:
64,192,168387,1,0,0:0:0:0:
64,192,168483,1,0,0:0:0:0:
448,192,168483,1,0,0:0:0:0:
192,192,168580,1,0,0:0:0:0:
320,192,168580,1,0,0:0:0:0:
320,192,168676,1,0,0:0:0:0:
192,192,168677,1,0,0:0:0:0:
64,192,169161,128,0,169258:0:0:0:0:
192,192,169161,128,0,169354:0:0:0:0:
448,192,169258,128,0,169354:0:0:0:0:
320,192,169451,128,0,169548:0:0:0:0:
64,192,169451,128,0,169548:0:0:0:0:
448,192,169935,128,0,170032:0:0:0:0:
320,192,169935,128,0,170129:0:0:0:0:
64,192,170032,128,0,170129:0:0:0:0:
192,192,170225,128,0,170322:0:0:0:0:
320,192,170225,128,0,170322:0:0:0:0:
448,192,170709,128,0,170903:0:0:0:0:
192,192,170709,128,0,170806:0:0:0:0:
64,192,170806,128,0,170903:0:0:0:0:
192,192,170999,128,0,171096:0:0:0:0:
448,192,170999,128,0,171096:0:0:0:0:
64,192,171483,128,0,171677:0:0:0:0:
192,192,171483,128,0,171580:0:0:0:0:
320,192,171580,128,0,171677:0:0:0:0:
448,192,171774,128,0,171870:0:0:0:0:
320,192,171774,128,0,171870:0:0:0:0:
192,192,172258,128,0,172451:0:0:0:0:
320,192,172258,128,0,172354:0:0:0:0:
64,192,172354,128,0,172451:0:0:0:0:
192,192,172548,128,0,172645:0:0:0:0:
448,192,172548,128,0,172645:0:0:0:0:
320,192,172645,128,0,172669:0:0:0:0:
64,192,172645,128,0,172669:0:0:0:0:
64,192,173129,128,0,173225:0:0:0:0:
320,192,173129,128,0,173225:0:0:0:0:
192,192,173322,128,0,173419:0:0:0:0:
448,192,173322,128,0,173419:0:0:0:0:
320,192,173419,128,0,173443:0:0:0:0:
64,192,173419,128,0,173443:0:0:0:0:
320,192,173903,128,0,173999:0:0:0:0:
448,192,173903,128,0,173999:0:0:0:0:
192,192,174096,128,0,174193:0:0:0:0:
64,192,174096,128,0,174193:0:0:0:0:
448,192,174193,128,0,174217:0:0:0:0:
320,192,174193,128,0,174217:0:0:0:0:
192,192,174677,128,0,174774:0:0:0:0:
320,192,174677,128,0,174774:0:0:0:0:
64,192,174870,128,0,174967:0:0:0:0:
448,192,174870,128,0,174967:0:0:0:0:
192,192,174967,1,0,0:0:0:0:
192,192,175064,1,0,0:0:0:0:
320,192,175160,1,0,0:0:0:0:
320,192,175257,1,0,0:0:0:0:
64,192,175354,1,0,0:0:0:0:
64,192,175451,1,0,0:0:0:0:
448,192,175547,1,0,0:0:0:0:
448,192,175644,1,0,0:0:0:0:
64,192,175741,1,0,0:0:0:0:
64,192,175838,1,0,0:0:0:0:
320,192,175935,1,0,0:0:0:0:
320,192,176031,1,0,0:0:0:0:
192,192,176128,1,0,0:0:0:0:
192,192,176225,1,0,0:0:0:0:
448,192,176322,1,0,0:0:0:0:
448,192,176419,1,0,0:0:0:0:
64,192,176515,1,0,0:0:0:0:
192,192,176515,1,0,0:0:0:0:
64,192,176612,1,0,0:0:0:0:
192,192,176612,1,0,0:0:0:0:
320,192,176709,1,0,0:0:0:0:
448,192,176709,1,0,0:0:0:0:
320,192,176806,1,0,0:0:0:0:
448,192,176806,1,0,0:0:0:0:
192,192,176902,1,0,0:0:0:0:
64,192,176902,1,0,0:0:0:0:
192,192,176999,1,0,0:0:0:0:
64,192,176999,1,0,0:0:0:0:
448,192,177096,1,0,0:0:0:0:
320,192,177096,1,0,0:0:0:0:
320,192,177193,1,0,0:0:0:0:
448,192,177193,1,0,0:0:0:0:
192,192,177289,1,0,0:0:0:0:
64,192,177290,1,0,0:0:0:0:
192,192,177386,1,0,0:0:0:0:
64,192,177387,1,0,0:0:0:0:
320,192,177483,1,0,0:0:0:0:
448,192,177483,1,0,0:0:0:0:
320,192,177580,1,0,0:0:0:0:
448,192,177580,1,0,0:0:0:0:
192,192,177677,1,0,0:0:0:0:
64,192,177677,1,0,0:0:0:0:
192,192,177773,1,0,0:0:0:0:
64,192,177773,1,0,0:0:0:0:
192,192,177870,1,0,0:0:0:0:
320,192,177870,1,0,0:0:0:0:
448,192,177967,1,0,0:0:0:0:
320,192,177967,1,0,0:0:0:0:
320,192,178064,1,0,0:0:0:0:
64,192,178064,1,0,0:0:0:0:
192,192,178064,1,0,0:0:0:0:
448,192,178064,1,0,0:0:0:0:
320,192,178258,1,0,0:0:0:0:
192,192,178258,1,0,0:0:0:0:
64,192,178838,1,0,0:0:0:0:
448,192,178838,1,0,0:0:0:0:
320,192,178838,1,0,0:0:0:0:
192,192,178838,1,0,0:0:0:0:
64,192,179032,1,0,0:0:0:0:
448,192,179032,1,0,0:0:0:0:
64,192,179612,1,0,0:0:0:0:
320,192,179612,1,0,0:0:0:0:
192,192,179612,1,0,0:0:0:0:
448,192,179612,1,0,0:0:0:0:
448,192,179805,1,0,0:0:0:0:
320,192,179805,1,0,0:0:0:0:
320,192,179902,1,0,0:0:0:0:
448,192,179902,1,0,0:0:0:0:
448,192,179999,1,0,0:0:0:0:
320,192,179999,1,0,0:0:0:0:
64,192,179999,1,0,0:0:0:0:
192,192,179999,1,0,0:0:0:0:
192,192,180192,1,0,0:0:0:0:
64,192,180193,1,0,0:0:0:0:
192,192,180289,1,0,0:0:0:0:
64,192,180290,1,0,0:0:0:0:
448,192,180387,1,0,0:0:0:0:
192,192,180387,1,0,0:0:0:0:
320,192,180387,1,0,0:0:0:0:
64,192,180387,1,0,0:0:0:0:
448,192,180483,1,0,0:0:0:0:
320,192,180483,1,0,0:0:0:0:
64,192,180580,1,0,0:0:0:0:
192,192,180580,1,0,0:0:0:0:
64,192,180677,1,0,0:0:0:0:
192,192,180677,1,0,0:0:0:0:
448,192,180774,1,0,0:0:0:0:
320,192,180774,1,0,0:0:0:0:
448,192,180870,1,0,0:0:0:0:
320,192,180870,1,0,0:0:0:0:
320,192,180966,1,0,0:0:0:0:
192,192,180967,1,0,0:0:0:0:
64,192,181063,1,0,0:0:0:0:
192,192,181064,1,0,0:0:0:0:
64,192,181161,128,0,181258:0:0:0:0:
448,192,181161,128,0,181258:0:0:0:0:
320,192,181161,1,0,0:0:0:0:
192,192,181161,1,0,0:0:0:0:
448,192,181354,128,0,181548:0:0:0:0:
64,192,181354,128,0,181548:0:0:0:0:
320,192,181354,1,0,0:0:0:0:
192,192,181451,1,0,0:0:0:0:
192,192,181548,128,0,181645:0:0:0:0:
320,192,181548,1,0,0:0:0:0:
448,192,181645,128,0,181741:0:0:0:0:
320,192,181741,128,0,181838:0:0:0:0:
64,192,181838,128,0,181935:0:0:0:0:
448,192,181935,128,0,182032:0:0:0:0:
192,192,181935,128,0,182032:0:0:0:0:
320,192,181935,1,0,0:0:0:0:
192,192,182129,128,0,182322:0:0:0:0:
448,192,182129,128,0,182322:0:0:0:0:
64,192,182129,1,0,0:0:0:0:
320,192,182225,1,0,0:0:0:0:
320,192,182322,128,0,182419:0:0:0:0:
64,192,182322,1,0,0:0:0:0:
64,192,182419,128,0,182516:0:0:0:0:
448,192,182516,128,0,182612:0:0:0:0:
192,192,182612,128,0,182709:0:0:0:0:
320,192,182709,128,0,182806:0:0:0:0:
64,192,182709,128,0,182806:0:0:0:0:
448,192,182709,1,0,0:0:0:0:
320,192,182903,128,0,183096:0:0:0:0:
64,192,182903,128,0,183096:0:0:0:0:
448,192,182903,1,0,0:0:0:0:
192,192,182999,1,0,0:0:0:0:
192,192,183096,128,0,183193:0:0:0:0:
448,192,183096,1,0,0:0:0:0:
320,192,183193,128,0,183290:0:0:0:0:
448,192,183290,128,0,183387:0:0:0:0:
64,192,183387,128,0,183483:0:0:0:0:
320,192,183483,1,0,0:0:0:0:
192,192,183483,128,0,183580:0:0:0:0:
448,192,183483,1,0,0:0:0:0:
448,192,183579,1,0,0:0:0:0:
320,192,183677,1,0,0:0:0:0:
192,192,183677,128,0,183870:0:0:0:0:
64,192,183677,1,0,0:0:0:0:
320,192,183774,1,0,0:0:0:0:
448,192,183774,1,0,0:0:0:0:
320,192,183870,1,0,0:0:0:0:
448,192,183870,128,0,183967:0:0:0:0:
64,192,183870,1,0,0:0:0:0:
192,192,183967,128,0,184064:0:0:0:0:
320,192,184064,128,0,184161:0:0:0:0:
64,192,184161,128,0,184258:0:0:0:0:
448,192,184258,128,0,184354:0:0:0:0:
320,192,184258,128,0,184354:0:0:0:0:
192,192,184258,1,0,0:0:0:0:
448,192,184451,128,0,184645:0:0:0:0:
320,192,184451,128,0,184645:0:0:0:0:
192,192,184451,1,0,0:0:0:0:
64,192,184548,1,0,0:0:0:0:
64,192,184645,128,0,184741:0:0:0:0:
192,192,184645,1,0,0:0:0:0:
320,192,184741,128,0,184838:0:0:0:0:
192,192,184838,128,0,184935:0:0:0:0:
448,192,184935,128,0,185032:0:0:0:0:
192,192,185032,128,0,185129:0:0:0:0:
64,192,185032,128,0,185129:0:0:0:0:
320,192,185032,1,0,0:0:0:0:
192,192,185225,128,0,185419:0:0:0:0:
64,192,185225,128,0,185419:0:0:0:0:
448,192,185225,1,0,0:0:0:0:
320,192,185322,1,0,0:0:0:0:
320,192,185419,128,0,185516:0:0:0:0:
448,192,185419,1,0,0:0:0:0:
64,192,185516,128,0,185612:0:0:0:0:
448,192,185612,128,0,185709:0:0:0:0:
192,192,185709,128,0,185806:0:0:0:0:
448,192,185806,128,0,185903:0:0:0:0:
64,192,185806,128,0,185903:0:0:0:0:
320,192,185806,1,0,0:0:0:0:
448,192,185999,128,0,186193:0:0:0:0:
64,192,185999,128,0,186193:0:0:0:0:
192,192,185999,1,0,0:0:0:0:
320,192,186096,1,0,0:0:0:0:
320,192,186193,128,0,186290:0:0:0:0:
192,192,186193,1,0,0:0:0:0:
448,192,186290,128,0,186387:0:0:0:0:
192,192,186387,128,0,186483:0:0:0:0:
64,192,186483,128,0,186580:0:0:0:0:
320,192,186580,128,0,186677:0:0:0:0:
192,192,186580,128,0,186677:0:0:0:0:
448,192,186580,1,0,0:0:0:0:
448,192,186677,1,0,0:0:0:0:
64,192,186677,1,0,0:0:0:0:
192,192,186774,128,0,186967:0:0:0:0:
320,192,186774,128,0,186967:0:0:0:0:
64,192,186774,1,0,0:0:0:0:
448,192,186870,1,0,0:0:0:0:
64,192,186967,1,0,0:0:0:0:
448,192,186967,1,0,0:0:0:0:
320,192,187016,1,0,0:0:0:0:
192,192,187016,1,0,0:0:0:0:
64,192,187064,1,0,0:0:0:0:
448,192,187064,1,0,0:0:0:0:
192,192,187161,1,0,0:0:0:0:
320,192,187161,1,0,0:0:0:0:
192,192,187258,1,0,0:0:0:0:
320,192,187258,1,0,0:0:0:0:
448,192,187354,1,0,0:0:0:0:
320,192,187354,128,0,187451:0:0:0:0:
64,192,187354,128,0,187451:0:0:0:0:
192,192,187354,1,0,0:0:0:0:
320,192,187548,128,0,187741:0:0:0:0:
64,192,187548,128,0,187741:0:0:0:0:
448,192,187548,1,0,0:0:0:0:
192,192,187645,1,0,0:0:0:0:
192,192,187741,128,0,187838:0:0:0:0:
448,192,187741,1,0,0:0:0:0:
320,192,187838,128,0,187935:0:0:0:0:
448,192,187935,128,0,188032:0:0:0:0:
64,192,188032,128,0,188129:0:0:0:0:
192,192,188129,128,0,188225:0:0:0:0:
320,192,188129,1,0,0:0:0:0:
448,192,188129,128,0,188225:0:0:0:0:
448,192,188322,128,0,188516:0:0:0:0:
192,192,188322,128,0,188516:0:0:0:0:
64,192,188322,1,0,0:0:0:0:
320,192,188419,1,0,0:0:0:0:
320,192,188516,128,0,188612:0:0:0:0:
64,192,188516,1,0,0:0:0:0:
448,192,188612,128,0,188709:0:0:0:0:
64,192,188709,128,0,188806:0:0:0:0:
192,192,188806,128,0,188903:0:0:0:0:
320,192,188903,1,0,0:0:0:0:
448,192,188903,128,0,188999:0:0:0:0:
64,192,188903,128,0,188999:0:0:0:0:
64,192,189096,128,0,189290:0:0:0:0:
448,192,189096,128,0,189290:0:0:0:0:
320,192,189096,1,0,0:0:0:0:
192,192,189193,1,0,0:0:0:0:
320,192,189290,1,0,0:0:0:0:
192,192,189290,128,0,189387:0:0:0:0:
64,192,189387,128,0,189483:0:0:0:0:
320,192,189483,128,0,189580:0:0:0:0:
448,192,189580,128,0,189677:0:0:0:0:
320,192,189677,128,0,189774:0:0:0:0:
64,192,189677,1,0,0:0:0:0:
192,192,189677,1,0,0:0:0:0:
64,192,189772,1,0,0:0:0:0:
192,192,189869,1,0,0:0:0:0:
320,192,189870,128,0,190064:0:0:0:0:
448,192,189870,1,0,0:0:0:0:
64,192,189967,1,0,0:0:0:0:
192,192,189967,1,0,0:0:0:0:
192,192,190064,1,0,0:0:0:0:
64,192,190064,128,0,190161:0:0:0:0:
448,192,190064,1,0,0:0:0:0:
320,192,190161,128,0,190258:0:0:0:0:
448,192,190258,128,0,190354:0:0:0:0:
192,192,190354,128,0,190451:0:0:0:0:
64,192,190451,1,0,0:0:0:0:
320,192,190451,1,0,0:0:0:0:
448,192,190451,1,0,0:0:0:0:
192,192,190548,1,0,0:0:0:0:
448,192,190645,1,0,0:0:0:0:
320,192,190645,1,0,0:0:0:0:
320,192,190741,1,0,0:0:0:0:
448,192,190741,1,0,0:0:0:0:
448,192,190838,1,0,0:0:0:0:
192,192,190838,1,0,0:0:0:0:
64,192,190838,1,0,0:0:0:0:
320,192,190935,1,0,0:0:0:0:
192,192,191032,1,0,0:0:0:0:
320,192,191129,1,0,0:0:0:0:
448,192,191225,1,0,0:0:0:0:
64,192,191225,1,0,0:0:0:0:
192,192,191225,1,0,0:0:0:0:
320,192,191322,1,0,0:0:0:0:
192,192,191419,1,0,0:0:0:0:
64,192,191419,1,0,0:0:0:0:
192,192,191516,1,0,0:0:0:0:
64,192,191516,1,0,0:0:0:0:
320,192,191612,1,0,0:0:0:0:
448,192,191612,1,0,0:0:0:0:
64,192,191612,1,0,0:0:0:0:
192,192,191709,1,0,0:0:0:0:
320,192,191806,1,0,0:0:0:0:
64,192,191903,1,0,0:0:0:0:
192,192,191999,1,0,0:0:0:0:
320,192,191999,1,0,0:0:0:0:
448,192,191999,1,0,0:0:0:0:
64,192,192096,1,0,0:0:0:0:
192,192,192193,1,0,0:0:0:0:
320,192,192193,1,0,0:0:0:0:
192,192,192290,1,0,0:0:0:0:
320,192,192290,1,0,0:0:0:0:
64,192,192387,1,0,0:0:0:0:
448,192,192387,1,0,0:0:0:0:
320,192,192387,1,0,0:0:0:0:
192,192,192483,1,0,0:0:0:0:
448,192,192580,1,0,0:0:0:0:
320,192,192677,1,0,0:0:0:0:
448,192,192774,1,0,0:0:0:0:
64,192,192774,1,0,0:0:0:0:
64,192,192870,1,0,0:0:0:0:
448,192,192870,1,0,0:0:0:0:
192,192,192967,1,0,0:0:0:0:
320,192,192967,1,0,0:0:0:0:
448,192,193064,1,0,0:0:0:0:
64,192,193064,1,0,0:0:0:0:
320,192,193161,1,0,0:0:0:0:
192,192,193161,1,0,0:0:0:0:
448,192,193209,1,0,0:0:0:0:
64,192,193209,1,0,0:0:0:0:
192,192,193258,1,0,0:0:0:0:
320,192,193258,1,0,0:0:0:0:
448,192,193354,1,0,0:0:0:0:
64,192,193354,1,0,0:0:0:0:
320,192,193451,1,0,0:0:0:0:
192,192,193451,1,0,0:0:0:0:
64,192,193548,1,0,0:0:0:0:
448,192,193548,1,0,0:0:0:0:
