osu file format v14

[General]
AudioFilename: virtual
AudioLeadIn: 0
PreviewTime: 0
Countdown: 0
SampleSet: Soft
StackLeniency: 0.4
Mode: 3
LetterboxInBreaks: 0
SpecialStyle: 1
WidescreenStoryboard: 1

[Editor]
DistanceSpacing: 0.5
BeatDivisor: 4
GridSize: 8
TimelineZoom: 1

[Metadata]
Title:DRAGONLADY
TitleUnicode:DRAGONLADY
Artist:Nankumo
ArtistUnicode:Nankumo
Creator:8369048
Version:6K Normal
Source:BMS
Tags:BOF,Nankumo,BMS
BeatmapID:1762360
BeatmapSetID:842201

[Difficulty]
HPDrainRate:7
CircleSize:6
OverallDifficulty:7
ApproachRate:5
SliderMultiplier:1.4
SliderTickRate:1

[Events]
//Background and Video events
0,0,"cube_stagefile_00.png",0,0
//Break Periods
//Storyboard Layer 0 (Background)
//Storyboard Layer 1 (Fail)
//Storyboard Layer 2 (Pass)
//Storyboard Layer 3 (Foreground)
//Storyboard Sound Samples
Sample,1600,0,"bass01.wav",70
Sample,1600,0,"fill01_000.wav",70
Sample,1600,0,"bb01.wav",70
Sample,1700,0,"bb02.wav",70
Sample,1800,0,"bass02.wav",70
Sample,1800,0,"bb03.wav",70
Sample,1900,0,"bb04.wav",70
Sample,2000,0,"bass03.wav",70
Sample,2000,0,"bb05.wav",70
Sample,2100,0,"bass04.wav",70
Sample,2100,0,"bb06.wav",70
Sample,2200,0,"bass05.wav",70
Sample,2200,0,"bb07.wav",70
Sample,2300,0,"bass06.wav",70
Sample,2300,0,"bb08.wav",70
Sample,2400,0,"bass01.wav",70
Sample,2400,0,"bb01.wav",70
Sample,2500,0,"bb02.wav",70
Sample,2600,0,"bass02.wav",70
Sample,2600,0,"bb03.wav",70
Sample,2700,0,"bb04.wav",70
Sample,2800,0,"bb05.wav",70
Sample,2800,0,"bass03.wav",70
Sample,2900,0,"bb06.wav",70
Sample,2900,0,"bass04.wav",70
Sample,3000,0,"bass05.wav",70
Sample,3000,0,"bb07.wav",70
Sample,3100,0,"bb08left.wav",70
Sample,3100,0,"bass06.wav",70
Sample,3200,0,"bass01.wav",70
Sample,3200,0,"bb01.wav",70
Sample,3300,0,"bb02.wav",70
Sample,3400,0,"bass02.wav",70
Sample,3400,0,"bb03.wav",70
Sample,3500,0,"bb04.wav",70
Sample,3600,0,"bass03.wav",70
Sample,3600,0,"bb05.wav",70
Sample,3700,0,"bb06.wav",70
Sample,3700,0,"bass04.wav",70
Sample,3800,0,"bass05.wav",70
Sample,3800,0,"bb07.wav",70
Sample,3900,0,"bb08.wav",70
Sample,3900,0,"bass06.wav",70
Sample,4000,0,"bass01.wav",70
Sample,4000,0,"bb01.wav",70
Sample,4100,0,"bb05.wav",70
Sample,4200,0,"bass02.wav",70
Sample,4200,0,"bb03.wav",70
Sample,4300,0,"bb04.wav",70
Sample,4400,0,"bass03.wav",70
Sample,4400,0,"bb05.wav",70
Sample,4500,0,"bb06.wav",70
Sample,4500,0,"bass04.wav",70
Sample,4600,0,"bass05.wav",70
Sample,4600,0,"bb07.wav",70
Sample,4700,0,"bb08left.wav",70
Sample,4700,0,"bass06.wav",70
Sample,4800,0,"bass01.wav",70
Sample,4800,0,"bb01.wav",70
Sample,4800,0,"fill01_001.wav",70
Sample,4900,0,"bb02.wav",70
Sample,5000,0,"bass02.wav",70
Sample,5000,0,"bb03.wav",70
Sample,5100,0,"bb04.wav",70
Sample,5200,0,"bb05.wav",70
Sample,5200,0,"bass03.wav",70
Sample,5300,0,"bass04.wav",70
Sample,5300,0,"bb06.wav",70
Sample,5400,0,"bass05.wav",70
Sample,5400,0,"bb07.wav",70
Sample,5500,0,"bass06.wav",70
Sample,5500,0,"bb08.wav",70
Sample,5600,0,"bass01.wav",70
Sample,5600,0,"bb01.wav",70
Sample,5700,0,"bb02.wav",70
Sample,5800,0,"bass02.wav",70
Sample,5800,0,"bb03.wav",70
Sample,5900,0,"bb04.wav",70
Sample,6000,0,"bass03.wav",70
Sample,6000,0,"bb05.wav",70
Sample,6100,0,"bass04.wav",70
Sample,6100,0,"bb06.wav",70
Sample,6200,0,"bb07.wav",70
Sample,6200,0,"bass05.wav",70
Sample,6300,0,"bass06.wav",70
Sample,6300,0,"bb08left.wav",70
Sample,6400,0,"bb01.wav",70
Sample,6400,0,"bass01.wav",70
Sample,6500,0,"bb02.wav",70
Sample,6600,0,"bb03.wav",70
Sample,6600,0,"bass02.wav",70
Sample,6700,0,"bb04.wav",70
Sample,6800,0,"bb05.wav",70
Sample,6800,0,"bass03.wav",70
Sample,6900,0,"bass04.wav",70
Sample,6900,0,"bb06.wav",70
Sample,7000,0,"bb07.wav",70
Sample,7000,0,"bass05.wav",70
Sample,7100,0,"bass06.wav",70
Sample,7100,0,"bb08.wav",70
Sample,7200,0,"bass01.wav",70
Sample,7200,0,"k.wav",70
Sample,7200,0,"bb01.wav",70
Sample,7300,0,"bb05.wav",70
Sample,7300,0,"dd.wav",70
Sample,7400,0,"ddd.wav",70
Sample,7400,0,"bb03.wav",70
Sample,7400,0,"bass02.wav",70
Sample,7500,0,"bb04.wav",70
Sample,7500,0,"dddd.wav",70
Sample,7600,0,"ddddd.wav",70
Sample,7600,0,"bass03.wav",70
Sample,7700,0,"bass04.wav",70
Sample,7700,0,"dddddd.wav",70
Sample,7800,0,"ddddddd.wav",70
Sample,7800,0,"bass05.wav",70
Sample,7900,0,"bass06.wav",70
Sample,7900,0,"dddddddd.wav",70
Sample,8000,0,"fill01_002.wav",70
Sample,8000,0,"bass01.wav",70
Sample,8000,0,"kick01.wav",70
Sample,8000,0,"se03.wav",70
Sample,8000,0,"close01.wav",70
Sample,8000,0,"kick02.wav",70
Sample,8000,0,"bb01.wav",70
Sample,8100,0,"bb02.wav",70
Sample,8200,0,"hihat03.wav",70
Sample,8200,0,"hihat01.wav",70
Sample,8200,0,"hihat02.wav",70
Sample,8200,0,"bass02.wav",70
Sample,8200,0,"bb03.wav",70
Sample,8300,0,"bb04.wav",70
Sample,8400,0,"kick01.wav",70
Sample,8400,0,"bass03.wav",70
Sample,8400,0,"close01.wav",70
Sample,8400,0,"bb05.wav",70
Sample,8400,0,"kick02.wav",70
Sample,8500,0,"bb06.wav",70
Sample,8500,0,"bass04.wav",70
Sample,8600,0,"hihat02.wav",70
Sample,8600,0,"hihat03.wav",70
Sample,8600,0,"bass05.wav",70
Sample,8600,0,"hihat01.wav",70
Sample,8600,0,"bb07.wav",70
Sample,8700,0,"bass06.wav",70
Sample,8700,0,"bb08.wav",70
Sample,8800,0,"close01.wav",70
Sample,8800,0,"kick01.wav",70
Sample,8800,0,"bass01.wav",70
Sample,8800,0,"kick02.wav",70
Sample,8800,0,"bb01.wav",70
Sample,8900,0,"bb02.wav",70
Sample,9000,0,"hihat01.wav",70
Sample,9000,0,"hihat03.wav",70
Sample,9000,0,"bb03.wav",70
Sample,9000,0,"bass02.wav",70
Sample,9000,0,"hihat02.wav",70
Sample,9100,0,"bb04.wav",70
Sample,9200,0,"close01.wav",70
Sample,9200,0,"kick01.wav",70
Sample,9200,0,"bb05.wav",70
Sample,9200,0,"bass03.wav",70
Sample,9200,0,"kick02.wav",70
Sample,9300,0,"bass04.wav",70
Sample,9300,0,"bb06.wav",70
Sample,9400,0,"bb07.wav",70
Sample,9400,0,"bass05.wav",70
Sample,9400,0,"hihat02.wav",70
Sample,9400,0,"hihat01.wav",70
Sample,9400,0,"hihat03.wav",70
Sample,9500,0,"bass06.wav",70
Sample,9500,0,"bb08left.wav",70
Sample,9600,0,"kick01.wav",70
Sample,9600,0,"bb01.wav",70
Sample,9600,0,"close01.wav",70
Sample,9600,0,"kick02.wav",70
Sample,9600,0,"bass01.wav",70
Sample,9700,0,"bb02.wav",70
Sample,9800,0,"hihat02.wav",70
Sample,9800,0,"bb03.wav",70
Sample,9800,0,"hihat01.wav",70
Sample,9800,0,"hihat03.wav",70
Sample,9800,0,"bass02.wav",70
Sample,9900,0,"bb04.wav",70
Sample,10000,0,"close01.wav",70
Sample,10000,0,"bass03.wav",70
Sample,10000,0,"kick01.wav",70
Sample,10000,0,"kick02.wav",70
Sample,10000,0,"bb05.wav",70
Sample,10100,0,"bass04.wav",70
Sample,10100,0,"bb06.wav",70
Sample,10200,0,"hihat01.wav",70
Sample,10200,0,"hihat02.wav",70
Sample,10200,0,"bass05.wav",70
Sample,10200,0,"bb07.wav",70
Sample,10200,0,"hihat03.wav",70
Sample,10300,0,"bb08.wav",70
Sample,10300,0,"bass06.wav",70
Sample,10400,0,"close01.wav",70
Sample,10400,0,"bb01.wav",70
Sample,10400,0,"kick02.wav",70
Sample,10400,0,"kick01.wav",70
Sample,10400,0,"bass01.wav",70
Sample,10500,0,"bb05.wav",70
Sample,10600,0,"hihat01.wav",70
Sample,10600,0,"hihat02.wav",70
Sample,10600,0,"bb03.wav",70
Sample,10600,0,"hihat03.wav",70
Sample,10600,0,"bass02.wav",70
Sample,10700,0,"bb04.wav",70
Sample,10800,0,"bass03.wav",70
Sample,10800,0,"kick01.wav",70
Sample,10800,0,"bb05.wav",70
Sample,10800,0,"close01.wav",70
Sample,10800,0,"kick02.wav",70
Sample,10900,0,"bb06.wav",70
Sample,10900,0,"bass04.wav",70
Sample,11000,0,"bb07.wav",70
Sample,11000,0,"hihat02.wav",70
Sample,11000,0,"bass05.wav",70
Sample,11000,0,"hihat01.wav",70
Sample,11000,0,"hihat03.wav",70
Sample,11100,0,"bass06.wav",70
Sample,11100,0,"bb08left.wav",70
Sample,11200,0,"kick01.wav",70
Sample,11200,0,"bb01.wav",70
Sample,11200,0,"fill01_003.wav",70
Sample,11200,0,"kick02.wav",70
Sample,11200,0,"bass01.wav",70
Sample,11200,0,"close01.wav",70
Sample,11300,0,"bb02.wav",70
Sample,11400,0,"hihat03.wav",70
Sample,11400,0,"bb03.wav",70
Sample,11400,0,"bass02.wav",70
Sample,11400,0,"hihat02.wav",70
Sample,11400,0,"hihat01.wav",70
Sample,11500,0,"bb04.wav",70
Sample,11600,0,"kick02.wav",70
Sample,11600,0,"bass03.wav",70
Sample,11600,0,"bb05.wav",70
Sample,11600,0,"close01.wav",70
Sample,11600,0,"kick01.wav",70
Sample,11700,0,"bass04.wav",70
Sample,11700,0,"bb06.wav",70
Sample,11800,0,"hihat01.wav",70
Sample,11800,0,"bb07.wav",70
Sample,11800,0,"hihat02.wav",70
Sample,11800,0,"bass05.wav",70
Sample,11800,0,"hihat03.wav",70
Sample,11900,0,"bb08.wav",70
Sample,11900,0,"bass06.wav",70
Sample,12000,0,"kick02.wav",70
Sample,12000,0,"bass01.wav",70
Sample,12000,0,"bb01.wav",70
Sample,12000,0,"kick01.wav",70
Sample,12000,0,"close01.wav",70
Sample,12100,0,"bb02.wav",70
Sample,12200,0,"hihat03.wav",70
Sample,12200,0,"bass02.wav",70
Sample,12200,0,"hihat01.wav",70
Sample,12200,0,"bb03.wav",70
Sample,12200,0,"hihat02.wav",70
Sample,12300,0,"bb04.wav",70
Sample,12400,0,"kick01.wav",70
Sample,12400,0,"bass03.wav",70
Sample,12400,0,"close01.wav",70
Sample,12400,0,"bb05.wav",70
Sample,12400,0,"kick02.wav",70
Sample,12500,0,"bass04.wav",70
Sample,12500,0,"bb06.wav",70
Sample,12600,0,"bass05.wav",70
Sample,12600,0,"bb07.wav",70
Sample,12600,0,"hihat01.wav",70
Sample,12600,0,"hihat03.wav",70
Sample,12600,0,"hihat02.wav",70
Sample,12700,0,"bb08left.wav",70
Sample,12700,0,"bass06.wav",70
Sample,12800,0,"kick01.wav",70
Sample,12800,0,"bb01.wav",70
Sample,12800,0,"bass01.wav",70
Sample,12800,0,"close01.wav",70
Sample,12800,0,"kick02.wav",70
Sample,12900,0,"bb02.wav",70
Sample,13000,0,"hihat03.wav",70
Sample,13000,0,"bb03.wav",70
Sample,13000,0,"hihat01.wav",70
Sample,13000,0,"hihat02.wav",70
Sample,13000,0,"bass02.wav",70
Sample,13100,0,"bb04.wav",70
Sample,13200,0,"bass03.wav",70
Sample,13200,0,"close01.wav",70
Sample,13200,0,"kick02.wav",70
Sample,13200,0,"bb05.wav",70
Sample,13200,0,"kick01.wav",70
Sample,13300,0,"bb06.wav",70
Sample,13300,0,"bass04.wav",70
Sample,13400,0,"bb07.wav",70
Sample,13400,0,"hihat03.wav",70
Sample,13400,0,"hihat01.wav",70
Sample,13400,0,"bass05.wav",70
Sample,13400,0,"hihat02.wav",70
Sample,13500,0,"bb05.wav",70
Sample,13500,0,"hihat02mini.wav",70
Sample,13500,0,"hihat03_mini.wav",70
Sample,13500,0,"bass01.wav",70
Sample,13500,0,"kick02.wav",70
Sample,13500,0,"hihat01mini.wav",70
Sample,13500,0,"kick01.wav",70
Sample,13800,0,"hihat03_mini.wav",70
Sample,13800,0,"kick01_low01.wav",70
Sample,13800,0,"bb05.wav",70
Sample,13800,0,"bass01.wav",70
Sample,13800,0,"hihat01mini.wav",70
Sample,13800,0,"kick02_low01.wav",70
Sample,13800,0,"hihat02mini.wav",70
Sample,14100,0,"bass01.wav",70
Sample,14100,0,"kick02_low02.wav",70
Sample,14100,0,"hihat03_mini.wav",70
Sample,14100,0,"hihat01mini.wav",70
Sample,14100,0,"kick01_low02.wav",70
Sample,14100,0,"hihat02mini.wav",70
Sample,14100,0,"bb05.wav",70
Sample,14300,0,"bass01.wav",70
Sample,14300,0,"hihat02mini.wav",70
Sample,14300,0,"hihat01mini.wav",70
Sample,14400,0,"syn01.wav",70
Sample,14400,0,"bass01.wav",70
Sample,14400,0,"close01.wav",70
Sample,14400,0,"se01.wav",70
Sample,14400,0,"bb01.wav",70
Sample,14400,0,"kick01.wav",70
Sample,14400,0,"ride01.wav",70
Sample,14400,0,"fs01.wav",70
Sample,14500,0,"bb02.wav",70
Sample,14600,0,"bb03.wav",70
Sample,14600,0,"ride01.wav",70
Sample,14600,0,"bass02.wav",70
Sample,14600,0,"hihat01.wav",70
Sample,14600,0,"fs02.wav",70
Sample,14600,0,"syn02.wav",70
Sample,14700,0,"bb04.wav",70
Sample,14800,0,"fs03.wav",70
Sample,14800,0,"bb05.wav",70
Sample,14800,0,"syn03.wav",70
Sample,14800,0,"kick01.wav",70
Sample,14800,0,"ride01.wav",70
Sample,14800,0,"close01.wav",70
Sample,14800,0,"bass03.wav",70
Sample,14900,0,"fs04.wav",70
Sample,14900,0,"bb06.wav",70
Sample,14900,0,"syn04.wav",70
Sample,14900,0,"bass04.wav",70
Sample,15000,0,"ride01.wav",70
Sample,15000,0,"bass05.wav",70
Sample,15000,0,"syn05.wav",70
Sample,15000,0,"fs05.wav",70
Sample,15000,0,"hihat01.wav",70
Sample,15000,0,"bb07.wav",70
Sample,15100,0,"bass06.wav",70
Sample,15100,0,"fs06.wav",70
Sample,15100,0,"syn06.wav",70
Sample,15100,0,"bb08.wav",70
Sample,15200,0,"bass01.wav",70
Sample,15200,0,"close01.wav",70
Sample,15200,0,"bb01.wav",70
Sample,15200,0,"syn01.wav",70
Sample,15200,0,"kick01.wav",70
Sample,15200,0,"ride01.wav",70
Sample,15200,0,"fs01.wav",70
Sample,15300,0,"bb02.wav",70
Sample,15400,0,"hihat01.wav",70
Sample,15400,0,"syn02.wav",70
Sample,15400,0,"ride01.wav",70
Sample,15400,0,"fs02.wav",70
Sample,15400,0,"bb03.wav",70
Sample,15400,0,"bass02.wav",70
Sample,15500,0,"bb04.wav",70
Sample,15600,0,"syn03.wav",70
Sample,15600,0,"ride01.wav",70
Sample,15600,0,"close01.wav",70
Sample,15600,0,"kick01.wav",70
Sample,15600,0,"bb05.wav",70
Sample,15600,0,"fs03.wav",70
Sample,15600,0,"bass03.wav",70
Sample,15700,0,"syn04.wav",70
Sample,15700,0,"bb06.wav",70
Sample,15700,0,"fs04.wav",70
Sample,15700,0,"bass04.wav",70
Sample,15800,0,"bass05.wav",70
Sample,15800,0,"ride01.wav",70
Sample,15800,0,"hihat01.wav",70
Sample,15800,0,"fs05.wav",70
Sample,15800,0,"bb07.wav",70
Sample,15800,0,"syn05.wav",70
Sample,15900,0,"fs06.wav",70
Sample,15900,0,"bb08left.wav",70
Sample,15900,0,"bass06.wav",70
Sample,15900,0,"syn06.wav",70
Sample,16000,0,"close01.wav",70
Sample,16000,0,"kick01.wav",70
Sample,16000,0,"fs01.wav",70
Sample,16000,0,"syn01.wav",70
Sample,16000,0,"bb01.wav",70
Sample,16000,0,"ride01.wav",70
Sample,16000,0,"bass01.wav",70
Sample,16100,0,"bb02.wav",70
Sample,16200,0,"bass02.wav",70
Sample,16200,0,"ride01.wav",70
Sample,16200,0,"fs02.wav",70
Sample,16200,0,"hihat01.wav",70
Sample,16200,0,"bb03.wav",70
Sample,16200,0,"syn02.wav",70
Sample,16300,0,"bb04.wav",70
Sample,16400,0,"fs03.wav",70
Sample,16400,0,"close01.wav",70
Sample,16400,0,"syn03.wav",70
Sample,16400,0,"ride01.wav",70
Sample,16400,0,"bb05.wav",70
Sample,16400,0,"bass03.wav",70
Sample,16400,0,"kick01.wav",70
Sample,16500,0,"fs04.wav",70
Sample,16500,0,"bass04.wav",70
Sample,16500,0,"syn04.wav",70
Sample,16500,0,"bb06.wav",70
Sample,16600,0,"bb07.wav",70
Sample,16600,0,"ride01.wav",70
Sample,16600,0,"syn05.wav",70
Sample,16600,0,"bass05.wav",70
Sample,16600,0,"hihat01.wav",70
Sample,16600,0,"fs05.wav",70
Sample,16700,0,"bass06.wav",70
Sample,16700,0,"bb08.wav",70
Sample,16700,0,"syn06.wav",70
Sample,16700,0,"fs06.wav",70
Sample,16800,0,"fs01.wav",70
Sample,16800,0,"bb01.wav",70
Sample,16800,0,"bass01.wav",70
Sample,16800,0,"syn01.wav",70
Sample,16800,0,"ride01.wav",70
Sample,16800,0,"kick01.wav",70
Sample,16800,0,"close01.wav",70
Sample,16900,0,"bb05.wav",70
Sample,17000,0,"bass02.wav",70
Sample,17000,0,"bb03.wav",70
Sample,17000,0,"ride01.wav",70
Sample,17000,0,"fs02.wav",70
Sample,17000,0,"hihat01.wav",70
Sample,17000,0,"syn02.wav",70
Sample,17100,0,"bb04.wav",70
Sample,17200,0,"syn03.wav",70
Sample,17200,0,"bb05.wav",70
Sample,17200,0,"fs03.wav",70
Sample,17200,0,"close01.wav",70
Sample,17200,0,"kick01.wav",70
Sample,17200,0,"bass03.wav",70
Sample,17200,0,"ride01.wav",70
Sample,17300,0,"bass04.wav",70
Sample,17300,0,"fs04.wav",70
Sample,17300,0,"syn04.wav",70
Sample,17300,0,"bb06.wav",70
Sample,17400,0,"bass05.wav",70
Sample,17400,0,"syn05.wav",70
Sample,17400,0,"ride01.wav",70
Sample,17400,0,"hihat01.wav",70
Sample,17400,0,"bb07.wav",70
Sample,17400,0,"fs05.wav",70
Sample,17500,0,"bass06.wav",70
Sample,17500,0,"fs06.wav",70
Sample,17500,0,"bb08left.wav",70
Sample,17500,0,"syn06.wav",70
Sample,17600,0,"close01.wav",70
Sample,17600,0,"kick01.wav",70
Sample,17600,0,"fs01.wav",70
Sample,17600,0,"syn01.wav",70
Sample,17600,0,"bb01.wav",70
Sample,17600,0,"ride01.wav",70
Sample,17600,0,"bass01.wav",70
Sample,17700,0,"bb02.wav",70
Sample,17800,0,"bb03.wav",70
Sample,17800,0,"fs02.wav",70
Sample,17800,0,"bass02.wav",70
Sample,17800,0,"hihat01.wav",70
Sample,17800,0,"ride01.wav",70
Sample,17800,0,"syn02.wav",70
Sample,17900,0,"bb04.wav",70
Sample,18000,0,"bass03.wav",70
Sample,18000,0,"close01.wav",70
Sample,18000,0,"syn03.wav",70
Sample,18000,0,"ride01.wav",70
Sample,18000,0,"kick01.wav",70
Sample,18000,0,"bb05.wav",70
Sample,18000,0,"fs03.wav",70
Sample,18100,0,"bass04.wav",70
Sample,18100,0,"syn04.wav",70
Sample,18100,0,"bb06.wav",70
Sample,18100,0,"fs04.wav",70
Sample,18200,0,"hihat01.wav",70
Sample,18200,0,"syn05.wav",70
Sample,18200,0,"bass05.wav",70
Sample,18200,0,"fs05.wav",70
Sample,18200,0,"bb07.wav",70
Sample,18200,0,"ride01.wav",70
Sample,18300,0,"fs06.wav",70
Sample,18300,0,"bass06.wav",70
Sample,18300,0,"syn06.wav",70
Sample,18300,0,"bb08.wav",70
Sample,18400,0,"fs01.wav",70
Sample,18400,0,"ride01.wav",70
Sample,18400,0,"close01.wav",70
Sample,18400,0,"syn01.wav",70
Sample,18400,0,"kick01.wav",70
Sample,18400,0,"bass01.wav",70
Sample,18400,0,"bb01.wav",70
Sample,18500,0,"bb02.wav",70
Sample,18600,0,"bass02.wav",70
Sample,18600,0,"hihat01.wav",70
Sample,18600,0,"ride01.wav",70
Sample,18600,0,"bb03.wav",70
Sample,18600,0,"fs02.wav",70
Sample,18600,0,"syn02.wav",70
Sample,18700,0,"bb04.wav",70
Sample,18800,0,"syn03.wav",70
Sample,18800,0,"fs03.wav",70
Sample,18800,0,"bb05.wav",70
Sample,18800,0,"bass03.wav",70
Sample,18800,0,"kick01.wav",70
Sample,18800,0,"ride01.wav",70
Sample,18800,0,"close01.wav",70
Sample,18900,0,"syn04.wav",70
Sample,18900,0,"fs04.wav",70
Sample,18900,0,"bb06.wav",70
Sample,18900,0,"bass04.wav",70
Sample,19000,0,"bass05.wav",70
Sample,19000,0,"syn05.wav",70
Sample,19000,0,"bb07.wav",70
Sample,19000,0,"hihat01.wav",70
Sample,19000,0,"ride01.wav",70
Sample,19000,0,"fs05.wav",70
Sample,19100,0,"bass06.wav",70
Sample,19100,0,"fs06.wav",70
Sample,19100,0,"bb08left.wav",70
Sample,19100,0,"syn06.wav",70
Sample,19200,0,"ride01.wav",70
Sample,19200,0,"bb01.wav",70
Sample,19200,0,"bass01.wav",70
Sample,19200,0,"syn01.wav",70
Sample,19200,0,"fs01.wav",70
Sample,19200,0,"close01.wav",70
Sample,19200,0,"kick01.wav",70
Sample,19300,0,"bb02.wav",70
Sample,19400,0,"fs02.wav",70
Sample,19400,0,"bass02.wav",70
Sample,19400,0,"bb03.wav",70
Sample,19400,0,"ride01.wav",70
Sample,19400,0,"hihat01.wav",70
Sample,19400,0,"syn02.wav",70
Sample,19500,0,"bb04.wav",70
Sample,19600,0,"bass03.wav",70
Sample,19600,0,"close01.wav",70
Sample,19600,0,"syn03.wav",70
Sample,19600,0,"fs03.wav",70
Sample,19600,0,"kick01.wav",70
Sample,19600,0,"bb05.wav",70
Sample,19600,0,"ride01.wav",70
Sample,19700,0,"fs04.wav",70
Sample,19700,0,"syn04.wav",70
Sample,19700,0,"bb06.wav",70
Sample,19700,0,"bass04.wav",70
Sample,19800,0,"hihat01.wav",70
Sample,19800,0,"fs05.wav",70
Sample,19800,0,"ride01.wav",70
Sample,19800,0,"syn05.wav",70
Sample,19800,0,"bass05.wav",70
Sample,19800,0,"bb07.wav",70
Sample,19900,0,"fs06.wav",70
Sample,19900,0,"bass06.wav",70
Sample,19900,0,"syn06.wav",70
Sample,19900,0,"bb08.wav",70
Sample,20000,0,"kick01.wav",70
Sample,20000,0,"close01.wav",70
Sample,20000,0,"bass01.wav",70
Sample,20000,0,"syn01.wav",70
Sample,20000,0,"fs01.wav",70
Sample,20000,0,"bb01.wav",70
Sample,20000,0,"ride01.wav",70
Sample,20200,0,"ride01.wav",70
Sample,20200,0,"bb03.wav",70
Sample,20200,0,"bass02.wav",70
Sample,20200,0,"syn02.wav",70
Sample,20200,0,"fs02.wav",70
Sample,20200,0,"hihat02.wav",70
Sample,20200,0,"hihat03.wav",70
Sample,20200,0,"hihat01.wav",70
Sample,20300,0,"bb04.wav",70
Sample,20400,0,"fs03.wav",70
Sample,20400,0,"kick01.wav",70
Sample,20400,0,"close01.wav",70
Sample,20400,0,"bass03.wav",70
Sample,20400,0,"kick02.wav",70
Sample,20400,0,"syn03.wav",70
Sample,20400,0,"ride01.wav",70
Sample,20500,0,"bass04.wav",70
Sample,20500,0,"syn04.wav",70
Sample,20500,0,"fs04.wav",70
Sample,20600,0,"hihat02.wav",70
Sample,20600,0,"fs05.wav",70
Sample,20600,0,"hihat01.wav",70
Sample,20600,0,"syn05.wav",70
Sample,20600,0,"ride01.wav",70
Sample,20600,0,"hihat03.wav",70
Sample,20600,0,"bass05.wav",70
Sample,20700,0,"fs06.wav",70
Sample,20700,0,"bass06.wav",70
Sample,20700,0,"syn06.wav",70
Sample,20800,0,"close01.wav",70
Sample,20800,0,"kick02.wav",70
Sample,20800,0,"fs01.wav",70
Sample,20800,0,"roll.wav",70
Sample,20800,0,"bb01.wav",70
Sample,20800,0,"syn01.wav",70
Sample,20800,0,"bass01.wav",70
Sample,20900,0,"bb02.wav",70
Sample,21000,0,"syn02.wav",70
Sample,21000,0,"hihat02.wav",70
Sample,21000,0,"bass02.wav",70
Sample,21000,0,"hihat01.wav",70
Sample,21000,0,"bb03.wav",70
Sample,21000,0,"hihat03.wav",70
Sample,21000,0,"fs02.wav",70
Sample,21100,0,"bb04.wav",70
Sample,21200,0,"bass03.wav",70
Sample,21200,0,"bb05.wav",70
Sample,21200,0,"syn03.wav",70
Sample,21200,0,"fs03.wav",70
Sample,21200,0,"kick02.wav",70
Sample,21200,0,"close01.wav",70
Sample,21300,0,"fs04.wav",70
Sample,21300,0,"bb06.wav",70
Sample,21300,0,"syn04.wav",70
Sample,21300,0,"bass04.wav",70
Sample,21400,0,"hihat01.wav",70
Sample,21400,0,"fs05.wav",70
Sample,21400,0,"bb07.wav",70
Sample,21400,0,"hihat02.wav",70
Sample,21400,0,"hihat03.wav",70
Sample,21400,0,"bass05.wav",70
Sample,21400,0,"syn05.wav",70
Sample,21500,0,"fs06.wav",70
Sample,21500,0,"syn06.wav",70
Sample,21500,0,"bass06.wav",70
Sample,21500,0,"bb08.wav",70
Sample,21600,0,"syn01.wav",70
Sample,21600,0,"bb01.wav",70
Sample,21600,0,"close01.wav",70
Sample,21600,0,"fs01.wav",70
Sample,21600,0,"bass01.wav",70
Sample,21600,0,"kick02.wav",70
Sample,21700,0,"bb02.wav",70
Sample,21800,0,"bass02.wav",70
Sample,21800,0,"syn02.wav",70
Sample,21800,0,"hihat02.wav",70
Sample,21800,0,"hihat01.wav",70
Sample,21800,0,"hihat03.wav",70
Sample,21800,0,"bb03.wav",70
Sample,21800,0,"fs02.wav",70
Sample,21900,0,"bb04.wav",70
Sample,22000,0,"close01.wav",70
Sample,22000,0,"syn03.wav",70
Sample,22000,0,"fs03.wav",70
Sample,22000,0,"kick02.wav",70
Sample,22000,0,"bass03.wav",70
Sample,22000,0,"bb05.wav",70
Sample,22100,0,"syn04.wav",70
Sample,22100,0,"bb06.wav",70
Sample,22100,0,"fs04.wav",70
Sample,22100,0,"bass04.wav",70
Sample,22200,0,"hihat03.wav",70
Sample,22200,0,"bb07.wav",70
Sample,22200,0,"hihat02.wav",70
Sample,22200,0,"syn05.wav",70
Sample,22200,0,"hihat01.wav",70
Sample,22200,0,"fs05.wav",70
Sample,22200,0,"bass05.wav",70
Sample,22300,0,"syn06.wav",70
Sample,22300,0,"bb08left.wav",70
Sample,22300,0,"bass06.wav",70
Sample,22300,0,"fs06.wav",70
Sample,22400,0,"bb01.wav",70
Sample,22400,0,"kick02.wav",70
Sample,22400,0,"close01.wav",70
Sample,22400,0,"bass01.wav",70
Sample,22400,0,"fs01.wav",70
Sample,22400,0,"syn01.wav",70
Sample,22500,0,"bb02.wav",70
Sample,22600,0,"hihat01.wav",70
Sample,22600,0,"hihat03.wav",70
Sample,22600,0,"fs02.wav",70
Sample,22600,0,"syn02.wav",70
Sample,22600,0,"hihat02.wav",70
Sample,22600,0,"bb03.wav",70
Sample,22600,0,"bass02.wav",70
Sample,22700,0,"bb04.wav",70
Sample,22800,0,"bb05.wav",70
Sample,22800,0,"kick02.wav",70
Sample,22800,0,"bass03.wav",70
Sample,22800,0,"syn03.wav",70
Sample,22800,0,"close01.wav",70
Sample,22800,0,"fs03.wav",70
Sample,22900,0,"syn04.wav",70
Sample,22900,0,"bb06.wav",70
Sample,22900,0,"bass04.wav",70
Sample,22900,0,"fs04.wav",70
Sample,23000,0,"fs05.wav",70
Sample,23000,0,"hihat02.wav",70
Sample,23000,0,"syn05.wav",70
Sample,23000,0,"hihat01.wav",70
Sample,23000,0,"bb07.wav",70
Sample,23000,0,"bass05.wav",70
Sample,23000,0,"hihat03.wav",70
Sample,23100,0,"bass06.wav",70
Sample,23100,0,"fs06.wav",70
Sample,23100,0,"syn06.wav",70
Sample,23100,0,"bb08.wav",70
Sample,23200,0,"kick02.wav",70
Sample,23200,0,"syn01.wav",70
Sample,23200,0,"fs01.wav",70
Sample,23200,0,"bass01.wav",70
Sample,23200,0,"close01.wav",70
Sample,23200,0,"bb01.wav",70
Sample,23300,0,"bb05.wav",70
Sample,23400,0,"hihat01.wav",70
Sample,23400,0,"fs02.wav",70
Sample,23400,0,"bb03.wav",70
Sample,23400,0,"bass02.wav",70
Sample,23400,0,"hihat02.wav",70
Sample,23400,0,"syn02.wav",70
Sample,23400,0,"hihat03.wav",70
Sample,23500,0,"bb04.wav",70
Sample,23600,0,"fs03.wav",70
Sample,23600,0,"kick02.wav",70
Sample,23600,0,"bb05.wav",70
Sample,23600,0,"close01.wav",70
Sample,23600,0,"bass03.wav",70
Sample,23600,0,"syn03.wav",70
Sample,23700,0,"bb06.wav",70
Sample,23700,0,"bass04.wav",70
Sample,23700,0,"syn04.wav",70
Sample,23700,0,"fs04.wav",70
Sample,23800,0,"syn05.wav",70
Sample,23800,0,"hihat03.wav",70
Sample,23800,0,"bass05.wav",70
Sample,23800,0,"hihat01.wav",70
Sample,23800,0,"bb07.wav",70
Sample,23800,0,"hihat02.wav",70
Sample,23800,0,"fs05.wav",70
Sample,23900,0,"syn06.wav",70
Sample,23900,0,"fs06.wav",70
Sample,23900,0,"bb08left.wav",70
Sample,23900,0,"bass06.wav",70
Sample,24000,0,"bb01.wav",70
Sample,24000,0,"kick02.wav",70
Sample,24000,0,"close01.wav",70
Sample,24000,0,"bass01.wav",70
Sample,24000,0,"fs01.wav",70
Sample,24000,0,"syn01.wav",70
Sample,24100,0,"bb02.wav",70
Sample,24200,0,"hihat01.wav",70
Sample,24200,0,"hihat03.wav",70
Sample,24200,0,"fs02.wav",70
Sample,24200,0,"syn02.wav",70
Sample,24200,0,"bb03.wav",70
Sample,24200,0,"bass02.wav",70
Sample,24200,0,"hihat02.wav",70
Sample,24300,0,"bb04.wav",70
Sample,24400,0,"bb05.wav",70
Sample,24400,0,"close01.wav",70
Sample,24400,0,"fs03.wav",70
Sample,24400,0,"kick02.wav",70
Sample,24400,0,"syn03.wav",70
Sample,24400,0,"bass03.wav",70
Sample,24500,0,"syn04.wav",70
Sample,24500,0,"bb06.wav",70
Sample,24500,0,"fs04.wav",70
Sample,24500,0,"bass04.wav",70
Sample,24600,0,"fs05.wav",70
Sample,24600,0,"hihat03.wav",70
Sample,24600,0,"syn05.wav",70
Sample,24600,0,"hihat01.wav",70
Sample,24600,0,"bass05.wav",70
Sample,24600,0,"bb07.wav",70
Sample,24600,0,"hihat02.wav",70
Sample,24700,0,"bass06.wav",70
Sample,24700,0,"fs06.wav",70
Sample,24700,0,"syn06.wav",70
Sample,24700,0,"bb08.wav",70
Sample,24800,0,"close01.wav",70
Sample,24800,0,"syn01.wav",70
Sample,24800,0,"bb01.wav",70
Sample,24800,0,"bass01.wav",70
Sample,24800,0,"kick02.wav",70
Sample,24800,0,"fs01.wav",70
Sample,24900,0,"bb02.wav",70
Sample,25000,0,"hihat01.wav",70
Sample,25000,0,"bb03.wav",70
Sample,25000,0,"syn02.wav",70
Sample,25000,0,"hihat02.wav",70
Sample,25000,0,"hihat03.wav",70
Sample,25000,0,"bass02.wav",70
Sample,25000,0,"fs02.wav",70
Sample,25100,0,"bb04.wav",70
Sample,25200,0,"syn03.wav",70
Sample,25200,0,"bb05.wav",70
Sample,25200,0,"bass03.wav",70
Sample,25200,0,"close01.wav",70
Sample,25200,0,"fs03.wav",70
Sample,25200,0,"kick02.wav",70
Sample,25300,0,"bb06.wav",70
Sample,25300,0,"fs04.wav",70
Sample,25300,0,"bass04.wav",70
Sample,25300,0,"syn04.wav",70
Sample,25400,0,"syn05.wav",70
Sample,25400,0,"hihat02.wav",70
Sample,25400,0,"bass05.wav",70
Sample,25400,0,"hihat01.wav",70
Sample,25400,0,"bb07.wav",70
Sample,25400,0,"fs05.wav",70
Sample,25400,0,"hihat03.wav",70
Sample,25500,0,"syn06.wav",70
Sample,25500,0,"bb08left.wav",70
Sample,25500,0,"bass06.wav",70
Sample,25500,0,"fs06.wav",70
Sample,25600,0,"bb01.wav",70
Sample,25600,0,"kick02.wav",70
Sample,25600,0,"syn01.wav",70
Sample,25600,0,"bass01.wav",70
Sample,25600,0,"fs01.wav",70
Sample,25600,0,"close01.wav",70
Sample,25700,0,"bb02.wav",70
Sample,25800,0,"hihat01.wav",70
Sample,25800,0,"hihat03.wav",70
Sample,25800,0,"fs02.wav",70
Sample,25800,0,"bass02.wav",70
Sample,25800,0,"syn02.wav",70
Sample,25800,0,"hihat02.wav",70
Sample,25800,0,"bb03.wav",70
Sample,25900,0,"bb04.wav",70
Sample,26000,0,"bb05.wav",70
Sample,26000,0,"bass03.wav",70
Sample,26000,0,"kick02.wav",70
Sample,26000,0,"syn03.wav",70
Sample,26000,0,"close01.wav",70
Sample,26000,0,"fs03.wav",70
Sample,26100,0,"fs04.wav",70
Sample,26100,0,"bb06.wav",70
Sample,26100,0,"bass04.wav",70
Sample,26100,0,"syn04.wav",70
Sample,26200,0,"hihat02.wav",70
Sample,26200,0,"bass05.wav",70
Sample,26200,0,"syn05.wav",70
Sample,26200,0,"hihat01.wav",70
Sample,26200,0,"fs05.wav",70
Sample,26200,0,"hihat03.wav",70
Sample,26200,0,"bb07.wav",70
Sample,26300,0,"fs06.wav",70
Sample,26300,0,"bass01.wav",70
Sample,26300,0,"bb08.wav",70
Sample,26300,0,"syn06.wav",70
Sample,26400,0,"kick01.wav",70
Sample,26400,0,"hihat02mini.wav",70
Sample,26400,0,"hihat03_mini.wav",70
Sample,26400,0,"hihat01mini.wav",70
Sample,26400,0,"bb05.wav",70
Sample,26400,0,"bass02.wav",70
Sample,26400,0,"kick02.wav",70
Sample,26700,0,"bb05.wav",70
Sample,26700,0,"kick02_low01.wav",70
Sample,26700,0,"hihat01mini.wav",70
Sample,26700,0,"hihat02mini.wav",70
Sample,26700,0,"kick01_low01.wav",70
Sample,26700,0,"hihat03_mini.wav",70
Sample,26700,0,"bass01.wav",70
Sample,27200,0,"ride01.wav",70
Sample,27200,0,"kick01.wav",70
Sample,27200,0,"cym.wav",70
Sample,27200,0,"kick02.wav",70
Sample,27200,0,"bb01.wav",70
Sample,27200,0,"bass01.wav",70
Sample,27200,0,"close01.wav",70
Sample,27300,0,"bb02.wav",70
Sample,27400,0,"hihat03.wav",70
Sample,27400,0,"v003.wav",70
Sample,27400,0,"hihat01.wav",70
Sample,27400,0,"hihat02.wav",70
Sample,27400,0,"bass02.wav",70
Sample,27400,0,"bb03.wav",70
Sample,27400,0,"ride01.wav",70
Sample,27500,0,"bb04.wav",70
Sample,27600,0,"ride01.wav",70
Sample,27600,0,"kick01.wav",70
Sample,27600,0,"bass03.wav",70
Sample,27600,0,"close01.wav",70
Sample,27600,0,"kick02.wav",70
Sample,27600,0,"bb05.wav",70
Sample,27700,0,"bass04.wav",70
Sample,27700,0,"bb06.wav",70
Sample,27800,0,"hihat03.wav",70
Sample,27800,0,"hihat02.wav",70
Sample,27800,0,"bb07.wav",70
Sample,27800,0,"hihat01.wav",70
Sample,27800,0,"bass05.wav",70
Sample,27800,0,"ride01.wav",70
Sample,27900,0,"bb08.wav",70
Sample,27900,0,"bass06.wav",70
Sample,28000,0,"ride01.wav",70
Sample,28000,0,"kick02.wav",70
Sample,28000,0,"bass01.wav",70
Sample,28000,0,"bb01.wav",70
Sample,28000,0,"kick01.wav",70
Sample,28000,0,"close01.wav",70
Sample,28100,0,"bb02.wav",70
Sample,28200,0,"bb03.wav",70
Sample,28200,0,"ride01.wav",70
Sample,28200,0,"hihat03.wav",70
Sample,28200,0,"bass02.wav",70
Sample,28200,0,"hihat02.wav",70
Sample,28200,0,"hihat01.wav",70
Sample,28300,0,"bb04.wav",70
Sample,28400,0,"kick02.wav",70
Sample,28400,0,"close01.wav",70
Sample,28400,0,"ride01.wav",70
Sample,28400,0,"kick01.wav",70
Sample,28400,0,"bb05.wav",70
Sample,28400,0,"bass03.wav",70
Sample,28500,0,"bass04.wav",70
Sample,28500,0,"bb06.wav",70
Sample,28600,0,"ride01.wav",70
Sample,28600,0,"hihat03.wav",70
Sample,28600,0,"bb07.wav",70
Sample,28600,0,"hihat02.wav",70
Sample,28600,0,"hihat01.wav",70
Sample,28600,0,"bass05.wav",70
Sample,28700,0,"bb08left.wav",70
Sample,28700,0,"bass06.wav",70
Sample,28800,0,"bb01.wav",70
Sample,28800,0,"kick01.wav",70
Sample,28800,0,"close01.wav",70
Sample,28800,0,"bass01.wav",70
Sample,28800,0,"kick02.wav",70
Sample,28800,0,"ride01.wav",70
Sample,28900,0,"bb02.wav",70
Sample,29000,0,"bb03.wav",70
Sample,29000,0,"hihat03.wav",70
Sample,29000,0,"ride01.wav",70
Sample,29000,0,"hihat01.wav",70
Sample,29000,0,"hihat02.wav",70
Sample,29000,0,"bass02.wav",70
Sample,29100,0,"bb04.wav",70
Sample,29200,0,"kick01.wav",70
Sample,29200,0,"bb05.wav",70
Sample,29200,0,"close01.wav",70
Sample,29200,0,"bass03.wav",70
Sample,29200,0,"kick02.wav",70
Sample,29200,0,"ride01.wav",70
Sample,29300,0,"bass04.wav",70
Sample,29300,0,"bb06.wav",70
Sample,29400,0,"bass05.wav",70
Sample,29400,0,"hihat02.wav",70
Sample,29400,0,"ride01.wav",70
Sample,29400,0,"hihat03.wav",70
Sample,29400,0,"bb07.wav",70
Sample,29400,0,"hihat01.wav",70
Sample,29500,0,"bb08.wav",70
Sample,29500,0,"bass06.wav",70
Sample,29600,0,"kick01.wav",70
Sample,29600,0,"close01.wav",70
Sample,29600,0,"kick02.wav",70
Sample,29600,0,"bass01.wav",70
Sample,29600,0,"bb01.wav",70
Sample,29600,0,"ride01.wav",70
Sample,29700,0,"bb05.wav",70
Sample,29800,0,"hihat02.wav",70
Sample,29800,0,"hihat03.wav",70
Sample,29800,0,"ride01.wav",70
Sample,29800,0,"bass02.wav",70
Sample,29800,0,"bb03.wav",70
Sample,29800,0,"hihat01.wav",70
Sample,29900,0,"bb04.wav",70
Sample,30000,0,"bb05.wav",70
Sample,30000,0,"close01.wav",70
Sample,30000,0,"bass03.wav",70
Sample,30000,0,"kick02.wav",70
Sample,30000,0,"kick01.wav",70
Sample,30000,0,"ride01.wav",70
Sample,30100,0,"bb06.wav",70
Sample,30100,0,"bass04.wav",70
Sample,30200,0,"hihat03.wav",70
Sample,30200,0,"bass05.wav",70
Sample,30200,0,"ride01.wav",70
Sample,30200,0,"hihat01.wav",70
Sample,30200,0,"bb07.wav",70
Sample,30200,0,"hihat02.wav",70
Sample,30300,0,"bb08left.wav",70
Sample,30300,0,"bass06.wav",70
Sample,30400,0,"bb01.wav",70
Sample,30400,0,"kick01.wav",70
Sample,30400,0,"close01.wav",70
Sample,30400,0,"bass01.wav",70
Sample,30400,0,"kick02.wav",70
Sample,30400,0,"ride01.wav",70
Sample,30500,0,"v029.wav",70
Sample,30500,0,"bb02.wav",70
Sample,30600,0,"hihat01.wav",70
Sample,30600,0,"hihat02.wav",70
Sample,30600,0,"ride01.wav",70
Sample,30600,0,"bb03.wav",70
Sample,30600,0,"hihat03.wav",70
Sample,30600,0,"bass02.wav",70
Sample,30700,0,"v031.wav",70
Sample,30700,0,"bb04.wav",70
Sample,30800,0,"bass03.wav",70
Sample,30800,0,"kick01.wav",70
Sample,30800,0,"bb05.wav",70
Sample,30800,0,"kick02.wav",70
Sample,30800,0,"close01.wav",70
Sample,30800,0,"ride01.wav",70
Sample,30900,0,"bb06.wav",70
Sample,30900,0,"bass04.wav",70
Sample,31000,0,"hihat01.wav",70
Sample,31000,0,"bb07.wav",70
Sample,31000,0,"ride01.wav",70
Sample,31000,0,"hihat02.wav",70
Sample,31000,0,"hihat03.wav",70
Sample,31000,0,"bass05.wav",70
Sample,31100,0,"bass06.wav",70
Sample,31100,0,"bb08.wav",70
Sample,31200,0,"close01.wav",70
Sample,31200,0,"bass01.wav",70
Sample,31200,0,"kick01.wav",70
Sample,31200,0,"bb01.wav",70
Sample,31200,0,"kick02.wav",70
Sample,31200,0,"ride01.wav",70
Sample,31300,0,"bb02.wav",70
Sample,31400,0,"hihat02.wav",70
Sample,31400,0,"hihat03.wav",70
Sample,31400,0,"ride01.wav",70
Sample,31400,0,"bass02.wav",70
Sample,31400,0,"bb03.wav",70
Sample,31400,0,"hihat01.wav",70
Sample,31500,0,"bb04.wav",70
Sample,31600,0,"bass03.wav",70
Sample,31600,0,"kick01.wav",70
Sample,31600,0,"bb05.wav",70
Sample,31600,0,"kick02.wav",70
Sample,31600,0,"close01.wav",70
Sample,31600,0,"ride01.wav",70
Sample,31700,0,"bb06.wav",70
Sample,31700,0,"bass04.wav",70
Sample,31800,0,"hihat02.wav",70
Sample,31800,0,"hihat01.wav",70
Sample,31800,0,"ride01.wav",70
Sample,31800,0,"hihat03.wav",70
Sample,31800,0,"bass05.wav",70
Sample,31800,0,"bb07.wav",70
Sample,31900,0,"bb08left.wav",70
Sample,31900,0,"bass06.wav",70
Sample,32000,0,"kick02.wav",70
Sample,32000,0,"bb01.wav",70
Sample,32000,0,"ride01.wav",70
Sample,32000,0,"kick01.wav",70
Sample,32000,0,"bass01.wav",70
Sample,32000,0,"close01.wav",70
Sample,32100,0,"bb02.wav",70
Sample,32200,0,"hihat02.wav",70
Sample,32200,0,"hihat01.wav",70
Sample,32200,0,"bass02.wav",70
Sample,32200,0,"hihat03.wav",70
Sample,32200,0,"bb03.wav",70
Sample,32200,0,"ride01.wav",70
Sample,32300,0,"bb04.wav",70
Sample,32400,0,"close01.wav",70
Sample,32400,0,"bb05.wav",70
Sample,32400,0,"ride01.wav",70
Sample,32400,0,"kick01.wav",70
Sample,32400,0,"kick02.wav",70
Sample,32400,0,"bass03.wav",70
Sample,32500,0,"bass04.wav",70
Sample,32500,0,"bb06.wav",70
Sample,32600,0,"hihat02.wav",70
Sample,32600,0,"bb07.wav",70
Sample,32600,0,"hihat03.wav",70
Sample,32600,0,"hihat01.wav",70
Sample,32600,0,"bass05.wav",70
Sample,32600,0,"ride01.wav",70
Sample,32700,0,"bb08.wav",70
Sample,32700,0,"bass06.wav",70
Sample,32800,0,"bass01.wav",70
Sample,32800,0,"bb01.wav",70
Sample,32800,0,"ride01.wav",70
Sample,32800,0,"kick02.wav",70
Sample,32800,0,"close01.wav",70
Sample,32800,0,"kick01.wav",70
Sample,32900,0,"bb05.wav",70
Sample,33000,0,"bass02.wav",70
Sample,33000,0,"bb03.wav",70
Sample,33000,0,"hihat02.wav",70
Sample,33000,0,"hihat03.wav",70
Sample,33000,0,"hihat01.wav",70
Sample,33000,0,"ride01.wav",70
Sample,33100,0,"bb04.wav",70
Sample,33200,0,"bb09.wav",70
Sample,33200,0,"close01.wav",70
Sample,33200,0,"ride01.wav",70
Sample,33200,0,"kick01.wav",70
Sample,33200,0,"bass03.wav",70
Sample,33200,0,"kick02.wav",70
Sample,33250,0,"bb09.wav",70
Sample,33300,0,"bb09.wav",70
Sample,33300,0,"bass04.wav",70
Sample,33400,0,"hihat03.wav",70
Sample,33400,0,"bass05.wav",70
Sample,33400,0,"bb09.wav",70
Sample,33400,0,"hihat02.wav",70
Sample,33400,0,"hihat01.wav",70
Sample,33400,0,"ride01.wav",70
Sample,33500,0,"bass06.wav",70
Sample,33500,0,"bb09.wav",70
Sample,33600,0,"bb01.wav",70
Sample,33600,0,"kick02.wav",70
Sample,33600,0,"close01.wav",70
Sample,33600,0,"bass01.wav",70
Sample,33600,0,"kick01.wav",70
Sample,33600,0,"ride01.wav",70
Sample,33700,0,"bb02.wav",70
Sample,33800,0,"hihat01.wav",70
Sample,33800,0,"hihat02.wav",70
Sample,33800,0,"ride01.wav",70
Sample,33800,0,"bass02.wav",70
Sample,33800,0,"hihat03.wav",70
Sample,33800,0,"bb03.wav",70
Sample,33900,0,"bb04.wav",70
Sample,34000,0,"kick01.wav",70
Sample,34000,0,"bb05.wav",70
Sample,34000,0,"bass03.wav",70
Sample,34000,0,"close01.wav",70
Sample,34000,0,"kick02.wav",70
Sample,34000,0,"ride01.wav",70
Sample,34100,0,"bass04.wav",70
Sample,34100,0,"bb06.wav",70
Sample,34200,0,"vb004.wav",70
Sample,34200,0,"hihat01.wav",70
Sample,34200,0,"hihat03.wav",70
Sample,34200,0,"ride01.wav",70
Sample,34200,0,"hihat02.wav",70
Sample,34200,0,"bb07.wav",70
Sample,34200,0,"bass05.wav",70
Sample,34300,0,"bb08.wav",70
Sample,34300,0,"bass06.wav",70
Sample,34400,0,"bb01.wav",70
Sample,34400,0,"close01.wav",70
Sample,34400,0,"kick01.wav",70
Sample,34400,0,"bass01.wav",70
Sample,34400,0,"kick02.wav",70
Sample,34400,0,"ride01.wav",70
Sample,34500,0,"bb02.wav",70
Sample,34600,0,"bb03.wav",70
Sample,34600,0,"hihat03.wav",70
Sample,34600,0,"ride01.wav",70
Sample,34600,0,"hihat01.wav",70
Sample,34600,0,"bass02.wav",70
Sample,34600,0,"hihat02.wav",70
Sample,34700,0,"bb04.wav",70
Sample,34800,0,"close01.wav",70
Sample,34800,0,"bass03.wav",70
Sample,34800,0,"bb05.wav",70
Sample,34800,0,"kick02.wav",70
Sample,34800,0,"kick01.wav",70
Sample,34800,0,"ride01.wav",70
Sample,34900,0,"bb06.wav",70
Sample,34900,0,"bass04.wav",70
Sample,35000,0,"hihat02.wav",70
Sample,35000,0,"hihat01.wav",70
Sample,35000,0,"ride01.wav",70
Sample,35000,0,"hihat03.wav",70
Sample,35000,0,"bb07.wav",70
Sample,35000,0,"bass05.wav",70
Sample,35100,0,"bb08left.wav",70
Sample,35100,0,"bass06.wav",70
Sample,35200,0,"bb01.wav",70
Sample,35200,0,"kick01.wav",70
Sample,35200,0,"close01.wav",70
Sample,35200,0,"bass01.wav",70
Sample,35200,0,"kick02.wav",70
Sample,35200,0,"ride01.wav",70
Sample,35300,0,"bb02.wav",70
Sample,35400,0,"bb03.wav",70
Sample,35400,0,"hihat03.wav",70
Sample,35400,0,"ride01.wav",70
Sample,35400,0,"hihat01.wav",70
Sample,35400,0,"hihat02.wav",70
Sample,35400,0,"bass02.wav",70
Sample,35500,0,"bb04.wav",70
Sample,35600,0,"bb05.wav",70
Sample,35600,0,"kick02.wav",70
Sample,35600,0,"kick01.wav",70
Sample,35600,0,"close01.wav",70
Sample,35600,0,"bass03.wav",70
Sample,35600,0,"ride01.wav",70
Sample,35700,0,"bb06.wav",70
Sample,35700,0,"bass04.wav",70
Sample,35800,0,"bass05.wav",70
Sample,35800,0,"hihat02.wav",70
Sample,35800,0,"ride01.wav",70
Sample,35800,0,"hihat03.wav",70
Sample,35800,0,"bb07.wav",70
Sample,35800,0,"hihat01.wav",70
Sample,35900,0,"bass06.wav",70
Sample,35900,0,"bb08.wav",70
Sample,36000,0,"kick02.wav",70
Sample,36000,0,"bass01.wav",70
Sample,36000,0,"kick01.wav",70
Sample,36000,0,"bb01.wav",70
Sample,36000,0,"close01.wav",70
Sample,36000,0,"ride01.wav",70
Sample,36100,0,"bb05.wav",70
Sample,36200,0,"hihat02.wav",70
Sample,36200,0,"hihat01.wav",70
Sample,36200,0,"ride01.wav",70
Sample,36200,0,"bass02.wav",70
Sample,36200,0,"bb03.wav",70
Sample,36200,0,"hihat03.wav",70
Sample,36300,0,"bb04.wav",70
Sample,36400,0,"kick02.wav",70
Sample,36400,0,"bass03.wav",70
Sample,36400,0,"bb05.wav",70
Sample,36400,0,"kick01.wav",70
Sample,36400,0,"close01.wav",70
Sample,36400,0,"ride01.wav",70
Sample,36500,0,"bb06.wav",70
Sample,36500,0,"bass04.wav",70
Sample,36600,0,"hihat02.wav",70
Sample,36600,0,"bb07.wav",70
Sample,36600,0,"ride01.wav",70
Sample,36600,0,"hihat03.wav",70
Sample,36600,0,"bass05.wav",70
Sample,36600,0,"hihat01.wav",70
Sample,36700,0,"bb08left.wav",70
Sample,36700,0,"bass06.wav",70
Sample,36800,0,"bb01.wav",70
Sample,36800,0,"kick01.wav",70
Sample,36800,0,"close01.wav",70
Sample,36800,0,"bass01.wav",70
Sample,36800,0,"kick02.wav",70
Sample,36800,0,"ride01.wav",70
Sample,36900,0,"bb02.wav",70
Sample,37000,0,"bass02.wav",70
Sample,37000,0,"hihat03.wav",70
Sample,37000,0,"ride01.wav",70
Sample,37000,0,"hihat01.wav",70
Sample,37000,0,"hihat02.wav",70
Sample,37000,0,"bb03.wav",70
Sample,37100,0,"bb04.wav",70
Sample,37200,0,"close01.wav",70
Sample,37200,0,"bb05.wav",70
Sample,37200,0,"kick01.wav",70
Sample,37200,0,"kick02.wav",70
Sample,37200,0,"bass03.wav",70
Sample,37200,0,"ride01.wav",70
Sample,37300,0,"bb06.wav",70
Sample,37300,0,"bass04.wav",70
Sample,37400,0,"bb07.wav",70
Sample,37400,0,"hihat02.wav",70
Sample,37400,0,"ride01.wav",70
Sample,37400,0,"bass05.wav",70
Sample,37400,0,"hihat03.wav",70
Sample,37400,0,"hihat01.wav",70
Sample,37500,0,"bb08.wav",70
Sample,37500,0,"bass06.wav",70
Sample,37600,0,"kick02.wav",70
Sample,37600,0,"bb01.wav",70
Sample,37600,0,"kick01.wav",70
Sample,37600,0,"bass01.wav",70
Sample,37600,0,"close01.wav",70
Sample,37600,0,"ride01.wav",70
Sample,37700,0,"bb02.wav",70
Sample,37800,0,"bass02.wav",70
Sample,37800,0,"hihat01.wav",70
Sample,37800,0,"ride01.wav",70
Sample,37800,0,"bb03.wav",70
Sample,37800,0,"hihat02.wav",70
Sample,37800,0,"hihat03.wav",70
Sample,37900,0,"bb04.wav",70
Sample,38000,0,"bass03.wav",70
Sample,38000,0,"bb05.wav",70
Sample,38000,0,"close01.wav",70
Sample,38000,0,"kick02.wav",70
Sample,38000,0,"kick01.wav",70
Sample,38000,0,"ride01.wav",70
Sample,38100,0,"bb06.wav",70
Sample,38100,0,"bass04.wav",70
Sample,38200,0,"hihat02.wav",70
Sample,38200,0,"bb07.wav",70
Sample,38200,0,"ride01.wav",70
Sample,38200,0,"hihat03.wav",70
Sample,38200,0,"bass05.wav",70
Sample,38200,0,"hihat01.wav",70
Sample,38300,0,"bb08left.wav",70
Sample,38300,0,"bass06.wav",70
Sample,38400,0,"kick01.wav",70
Sample,38400,0,"bb01.wav",70
Sample,38400,0,"ride01.wav",70
Sample,38400,0,"bass01.wav",70
Sample,38400,0,"kick02.wav",70
Sample,38400,0,"close01.wav",70
Sample,38500,0,"bb02.wav",70
Sample,38600,0,"bass02.wav",70
Sample,38600,0,"hihat01.wav",70
Sample,38600,0,"bb03.wav",70
Sample,38600,0,"hihat03.wav",70
Sample,38600,0,"hihat02.wav",70
Sample,38600,0,"ride01.wav",70
Sample,38700,0,"bb04.wav",70
Sample,38800,0,"bb05.wav",70
Sample,38800,0,"bass03.wav",70
Sample,38800,0,"ride01.wav",70
Sample,38800,0,"kick01.wav",70
Sample,38800,0,"close01.wav",70
Sample,38800,0,"kick02.wav",70
Sample,38900,0,"bass04.wav",70
Sample,38900,0,"bb06.wav",70
Sample,39000,0,"hihat01_minimini.wav",70
Sample,39000,0,"bass05.wav",70
Sample,39000,0,"hihat03.wav",70
Sample,39000,0,"bb07.wav",70
Sample,39000,0,"hihat02_minimini.wav",70
Sample,39000,0,"ride01.wav",70
Sample,39100,0,"hihat02_minimini.wav",70
Sample,39100,0,"bass06.wav",70
Sample,39100,0,"close01.wav",70
Sample,39100,0,"kick02_mini.wav",70
Sample,39100,0,"bb08.wav",70
Sample,39100,0,"hihat01_minimini.wav",70
Sample,39100,0,"kick01.wav",70
Sample,39200,0,"bass01_mini.wav",70
Sample,39200,0,"close01.wav",70
Sample,39200,0,"hihat02_minimini.wav",70
Sample,39200,0,"kick01.wav",70
Sample,39200,0,"hihat01_minimini.wav",70
Sample,39200,0,"kick02_mini.wav",70
Sample,39300,0,"close01.wav",70
Sample,39300,0,"hihat02_minimini.wav",70
Sample,39300,0,"hihat01_minimini.wav",70
Sample,39300,0,"kick02_mini.wav",70
Sample,39300,0,"bass01_mini.wav",70
Sample,39300,0,"kick01.wav",70
Sample,39400,0,"kick02_mini.wav",70
Sample,39400,0,"hihat02_minimini.wav",70
Sample,39400,0,"bass01_mini.wav",70
Sample,39400,0,"kick01.wav",70
Sample,39400,0,"close01.wav",70
Sample,39400,0,"hihat01_minimini.wav",70
Sample,39500,0,"bass01_mini.wav",70
Sample,39500,0,"kick02_mini.wav",70
Sample,39500,0,"hihat01_minimini.wav",70
Sample,39500,0,"kick01.wav",70
Sample,39500,0,"hihat02_minimini.wav",70
Sample,39500,0,"close01.wav",70
Sample,39600,0,"kick02_mini.wav",70
Sample,39600,0,"close01.wav",70
Sample,39600,0,"hihat02_minimini.wav",70
Sample,39600,0,"bass01_mini.wav",70
Sample,39600,0,"kick01.wav",70
Sample,39600,0,"hihat01_minimini.wav",70
Sample,39700,0,"bass01_mini.wav",70
Sample,39700,0,"hihat02_minimini.wav",70
Sample,39700,0,"kick01.wav",70
Sample,39700,0,"kick02_mini.wav",70
Sample,39700,0,"close01.wav",70
Sample,39700,0,"hihat01_minimini.wav",70
Sample,39800,0,"close01.wav",70
Sample,39800,0,"kick01.wav",70
Sample,39800,0,"hihat02_minimini.wav",70
Sample,39800,0,"kick02_mini.wav",70
Sample,39800,0,"bass01_mini.wav",70
Sample,39800,0,"hihat01_minimini.wav",70
Sample,39900,0,"kick01.wav",70
Sample,39900,0,"kick02_mini.wav",70
Sample,39900,0,"close01.wav",70
Sample,39900,0,"hihat01_minimini.wav",70
Sample,39900,0,"bass01_mini.wav",70
Sample,39900,0,"hihat02_minimini.wav",70
Sample,40000,0,"tr01.wav",70
Sample,40000,0,"se03.wav",70
Sample,40000,0,"bb01.wav",70
Sample,40100,0,"tr02.wav",70
Sample,40100,0,"bb02.wav",70
Sample,40200,0,"bb03.wav",70
Sample,40300,0,"bb04.wav",70
Sample,40300,0,"tr03.wav",70
Sample,40400,0,"bb05.wav",70
Sample,40500,0,"tr04.wav",70
Sample,40500,0,"bb06.wav",70
Sample,40600,0,"bb07.wav",70
Sample,40700,0,"bb08.wav",70
Sample,40700,0,"tr05.wav",70
Sample,40800,0,"bb01.wav",70
Sample,40900,0,"bb02.wav",70
Sample,41000,0,"bb03.wav",70
Sample,41100,0,"bb04.wav",70
Sample,41200,0,"bb05.wav",70
Sample,41300,0,"bb06.wav",70
Sample,41400,0,"bb07.wav",70
Sample,41500,0,"bb08left.wav",70
Sample,41600,0,"tr01.wav",70
Sample,41600,0,"bb01.wav",70
Sample,41700,0,"bb02.wav",70
Sample,41700,0,"tr02.wav",70
Sample,41800,0,"bb03.wav",70
Sample,41900,0,"tr03.wav",70
Sample,41900,0,"bb04.wav",70
Sample,42000,0,"bb05.wav",70
Sample,42100,0,"bb06.wav",70
Sample,42100,0,"tr04.wav",70
Sample,42200,0,"bb07.wav",70
Sample,42300,0,"tr05.wav",70
Sample,42300,0,"bb08.wav",70
Sample,42400,0,"bb01.wav",70
Sample,42500,0,"bb05.wav",70
Sample,42600,0,"bb03.wav",70
Sample,42700,0,"bb04.wav",70
Sample,42800,0,"bb05.wav",70
Sample,42900,0,"bb06.wav",70
Sample,43000,0,"bb07.wav",70
Sample,43100,0,"bb08left.wav",70
Sample,43200,0,"bb01.wav",70
Sample,43200,0,"tr01.wav",70
Sample,43300,0,"tr02.wav",70
Sample,43300,0,"bb02.wav",70
Sample,43400,0,"bb03.wav",70
Sample,43500,0,"bb04.wav",70
Sample,43500,0,"tr03.wav",70
Sample,43600,0,"bb05.wav",70
Sample,43700,0,"tr04.wav",70
Sample,43700,0,"bb06.wav",70
Sample,43800,0,"bb07.wav",70
Sample,43900,0,"bb08.wav",70
Sample,43900,0,"tr05.wav",70
Sample,44000,0,"bb01.wav",70
Sample,44100,0,"bb02.wav",70
Sample,44200,0,"bb03.wav",70
Sample,44300,0,"bb04.wav",70
Sample,44400,0,"bb05.wav",70
Sample,44500,0,"bb06.wav",70
Sample,44600,0,"bb07.wav",70
Sample,44700,0,"bb08left.wav",70
Sample,44800,0,"bb01.wav",70
Sample,44800,0,"tr01.wav",70
Sample,44900,0,"tr02.wav",70
Sample,44900,0,"bb02.wav",70
Sample,45000,0,"bb03.wav",70
Sample,45100,0,"bb04.wav",70
Sample,45100,0,"tr03.wav",70
Sample,45200,0,"bb05.wav",70
Sample,45300,0,"tr04.wav",70
Sample,45300,0,"bb06.wav",70
Sample,45400,0,"bb07.wav",70
Sample,45500,0,"bb08.wav",70
Sample,45500,0,"tr05.wav",70
Sample,45600,0,"bb01.wav",70
Sample,45700,0,"bb05.wav",70
Sample,45800,0,"bb03.wav",70
Sample,45900,0,"bb04.wav",70
Sample,46000,0,"bb09.wav",70
Sample,46050,0,"bb09.wav",70
Sample,46100,0,"bb09.wav",70
Sample,46200,0,"bb09.wav",70
Sample,46300,0,"bb09.wav",70
Sample,46400,0,"tr01.wav",70
Sample,46400,0,"roll.wav",70
Sample,46400,0,"bb01.wav",70
Sample,46500,0,"tr02.wav",70
Sample,46500,0,"bb02.wav",70
Sample,46600,0,"bb03.wav",70
Sample,46700,0,"bb04.wav",70
Sample,46700,0,"tr03.wav",70
Sample,46800,0,"bb05.wav",70
Sample,46900,0,"tr04.wav",70
Sample,46900,0,"bb06.wav",70
Sample,47000,0,"bb07.wav",70
Sample,47100,0,"bb08.wav",70
Sample,47100,0,"tr05.wav",70
Sample,47200,0,"bb01.wav",70
Sample,47300,0,"bb02.wav",70
Sample,47400,0,"bb03.wav",70
Sample,47500,0,"bb04.wav",70
Sample,47600,0,"bb05.wav",70
Sample,47700,0,"bb06.wav",70
Sample,47800,0,"bb07.wav",70
Sample,47900,0,"bb08left.wav",70
Sample,48000,0,"tr01.wav",70
Sample,48000,0,"bb01.wav",70
Sample,48100,0,"bb02.wav",70
Sample,48100,0,"tr02.wav",70
Sample,48200,0,"bb03.wav",70
Sample,48300,0,"tr03.wav",70
Sample,48300,0,"bb04.wav",70
Sample,48400,0,"bb05.wav",70
Sample,48500,0,"bb06.wav",70
Sample,48500,0,"tr04.wav",70
Sample,48600,0,"bb07.wav",70
Sample,48700,0,"tr05.wav",70
Sample,48700,0,"bb08.wav",70
Sample,48800,0,"bb01.wav",70
Sample,48900,0,"bb05.wav",70
Sample,49000,0,"bb03.wav",70
Sample,49100,0,"bb04.wav",70
Sample,49200,0,"bb05.wav",70
Sample,49300,0,"bb06.wav",70
Sample,49400,0,"bb07.wav",70
Sample,49500,0,"bb08left.wav",70
Sample,49600,0,"bb01.wav",70
Sample,49700,0,"bb02.wav",70
Sample,49700,0,"tr02_left.wav",70
Sample,49800,0,"bb03.wav",70
Sample,49900,0,"bb04.wav",70
Sample,50000,0,"bb05.wav",70
Sample,50100,0,"bb06.wav",70
Sample,50200,0,"bb07.wav",70
Sample,50300,0,"bb08.wav",70
Sample,50400,0,"bb01.wav",70
Sample,50500,0,"bb02.wav",70
Sample,50500,0,"tr02_right.wav",70
Sample,50600,0,"bb03.wav",70
Sample,50700,0,"bb04.wav",70
Sample,50800,0,"bb05.wav",70
Sample,50900,0,"bb06.wav",70
Sample,51000,0,"bb07.wav",70
Sample,51100,0,"bb08left.wav",70
Sample,51200,0,"roll02.wav",70
Sample,51300,0,"tr02_left.wav",70
Sample,51700,0,"tr02_right.wav",70
Sample,53200,0,"kick02.wav",70
Sample,53200,0,"fbb01.wav",70
Sample,53200,0,"kick01.wav",70
Sample,53200,0,"close01.wav",70
Sample,53200,0,"bb05.wav",70
Sample,53200,0,"se01.wav",70
Sample,53200,0,"se03.wav",70
Sample,53300,0,"ss13.wav",70
Sample,53300,0,"bb06.wav",70
Sample,53300,0,"fbb02.wav",70
Sample,53300,0,"bass13.wav",70
Sample,53300,0,"ff13.wav",70
Sample,53400,0,"bb07.wav",70
Sample,53400,0,"hihat02.wav",70
Sample,53400,0,"hihat01.wav",70
Sample,53400,0,"hihat03.wav",70
Sample,53400,0,"fbb03.wav",70
Sample,53500,0,"ss14.wav",70
Sample,53500,0,"fbb04.wav",70
Sample,53500,0,"bb08.wav",70
Sample,53500,0,"ff14.wav",70
Sample,53500,0,"bass14.wav",70
Sample,53600,0,"bass15.wav",70
Sample,53600,0,"ff15.wav",70
Sample,53600,0,"close01.wav",70
Sample,53600,0,"bb01.wav",70
Sample,53600,0,"kick02.wav",70
Sample,53600,0,"kick01.wav",70
Sample,53600,0,"fbb01.wav",70
Sample,53600,0,"ve01.wav",70
Sample,53700,0,"ff14.wav",70
Sample,53700,0,"fbb02.wav",70
Sample,53700,0,"ve02.wav",70
Sample,53700,0,"bb02.wav",70
Sample,53800,0,"bb03.wav",70
Sample,53800,0,"hihat03.wav",70
Sample,53800,0,"hihat02.wav",70
Sample,53800,0,"fbb03.wav",70
Sample,53800,0,"hihat01.wav",70
Sample,53800,0,"ve03.wav",70
Sample,53900,0,"ff16.wav",70
Sample,53900,0,"fbb04.wav",70
Sample,53900,0,"bass16.wav",70
Sample,53900,0,"ve04.wav",70
Sample,53900,0,"bb04.wav",70
Sample,54000,0,"kick02.wav",70
Sample,54000,0,"close01.wav",70
Sample,54000,0,"kick01.wav",70
Sample,54000,0,"fbb01.wav",70
Sample,54000,0,"bb05.wav",70
Sample,54000,0,"ve05.wav",70
Sample,54100,0,"fbb02.wav",70
Sample,54100,0,"bass17.wav",70
Sample,54100,0,"bb06.wav",70
Sample,54100,0,"ff17.wav",70
Sample,54200,0,"bb07.wav",70
Sample,54200,0,"fbb03.wav",70
Sample,54200,0,"hihat01.wav",70
Sample,54200,0,"hihat03.wav",70
Sample,54200,0,"hihat02.wav",70
Sample,54300,0,"bb08left.wav",70
Sample,54300,0,"bass18.wav",70
Sample,54300,0,"fbb04.wav",70
Sample,54300,0,"ff18.wav",70
Sample,54400,0,"close01.wav",70
Sample,54400,0,"fbb01.wav",70
Sample,54400,0,"bb01.wav",70
Sample,54400,0,"bass11.wav",70
Sample,54400,0,"kick01.wav",70
Sample,54400,0,"ss11.wav",70
Sample,54400,0,"ff11.wav",70
Sample,54400,0,"kick02.wav",70
Sample,54500,0,"ff11.wav",70
Sample,54500,0,"tr12.wav",70
Sample,54500,0,"bass11.wav",70
Sample,54500,0,"bb02.wav",70
Sample,54500,0,"fbb02.wav",70
Sample,54500,0,"ss11.wav",70
Sample,54600,0,"bb03.wav",70
Sample,54600,0,"hihat03.wav",70
Sample,54600,0,"hihat01.wav",70
Sample,54600,0,"fbb03.wav",70
Sample,54600,0,"hihat02.wav",70
Sample,54700,0,"fbb04.wav",70
Sample,54700,0,"ss12.wav",70
Sample,54700,0,"bass12.wav",70
Sample,54700,0,"ff12.wav",70
Sample,54700,0,"bb04.wav",70
Sample,54800,0,"kick01.wav",70
Sample,54800,0,"fbb01.wav",70
Sample,54800,0,"bb05.wav",70
Sample,54800,0,"close01.wav",70
Sample,54800,0,"kick02.wav",70
Sample,54900,0,"bass13.wav",70
Sample,54900,0,"ss13.wav",70
Sample,54900,0,"ff13.wav",70
Sample,54900,0,"bb06.wav",70
Sample,54900,0,"fbb02.wav",70
Sample,55000,0,"hihat02.wav",70
Sample,55000,0,"hihat01.wav",70
Sample,55000,0,"bb07.wav",70
Sample,55000,0,"hihat03.wav",70
Sample,55000,0,"fbb03.wav",70
Sample,55100,0,"bb08.wav",70
Sample,55100,0,"fbb04.wav",70
Sample,55100,0,"ss14.wav",70
Sample,55100,0,"ff14.wav",70
Sample,55100,0,"bass14.wav",70
Sample,55200,0,"fbb01.wav",70
Sample,55200,0,"kick01.wav",70
Sample,55200,0,"bb01.wav",70
Sample,55200,0,"kick02.wav",70
Sample,55200,0,"bass15.wav",70
Sample,55200,0,"ff15.wav",70
Sample,55200,0,"close01.wav",70
Sample,55200,0,"ve01.wav",70
Sample,55300,0,"bb05.wav",70
Sample,55300,0,"fbb02.wav",70
Sample,55300,0,"ve02.wav",70
Sample,55300,0,"ff14.wav",70
Sample,55400,0,"bb03.wav",70
Sample,55400,0,"hihat03.wav",70
Sample,55400,0,"fbb03.wav",70
Sample,55400,0,"hihat01.wav",70
Sample,55400,0,"hihat02.wav",70
Sample,55400,0,"ve03.wav",70
Sample,55500,0,"bass16.wav",70
Sample,55500,0,"bb04.wav",70
Sample,55500,0,"ff16.wav",70
Sample,55500,0,"ve04.wav",70
Sample,55500,0,"fbb04.wav",70
Sample,55600,0,"bb05.wav",70
Sample,55600,0,"kick02.wav",70
Sample,55600,0,"fbb01.wav",70
Sample,55600,0,"close01.wav",70
Sample,55600,0,"kick01.wav",70
Sample,55600,0,"ve05.wav",70
Sample,55700,0,"bb06.wav",70
Sample,55700,0,"fbb02.wav",70
Sample,55700,0,"ff17.wav",70
Sample,55700,0,"bass17.wav",70
Sample,55800,0,"hihat02.wav",70
Sample,55800,0,"fbb03.wav",70
Sample,55800,0,"hihat01.wav",70
Sample,55800,0,"hihat03.wav",70
Sample,55800,0,"bb07.wav",70
Sample,55900,0,"fbb04.wav",70
Sample,55900,0,"bb08left.wav",70
Sample,55900,0,"ff18.wav",70
Sample,55900,0,"bass18.wav",70
Sample,56000,0,"close01.wav",70
Sample,56000,0,"fbb01.wav",70
Sample,56000,0,"bb01.wav",70
Sample,56000,0,"bass11.wav",70
Sample,56000,0,"kick01.wav",70
Sample,56000,0,"ss11.wav",70
Sample,56000,0,"ff11.wav",70
Sample,56000,0,"kick02.wav",70
Sample,56100,0,"tr12.wav",70
Sample,56100,0,"fbb02.wav",70
Sample,56100,0,"bass11.wav",70
Sample,56100,0,"bb02.wav",70
Sample,56100,0,"ss11.wav",70
Sample,56100,0,"ff11.wav",70
Sample,56200,0,"fbb03.wav",70
Sample,56200,0,"hihat03.wav",70
Sample,56200,0,"hihat01.wav",70
Sample,56200,0,"bb03.wav",70
Sample,56200,0,"hihat02.wav",70
Sample,56300,0,"bass12.wav",70
Sample,56300,0,"bb04.wav",70
Sample,56300,0,"ss12.wav",70
Sample,56300,0,"fbb04.wav",70
Sample,56300,0,"ff12.wav",70
Sample,56400,0,"close01.wav",70
Sample,56400,0,"kick02.wav",70
Sample,56400,0,"kick01.wav",70
Sample,56400,0,"bb05.wav",70
Sample,56400,0,"fbb01.wav",70
Sample,56500,0,"fbb02.wav",70
Sample,56500,0,"bass13.wav",70
Sample,56500,0,"ff13.wav",70
Sample,56500,0,"ss13.wav",70
Sample,56500,0,"bb06.wav",70
Sample,56600,0,"hihat02.wav",70
Sample,56600,0,"hihat01.wav",70
Sample,56600,0,"bb07.wav",70
Sample,56600,0,"hihat03.wav",70
Sample,56600,0,"fbb03.wav",70
Sample,56700,0,"fbb04.wav",70
Sample,56700,0,"bb08.wav",70
Sample,56700,0,"bass14.wav",70
Sample,56700,0,"ss14.wav",70
Sample,56700,0,"ff14.wav",70
Sample,56800,0,"kick02.wav",70
Sample,56800,0,"fbb01.wav",70
Sample,56800,0,"bass15.wav",70
Sample,56800,0,"bb01.wav",70
Sample,56800,0,"ff15.wav",70
Sample,56800,0,"kick01.wav",70
Sample,56800,0,"close01.wav",70
Sample,56800,0,"ve01.wav",70
Sample,56900,0,"bb02.wav",70
Sample,56900,0,"ff14.wav",70
Sample,56900,0,"ve02.wav",70
Sample,56900,0,"fbb02.wav",70
Sample,57000,0,"hihat02.wav",70
Sample,57000,0,"fbb03.wav",70
Sample,57000,0,"bb03.wav",70
Sample,57000,0,"hihat03.wav",70
Sample,57000,0,"hihat01.wav",70
Sample,57000,0,"ve03.wav",70
Sample,57100,0,"bass16.wav",70
Sample,57100,0,"fbb04.wav",70
Sample,57100,0,"ff16.wav",70
Sample,57100,0,"ve04.wav",70
Sample,57100,0,"bb04.wav",70
Sample,57200,0,"kick02.wav",70
Sample,57200,0,"fbb01.wav",70
Sample,57200,0,"bb05.wav",70
Sample,57200,0,"kick01.wav",70
Sample,57200,0,"close01.wav",70
Sample,57200,0,"ve05.wav",70
Sample,57300,0,"ff17.wav",70
Sample,57300,0,"bb06.wav",70
Sample,57300,0,"fbb02.wav",70
Sample,57300,0,"bass17.wav",70
Sample,57400,0,"hihat03.wav",70
Sample,57400,0,"hihat01.wav",70
Sample,57400,0,"bb07.wav",70
Sample,57400,0,"fbb03.wav",70
Sample,57400,0,"hihat02.wav",70
Sample,57500,0,"fbb04.wav",70
Sample,57500,0,"bb08left.wav",70
Sample,57500,0,"ff18.wav",70
Sample,57500,0,"bass18.wav",70
Sample,57600,0,"close01.wav",70
Sample,57600,0,"ff11.wav",70
Sample,57600,0,"fbb01.wav",70
Sample,57600,0,"bb01.wav",70
Sample,57600,0,"kick01.wav",70
Sample,57600,0,"bass11.wav",70
Sample,57600,0,"ss11.wav",70
Sample,57600,0,"kick02.wav",70
Sample,57700,0,"ff11.wav",70
Sample,57700,0,"fbb02.wav",70
Sample,57700,0,"bb02.wav",70
Sample,57700,0,"ss11.wav",70
Sample,57700,0,"bass11.wav",70
Sample,57700,0,"tr12.wav",70
Sample,57800,0,"fbb03.wav",70
Sample,57800,0,"hihat03.wav",70
Sample,57800,0,"hihat01.wav",70
Sample,57800,0,"bb03.wav",70
Sample,57800,0,"hihat02.wav",70
Sample,57900,0,"bb04.wav",70
Sample,57900,0,"fbb04.wav",70
Sample,57900,0,"ff12.wav",70
Sample,57900,0,"bass12.wav",70
Sample,57900,0,"ss12.wav",70
Sample,58000,0,"kick01.wav",70
Sample,58000,0,"bb05.wav",70
Sample,58000,0,"close01.wav",70
Sample,58000,0,"kick02.wav",70
Sample,58000,0,"fbb01.wav",70
Sample,58100,0,"fbb02.wav",70
Sample,58100,0,"ss13.wav",70
Sample,58100,0,"bb06.wav",70
Sample,58100,0,"bass13.wav",70
Sample,58100,0,"ff13.wav",70
Sample,58200,0,"hihat02.wav",70
Sample,58200,0,"bb07.wav",70
Sample,58200,0,"fbb03.wav",70
Sample,58200,0,"hihat03.wav",70
Sample,58200,0,"hihat01.wav",70
Sample,58300,0,"fbb04.wav",70
Sample,58300,0,"ss14.wav",70
Sample,58300,0,"bb08.wav",70
Sample,58300,0,"bass14.wav",70
Sample,58300,0,"ff14.wav",70
Sample,58400,0,"kick01.wav",70
Sample,58400,0,"fbb01.wav",70
Sample,58400,0,"kick02.wav",70
Sample,58400,0,"bass15.wav",70
Sample,58400,0,"close01.wav",70
Sample,58400,0,"ve01.wav",70
Sample,58400,0,"ff15.wav",70
Sample,58400,0,"ss15.wav",70
Sample,58400,0,"bb01.wav",70
Sample,58500,0,"ve02.wav",70
Sample,58500,0,"bb05.wav",70
Sample,58500,0,"fbb02.wav",70
Sample,58500,0,"ss16.wav",70
Sample,58500,0,"ff14.wav",70
Sample,58600,0,"close01.wav",70
Sample,58600,0,"kick01.wav",70
Sample,58600,0,"fbb03.wav",70
Sample,58600,0,"kick02.wav",70
Sample,58600,0,"bb03.wav",70
Sample,58600,0,"ve03.wav",70
Sample,58700,0,"bb04.wav",70
Sample,58700,0,"ff16.wav",70
Sample,58700,0,"ve04.wav",70
Sample,58700,0,"ss17.wav",70
Sample,58700,0,"fbb04.wav",70
Sample,58700,0,"bass16.wav",70
Sample,58800,0,"kick01.wav",70
Sample,58800,0,"close01.wav",70
Sample,58800,0,"kick02.wav",70
Sample,58800,0,"fbb01.wav",70
Sample,58800,0,"bb09.wav",70
Sample,58800,0,"ve05.wav",70
Sample,58850,0,"bb09.wav",70
Sample,58900,0,"ss19.wav",70
Sample,58900,0,"bass17.wav",70
Sample,58900,0,"ff17.wav",70
Sample,58900,0,"bb09.wav",70
Sample,58900,0,"fbb02.wav",70
Sample,59000,0,"kick02.wav",70
Sample,59000,0,"kick01.wav",70
Sample,59000,0,"fbb03.wav",70
Sample,59000,0,"bb09.wav",70
Sample,59000,0,"close01.wav",70
Sample,59100,0,"fbb04.wav",70
Sample,59100,0,"bb09.wav",70
Sample,59100,0,"ff18.wav",70
Sample,59100,0,"bass18.wav",70
Sample,59100,0,"ss20.wav",70
Sample,59200,0,"ss11.wav",70
Sample,59200,0,"close01.wav",70
Sample,59200,0,"bass11.wav",70
Sample,59200,0,"bb01.wav",70
Sample,59200,0,"ff11.wav",70
Sample,59200,0,"kick01.wav",70
Sample,59200,0,"se03.wav",70
Sample,59200,0,"se01.wav",70
Sample,59200,0,"fbb01.wav",70
Sample,59200,0,"kick02.wav",70
Sample,59300,0,"tr12.wav",70
Sample,59300,0,"ff11.wav",70
Sample,59300,0,"ss11.wav",70
Sample,59300,0,"bass11.wav",70
Sample,59300,0,"fbb02.wav",70
Sample,59300,0,"bb02.wav",70
Sample,59400,0,"bb03.wav",70
Sample,59400,0,"hihat03.wav",70
Sample,59400,0,"hihat01.wav",70
Sample,59400,0,"fbb03.wav",70
Sample,59400,0,"hihat02.wav",70
Sample,59500,0,"ff12.wav",70
Sample,59500,0,"ss12.wav",70
Sample,59500,0,"fbb04.wav",70
Sample,59500,0,"bb04.wav",70
Sample,59500,0,"bass12.wav",70
Sample,59600,0,"bb05.wav",70
Sample,59600,0,"fbb01.wav",70
Sample,59600,0,"kick01.wav",70
Sample,59600,0,"kick02.wav",70
Sample,59600,0,"close01.wav",70
Sample,59700,0,"bass13.wav",70
Sample,59700,0,"bb06.wav",70
Sample,59700,0,"ff13.wav",70
Sample,59700,0,"fbb02.wav",70
Sample,59700,0,"ss13.wav",70
Sample,59800,0,"hihat02.wav",70
Sample,59800,0,"hihat01.wav",70
Sample,59800,0,"fbb03.wav",70
Sample,59800,0,"hihat03.wav",70
Sample,59800,0,"bb07.wav",70
Sample,59900,0,"bb08.wav",70
Sample,59900,0,"fbb04.wav",70
Sample,59900,0,"ff14.wav",70
Sample,59900,0,"ss14.wav",70
Sample,59900,0,"bass14.wav",70
Sample,60000,0,"fbb01.wav",70
Sample,60000,0,"kick01.wav",70
Sample,60000,0,"close01.wav",70
Sample,60000,0,"bb01.wav",70
Sample,60000,0,"bass15.wav",70
Sample,60000,0,"kick02.wav",70
Sample,60000,0,"ff15.wav",70
Sample,60000,0,"ve01.wav",70
Sample,60100,0,"bb02.wav",70
Sample,60100,0,"ff14.wav",70
Sample,60100,0,"ve02.wav",70
Sample,60100,0,"fbb02.wav",70
Sample,60200,0,"hihat02.wav",70
Sample,60200,0,"hihat01.wav",70
Sample,60200,0,"bb03.wav",70
Sample,60200,0,"fbb03.wav",70
Sample,60200,0,"hihat03.wav",70
Sample,60200,0,"ve03.wav",70
Sample,60300,0,"bb04.wav",70
Sample,60300,0,"fbb04.wav",70
Sample,60300,0,"ff16.wav",70
Sample,60300,0,"ve04.wav",70
Sample,60300,0,"bass16.wav",70
Sample,60400,0,"bb05.wav",70
Sample,60400,0,"kick01.wav",70
Sample,60400,0,"close01.wav",70
Sample,60400,0,"fbb01.wav",70
Sample,60400,0,"kick02.wav",70
Sample,60400,0,"ve05.wav",70
Sample,60500,0,"bb06.wav",70
Sample,60500,0,"ff17.wav",70
Sample,60500,0,"fbb02.wav",70
Sample,60500,0,"bass17.wav",70
Sample,60600,0,"hihat03.wav",70
Sample,60600,0,"hihat01.wav",70
Sample,60600,0,"bb07.wav",70
Sample,60600,0,"fbb03.wav",70
Sample,60600,0,"hihat02.wav",70
Sample,60700,0,"bass18.wav",70
Sample,60700,0,"ff18.wav",70
Sample,60700,0,"bb08left.wav",70
Sample,60700,0,"fbb04.wav",70
Sample,60800,0,"kick01.wav",70
Sample,60800,0,"fbb01.wav",70
Sample,60800,0,"bb01.wav",70
Sample,60800,0,"bass11.wav",70
Sample,60800,0,"close01.wav",70
Sample,60800,0,"ss11.wav",70
Sample,60800,0,"ff11.wav",70
Sample,60800,0,"kick02.wav",70
Sample,60900,0,"bb02.wav",70
Sample,60900,0,"bass11.wav",70
Sample,60900,0,"tr12.wav",70
Sample,60900,0,"ff11.wav",70
Sample,60900,0,"fbb02.wav",70
Sample,60900,0,"ss11.wav",70
Sample,61000,0,"bb03.wav",70
Sample,61000,0,"hihat03.wav",70
Sample,61000,0,"hihat01.wav",70
Sample,61000,0,"fbb03.wav",70
Sample,61000,0,"hihat02.wav",70
Sample,61100,0,"ss12.wav",70
Sample,61100,0,"bass12.wav",70
Sample,61100,0,"bb04.wav",70
Sample,61100,0,"ff12.wav",70
Sample,61100,0,"fbb04.wav",70
Sample,61200,0,"bb05.wav",70
Sample,61200,0,"fbb01.wav",70
Sample,61200,0,"kick01.wav",70
Sample,61200,0,"kick02.wav",70
Sample,61200,0,"close01.wav",70
Sample,61300,0,"bb06.wav",70
Sample,61300,0,"fbb02.wav",70
Sample,61300,0,"bass13.wav",70
Sample,61300,0,"ff13.wav",70
Sample,61300,0,"ss13.wav",70
Sample,61400,0,"hihat02.wav",70
Sample,61400,0,"fbb03.wav",70
Sample,61400,0,"bb07.wav",70
Sample,61400,0,"hihat03.wav",70
Sample,61400,0,"hihat01.wav",70
Sample,61500,0,"ss14.wav",70
Sample,61500,0,"bass14.wav",70
Sample,61500,0,"bb08.wav",70
Sample,61500,0,"fbb04.wav",70
Sample,61500,0,"ff14.wav",70
Sample,61600,0,"kick01.wav",70
Sample,61600,0,"bass15.wav",70
Sample,61600,0,"close01.wav",70
Sample,61600,0,"ff15.wav",70
Sample,61600,0,"bb01.wav",70
Sample,61600,0,"fbb01.wav",70
Sample,61600,0,"kick02.wav",70
Sample,61600,0,"ve01.wav",70
Sample,61700,0,"bb05.wav",70
Sample,61700,0,"ff14.wav",70
Sample,61700,0,"ve02.wav",70
Sample,61700,0,"fbb02.wav",70
Sample,61800,0,"hihat02.wav",70
Sample,61800,0,"hihat01.wav",70
Sample,61800,0,"bb03.wav",70
Sample,61800,0,"fbb03.wav",70
Sample,61800,0,"hihat03.wav",70
Sample,61800,0,"ve03.wav",70
Sample,61900,0,"fbb04.wav",70
Sample,61900,0,"bass16.wav",70
Sample,61900,0,"bb04.wav",70
Sample,61900,0,"ve04.wav",70
Sample,61900,0,"ff16.wav",70
Sample,62000,0,"close01.wav",70
Sample,62000,0,"fbb01.wav",70
Sample,62000,0,"kick02.wav",70
Sample,62000,0,"bb05.wav",70
Sample,62000,0,"kick01.wav",70
Sample,62000,0,"ve05.wav",70
Sample,62100,0,"ff17.wav",70
Sample,62100,0,"fbb02.wav",70
Sample,62100,0,"bass17.wav",70
Sample,62100,0,"bb06.wav",70
Sample,62200,0,"hihat03.wav",70
Sample,62200,0,"hihat01.wav",70
Sample,62200,0,"bb07.wav",70
Sample,62200,0,"fbb03.wav",70
Sample,62200,0,"hihat02.wav",70
Sample,62300,0,"fbb04.wav",70
Sample,62300,0,"bb08left.wav",70
Sample,62300,0,"ff18.wav",70
Sample,62300,0,"bass18.wav",70
Sample,62400,0,"kick01.wav",70
Sample,62400,0,"fbb01.wav",70
Sample,62400,0,"bb01.wav",70
Sample,62400,0,"bass11.wav",70
Sample,62400,0,"close01.wav",70
Sample,62400,0,"ss11.wav",70
Sample,62400,0,"ff11.wav",70
Sample,62400,0,"kick02.wav",70
Sample,62500,0,"bb02.wav",70
Sample,62500,0,"bass11.wav",70
Sample,62500,0,"tr12.wav",70
Sample,62500,0,"ff11.wav",70
Sample,62500,0,"fbb02.wav",70
Sample,62500,0,"ss11.wav",70
Sample,62600,0,"fbb03.wav",70
Sample,62600,0,"hihat03.wav",70
Sample,62600,0,"hihat01.wav",70
Sample,62600,0,"bb03.wav",70
Sample,62600,0,"hihat02.wav",70
Sample,62700,0,"ss12.wav",70
Sample,62700,0,"bb04.wav",70
Sample,62700,0,"fbb04.wav",70
Sample,62700,0,"ff12.wav",70
Sample,62700,0,"bass12.wav",70
Sample,62800,0,"bb05.wav",70
Sample,62800,0,"fbb01.wav",70
Sample,62800,0,"kick01.wav",70
Sample,62800,0,"kick02.wav",70
Sample,62800,0,"close01.wav",70
Sample,62900,0,"fbb02.wav",70
Sample,62900,0,"ss13.wav",70
Sample,62900,0,"bass13.wav",70
Sample,62900,0,"ff13.wav",70
Sample,62900,0,"bb06.wav",70
Sample,63000,0,"hihat02.wav",70
Sample,63000,0,"bb07.wav",70
Sample,63000,0,"fbb03.wav",70
Sample,63000,0,"hihat03.wav",70
Sample,63000,0,"hihat01.wav",70
Sample,63100,0,"ss14.wav",70
Sample,63100,0,"bb08.wav",70
Sample,63100,0,"fbb04.wav",70
Sample,63100,0,"ff14.wav",70
Sample,63100,0,"bass14.wav",70
Sample,63200,0,"kick01.wav",70
Sample,63200,0,"bass15.wav",70
Sample,63200,0,"ff15.wav",70
Sample,63200,0,"close01.wav",70
Sample,63200,0,"kick02.wav",70
Sample,63200,0,"bb01.wav",70
Sample,63200,0,"fbb01.wav",70
Sample,63200,0,"ve01.wav",70
Sample,63300,0,"fbb02.wav",70
Sample,63300,0,"bb02.wav",70
Sample,63300,0,"ve02.wav",70
Sample,63300,0,"ff14.wav",70
Sample,63400,0,"bb03.wav",70
Sample,63400,0,"fbb03.wav",70
Sample,63400,0,"hihat01.wav",70
Sample,63400,0,"hihat02.wav",70
Sample,63400,0,"hihat03.wav",70
Sample,63400,0,"ve03.wav",70
Sample,63500,0,"bass16.wav",70
Sample,63500,0,"ff16.wav",70
Sample,63500,0,"fbb04.wav",70
Sample,63500,0,"ve04.wav",70
Sample,63500,0,"bb04.wav",70
Sample,63600,0,"close01.wav",70
Sample,63600,0,"fbb01.wav",70
Sample,63600,0,"bb05.wav",70
Sample,63600,0,"kick02.wav",70
Sample,63600,0,"kick01.wav",70
Sample,63600,0,"ve05.wav",70
Sample,63700,0,"ff17.wav",70
Sample,63700,0,"bass17.wav",70
Sample,63700,0,"fbb02.wav",70
Sample,63700,0,"bb06.wav",70
Sample,63800,0,"fbb03.wav",70
Sample,63800,0,"hihat02.wav",70
Sample,63800,0,"bb07.wav",70
Sample,63800,0,"hihat01.wav",70
Sample,63800,0,"hihat03.wav",70
Sample,63900,0,"fbb04.wav",70
Sample,63900,0,"bb08left.wav",70
Sample,63900,0,"ff18.wav",70
Sample,63900,0,"bass18.wav",70
Sample,64000,0,"kick01.wav",70
Sample,64000,0,"bb01.wav",70
Sample,64000,0,"ff11.wav",70
Sample,64000,0,"fbb01.wav",70
Sample,64000,0,"close01.wav",70
Sample,64000,0,"ss11.wav",70
Sample,64000,0,"bass11.wav",70
Sample,64000,0,"kick02.wav",70
Sample,64100,0,"bass11.wav",70
Sample,64100,0,"ff11.wav",70
Sample,64100,0,"tr12.wav",70
Sample,64100,0,"bb02.wav",70
Sample,64100,0,"ss11.wav",70
Sample,64100,0,"fbb02.wav",70
Sample,64200,0,"bb03.wav",70
Sample,64200,0,"hihat03.wav",70
Sample,64200,0,"hihat01.wav",70
Sample,64200,0,"fbb03.wav",70
Sample,64200,0,"hihat02.wav",70
Sample,64300,0,"ss12.wav",70
Sample,64300,0,"bass12.wav",70
Sample,64300,0,"fbb04.wav",70
Sample,64300,0,"bb04.wav",70
Sample,64300,0,"ff12.wav",70
Sample,64400,0,"close01.wav",70
Sample,64400,0,"fbb01.wav",70
Sample,64400,0,"kick02.wav",70
Sample,64400,0,"kick01.wav",70
Sample,64400,0,"bb05.wav",70
Sample,64500,0,"ss13.wav",70
Sample,64500,0,"fbb02.wav",70
Sample,64500,0,"bb06.wav",70
Sample,64500,0,"bass13.wav",70
Sample,64500,0,"ff13.wav",70
Sample,64600,0,"hihat02.wav",70
Sample,64600,0,"fbb03.wav",70
Sample,64600,0,"bb07.wav",70
Sample,64600,0,"hihat03.wav",70
Sample,64600,0,"hihat01.wav",70
Sample,64700,0,"ff14.wav",70
Sample,64700,0,"fbb04.wav",70
Sample,64700,0,"bb08.wav",70
Sample,64700,0,"ss14.wav",70
Sample,64700,0,"bass14.wav",70
Sample,64800,0,"kick01.wav",70
Sample,64800,0,"bb01.wav",70
Sample,64800,0,"fbb01.wav",70
Sample,64800,0,"ff15.wav",70
Sample,64800,0,"close01.wav",70
Sample,64800,0,"ve01.wav",70
Sample,64800,0,"kick02.wav",70
Sample,64800,0,"bass15.wav",70
Sample,64800,0,"ss15.wav",70
Sample,64900,0,"ve02.wav",70
Sample,64900,0,"fbb02.wav",70
Sample,64900,0,"ff14.wav",70
Sample,64900,0,"ss16.wav",70
Sample,64900,0,"bb05.wav",70
Sample,65000,0,"fbb03.wav",70
Sample,65000,0,"close01.wav",70
Sample,65000,0,"kick02.wav",70
Sample,65000,0,"bb03.wav",70
Sample,65000,0,"kick01.wav",70
Sample,65000,0,"ve03.wav",70
Sample,65100,0,"ff16.wav",70
Sample,65100,0,"fbb04.wav",70
Sample,65100,0,"ve04.wav",70
Sample,65100,0,"ss17.wav",70
Sample,65100,0,"bb04.wav",70
Sample,65100,0,"bass16.wav",70
Sample,65200,0,"close01.wav",70
Sample,65200,0,"kick02.wav",70
Sample,65200,0,"fbb01.wav",70
Sample,65200,0,"bb09.wav",70
Sample,65200,0,"kick01.wav",70
Sample,65200,0,"ve05.wav",70
Sample,65250,0,"bb09.wav",70
Sample,65300,0,"bass17.wav",70
Sample,65300,0,"fbb02.wav",70
Sample,65300,0,"ss19.wav",70
Sample,65300,0,"ff17.wav",70
Sample,65300,0,"bb09.wav",70
Sample,65400,0,"fbb03.wav",70
Sample,65400,0,"kick02.wav",70
Sample,65400,0,"bb09.wav",70
Sample,65400,0,"kick01.wav",70
Sample,65400,0,"close01.wav",70
Sample,65500,0,"bb09.wav",70
Sample,65500,0,"fbb04.wav",70
Sample,65500,0,"ss20.wav",70
Sample,65500,0,"ff18.wav",70
Sample,65500,0,"bass18.wav",70
Sample,66100,0,"bass13.wav",70
Sample,66100,0,"ss13.wav",70
Sample,66100,0,"ff13.wav",70
Sample,66300,0,"ff14.wav",70
Sample,66300,0,"bass14.wav",70
Sample,66300,0,"ss14.wav",70
Sample,66900,0,"ff13.wav",70
Sample,66900,0,"ss13.wav",70
Sample,66900,0,"bass13.wav",70
Sample,67100,0,"ff14.wav",70
Sample,67100,0,"bass14.wav",70
Sample,67100,0,"ss14.wav",70
Sample,67700,0,"bass13.wav",70
Sample,67700,0,"ss13.wav",70
Sample,67700,0,"ff13.wav",70
Sample,67900,0,"ff14.wav",70
Sample,67900,0,"bass14.wav",70
Sample,67900,0,"ss14.wav",70
Sample,68500,0,"ff13.wav",70
Sample,68500,0,"ss13.wav",70
Sample,68500,0,"bass13.wav",70
Sample,68700,0,"ff14.wav",70
Sample,68700,0,"bass14.wav",70
Sample,68700,0,"ss14.wav",70
Sample,69300,0,"ff13.wav",70
Sample,69300,0,"ss13.wav",70
Sample,69300,0,"bass13.wav",70
Sample,69500,0,"bass14.wav",70
Sample,69500,0,"ff14.wav",70
Sample,69500,0,"ss14.wav",70
Sample,69600,0,"ff11.wav",70
Sample,69600,0,"cym.wav",70
Sample,69600,0,"bass11.wav",70
Sample,69600,0,"ss11.wav",70
Sample,70000,0,"se03.wav",70
Sample,70000,0,"se02.wav",70
Sample,70100,0,"bass13.wav",70
Sample,70100,0,"ss13.wav",70
Sample,70100,0,"ff13.wav",70
Sample,70300,0,"ff14.wav",70
Sample,70300,0,"bass14.wav",70
Sample,70300,0,"ss14.wav",70
Sample,70400,0,"roll05.wav",70
Sample,73600,0,"bb01.wav",70
Sample,73600,0,"close01.wav",70
Sample,73600,0,"fs01.wav",70
Sample,73600,0,"bass01.wav",70
Sample,73600,0,"kick02.wav",70
Sample,73700,0,"bb02.wav",70
Sample,73800,0,"bass02.wav",70
Sample,73800,0,"hihat02.wav",70
Sample,73800,0,"hihat01.wav",70
Sample,73800,0,"bb03.wav",70
Sample,73800,0,"hihat03.wav",70
Sample,73900,0,"bb04.wav",70
Sample,74400,0,"close01.wav",70
Sample,74400,0,"kick02.wav",70
Sample,74400,0,"bass01.wav",70
Sample,74400,0,"bb01.wav",70
Sample,74400,0,"fs01.wav",70
Sample,74500,0,"bb02.wav",70
Sample,74600,0,"hihat03.wav",70
Sample,74600,0,"bass02.wav",70
Sample,74600,0,"hihat01.wav",70
Sample,74600,0,"bb03.wav",70
Sample,74600,0,"hihat02.wav",70
Sample,74700,0,"bb04.wav",70
Sample,75200,0,"bb01.wav",70
Sample,75200,0,"close01.wav",70
Sample,75200,0,"fs01.wav",70
Sample,75200,0,"bass01.wav",70
Sample,75200,0,"kick02.wav",70
Sample,75300,0,"bb02.wav",70
Sample,75400,0,"bass02.wav",70
Sample,75400,0,"hihat02.wav",70
Sample,75400,0,"hihat01.wav",70
Sample,75400,0,"bb03.wav",70
Sample,75400,0,"hihat03.wav",70
Sample,75500,0,"bb04.wav",70
Sample,75600,0,"kick02.wav",70
Sample,75600,0,"close01.wav",70
Sample,75600,0,"bb01.wav",70
Sample,75600,0,"bass01.wav",70
Sample,75600,0,"fs01.wav",70
Sample,75700,0,"bb02.wav",70
Sample,75800,0,"hihat03.wav",70
Sample,75800,0,"bass02.wav",70
Sample,75800,0,"bb03.wav",70
Sample,75800,0,"hihat02.wav",70
Sample,75800,0,"hihat01.wav",70
Sample,75900,0,"bb04.wav",70
Sample,76000,0,"fs01.wav",70
Sample,76000,0,"bb01.wav",70
Sample,76000,0,"close01.wav",70
Sample,76000,0,"kick02.wav",70
Sample,76000,0,"bass01_mini.wav",70
Sample,76100,0,"kick01.wav",70
Sample,76100,0,"close01.wav",70
Sample,76100,0,"bass01_mini.wav",70
Sample,76100,0,"kick02.wav",70
Sample,76100,0,"fs01.wav",70
Sample,76100,0,"bb01.wav",70
Sample,76200,0,"close01.wav",70
Sample,76200,0,"bb01.wav",70
Sample,76200,0,"fs01.wav",70
Sample,76200,0,"kick02.wav",70
Sample,76200,0,"bass01_mini.wav",70
Sample,76300,0,"kick01.wav",70
Sample,76300,0,"bb01.wav",70
Sample,76300,0,"close01.wav",70
Sample,76300,0,"fs01.wav",70
Sample,76300,0,"kick02.wav",70
Sample,76300,0,"bass01_mini.wav",70
Sample,76400,0,"kick02.wav",70
Sample,76400,0,"fs01.wav",70
Sample,76400,0,"bass01_mini.wav",70
Sample,76400,0,"close01.wav",70
Sample,76400,0,"bb01.wav",70
Sample,76500,0,"fs01.wav",70
Sample,76500,0,"kick01.wav",70
Sample,76500,0,"kick02.wav",70
Sample,76500,0,"close01.wav",70
Sample,76500,0,"bb01.wav",70
Sample,76500,0,"bass01_mini.wav",70
Sample,76600,0,"close01.wav",70
Sample,76600,0,"fs01.wav",70
Sample,76600,0,"bass01_mini.wav",70
Sample,76600,0,"bb01.wav",70
Sample,76600,0,"kick02.wav",70
Sample,76700,0,"fs01.wav",70
Sample,76700,0,"bass01_mini.wav",70
Sample,76700,0,"kick02.wav",70
Sample,76700,0,"bb01.wav",70
Sample,76700,0,"close01.wav",70
Sample,76700,0,"kick01.wav",70
Sample,76800,0,"cym.wav",70
Sample,76800,0,"close01.wav",70
Sample,76800,0,"bass01.wav",70
Sample,76800,0,"kick02.wav",70
Sample,76800,0,"bb01.wav",70
Sample,76800,0,"se01.wav",70
Sample,76800,0,"kick01.wav",70
Sample,76800,0,"fs01.wav",70
Sample,76800,0,"ride01.wav",70
Sample,76900,0,"bb02.wav",70
Sample,77000,0,"hihat02.wav",70
Sample,77000,0,"fs02.wav",70
Sample,77000,0,"ride01.wav",70
Sample,77000,0,"bass02.wav",70
Sample,77000,0,"hihat01.wav",70
Sample,77000,0,"hihat03.wav",70
Sample,77000,0,"bb03.wav",70
Sample,77100,0,"bb04.wav",70
Sample,77200,0,"fs03.wav",70
Sample,77200,0,"bass03.wav",70
Sample,77200,0,"kick01.wav",70
Sample,77200,0,"kick02.wav",70
Sample,77200,0,"bb05.wav",70
Sample,77200,0,"close01.wav",70
Sample,77200,0,"ride01.wav",70
Sample,77300,0,"fs04.wav",70
Sample,77300,0,"bass04.wav",70
Sample,77300,0,"bb06.wav",70
Sample,77400,0,"bb07.wav",70
Sample,77400,0,"hihat01.wav",70
Sample,77400,0,"ride01.wav",70
Sample,77400,0,"hihat03.wav",70
Sample,77400,0,"bass05.wav",70
Sample,77400,0,"hihat02.wav",70
Sample,77400,0,"fs05.wav",70
Sample,77500,0,"bb08.wav",70
Sample,77500,0,"fs06.wav",70
Sample,77500,0,"bass06.wav",70
Sample,77600,0,"kick01.wav",70
Sample,77600,0,"kick02.wav",70
Sample,77600,0,"bb01.wav",70
Sample,77600,0,"close01.wav",70
Sample,77600,0,"bass01.wav",70
Sample,77600,0,"fs01.wav",70
Sample,77600,0,"ride01.wav",70
Sample,77700,0,"bb02.wav",70
Sample,77800,0,"bass02.wav",70
Sample,77800,0,"hihat03.wav",70
Sample,77800,0,"ride01.wav",70
Sample,77800,0,"bb03.wav",70
Sample,77800,0,"hihat01.wav",70
Sample,77800,0,"hihat02.wav",70
Sample,77800,0,"fs02.wav",70
Sample,77900,0,"bb04.wav",70
Sample,78000,0,"kick01.wav",70
Sample,78000,0,"fs03.wav",70
Sample,78000,0,"close01.wav",70
Sample,78000,0,"bb05.wav",70
Sample,78000,0,"bass03.wav",70
Sample,78000,0,"kick02.wav",70
Sample,78000,0,"ride01.wav",70
Sample,78100,0,"bass04.wav",70
Sample,78100,0,"fs04.wav",70
Sample,78100,0,"bb06.wav",70
Sample,78200,0,"hihat03.wav",70
Sample,78200,0,"hihat02.wav",70
Sample,78200,0,"ride01.wav",70
Sample,78200,0,"fs05.wav",70
Sample,78200,0,"bb07.wav",70
Sample,78200,0,"bass05.wav",70
Sample,78200,0,"hihat01.wav",70
Sample,78300,0,"fs06.wav",70
Sample,78300,0,"bb08left.wav",70
Sample,78300,0,"bass06.wav",70
Sample,78400,0,"kick02.wav",70
Sample,78400,0,"bass01.wav",70
Sample,78400,0,"ride01.wav",70
Sample,78400,0,"bb01.wav",70
Sample,78400,0,"kick01.wav",70
Sample,78400,0,"fs01.wav",70
Sample,78400,0,"close01.wav",70
Sample,78500,0,"bb02.wav",70
Sample,78600,0,"hihat02.wav",70
Sample,78600,0,"hihat03.wav",70
Sample,78600,0,"fs02.wav",70
Sample,78600,0,"hihat01.wav",70
Sample,78600,0,"bass02.wav",70
Sample,78600,0,"bb03.wav",70
Sample,78600,0,"ride01.wav",70
Sample,78700,0,"bb04.wav",70
Sample,78800,0,"bass03.wav",70
Sample,78800,0,"fs03.wav",70
Sample,78800,0,"ride01.wav",70
Sample,78800,0,"kick01.wav",70
Sample,78800,0,"kick02.wav",70
Sample,78800,0,"close01.wav",70
Sample,78800,0,"bb05.wav",70
Sample,78900,0,"bb06.wav",70
Sample,78900,0,"bass04.wav",70
Sample,78900,0,"fs04.wav",70
Sample,79000,0,"fs05.wav",70
Sample,79000,0,"hihat01.wav",70
Sample,79000,0,"bb07.wav",70
Sample,79000,0,"hihat02.wav",70
Sample,79000,0,"hihat03.wav",70
Sample,79000,0,"bass05.wav",70
Sample,79000,0,"ride01.wav",70
Sample,79100,0,"bass06.wav",70
Sample,79100,0,"bb08.wav",70
Sample,79100,0,"fs06.wav",70
Sample,79200,0,"ride01.wav",70
Sample,79200,0,"bass01.wav",70
Sample,79200,0,"kick02.wav",70
Sample,79200,0,"close01.wav",70
Sample,79200,0,"bb01.wav",70
Sample,79200,0,"se02.wav",70
Sample,79200,0,"fs01.wav",70
Sample,79200,0,"kick01.wav",70
Sample,79300,0,"bb05.wav",70
Sample,79400,0,"ride01.wav",70
Sample,79400,0,"bass02.wav",70
Sample,79400,0,"hihat01.wav",70
Sample,79400,0,"bb03.wav",70
Sample,79400,0,"hihat03.wav",70
Sample,79400,0,"hihat02.wav",70
Sample,79400,0,"fs02.wav",70
Sample,79500,0,"bb04.wav",70
Sample,79600,0,"bb05.wav",70
Sample,79600,0,"kick02.wav",70
Sample,79600,0,"close01.wav",70
Sample,79600,0,"ride01.wav",70
Sample,79600,0,"bass03.wav",70
Sample,79600,0,"fs03.wav",70
Sample,79600,0,"kick01.wav",70
Sample,79700,0,"bass04.wav",70
Sample,79700,0,"bb06.wav",70
Sample,79700,0,"fs04.wav",70
Sample,79800,0,"ride01.wav",70
Sample,79800,0,"hihat01.wav",70
Sample,79800,0,"fs05.wav",70
Sample,79800,0,"bass05.wav",70
Sample,79800,0,"bb07.wav",70
Sample,79800,0,"hihat02.wav",70
Sample,79800,0,"hihat03.wav",70
Sample,79900,0,"bb08left.wav",70
Sample,79900,0,"fs06.wav",70
Sample,79900,0,"bass06.wav",70
Sample,80000,0,"close01.wav",70
Sample,80000,0,"kick01.wav",70
Sample,80000,0,"fs01.wav",70
Sample,80000,0,"ride01.wav",70
Sample,80000,0,"bb01.wav",70
Sample,80000,0,"kick02.wav",70
Sample,80000,0,"bass01.wav",70
Sample,80100,0,"bb02.wav",70
Sample,80200,0,"ride01.wav",70
Sample,80200,0,"hihat02.wav",70
Sample,80200,0,"hihat01.wav",70
Sample,80200,0,"bb03.wav",70
Sample,80200,0,"bass02.wav",70
Sample,80200,0,"hihat03.wav",70
Sample,80200,0,"fs02.wav",70
Sample,80300,0,"bb04.wav",70
Sample,80400,0,"bb05.wav",70
Sample,80400,0,"fs03.wav",70
Sample,80400,0,"close01.wav",70
Sample,80400,0,"ride01.wav",70
Sample,80400,0,"kick02.wav",70
Sample,80400,0,"kick01.wav",70
Sample,80400,0,"bass03.wav",70
Sample,80500,0,"fs04.wav",70
Sample,80500,0,"bass04.wav",70
Sample,80500,0,"bb06.wav",70
Sample,80600,0,"ride01.wav",70
Sample,80600,0,"hihat03.wav",70
Sample,80600,0,"bb07.wav",70
Sample,80600,0,"fs05.wav",70
Sample,80600,0,"bass05.wav",70
Sample,80600,0,"hihat01.wav",70
Sample,80600,0,"hihat02.wav",70
Sample,80700,0,"fs06.wav",70
Sample,80700,0,"bass06.wav",70
Sample,80700,0,"bb08.wav",70
Sample,80800,0,"close01.wav",70
Sample,80800,0,"kick01.wav",70
Sample,80800,0,"kick02.wav",70
Sample,80800,0,"ride01.wav",70
Sample,80800,0,"bass01.wav",70
Sample,80800,0,"fs01.wav",70
Sample,80800,0,"bb01.wav",70
Sample,80900,0,"bb02.wav",70
Sample,81000,0,"ride01.wav",70
Sample,81000,0,"hihat03.wav",70
Sample,81000,0,"hihat01.wav",70
Sample,81000,0,"hihat02.wav",70
Sample,81000,0,"fs02.wav",70
Sample,81000,0,"bb03.wav",70
Sample,81000,0,"bass02.wav",70
Sample,81100,0,"bb04.wav",70
Sample,81200,0,"fs03.wav",70
Sample,81200,0,"bass03.wav",70
Sample,81200,0,"bb05.wav",70
Sample,81200,0,"ride01.wav",70
Sample,81200,0,"kick01.wav",70
Sample,81200,0,"kick02.wav",70
Sample,81200,0,"close01.wav",70
Sample,81300,0,"bass04.wav",70
Sample,81300,0,"fs04.wav",70
Sample,81300,0,"bb06.wav",70
Sample,81400,0,"ride01.wav",70
Sample,81400,0,"bass05.wav",70
Sample,81400,0,"fs05.wav",70
Sample,81400,0,"hihat01.wav",70
Sample,81400,0,"bb07.wav",70
Sample,81400,0,"hihat03.wav",70
Sample,81400,0,"hihat02.wav",70
Sample,81500,0,"bass06.wav",70
Sample,81500,0,"bb08left.wav",70
Sample,81500,0,"fs06.wav",70
Sample,81600,0,"bb01.wav",70
Sample,81600,0,"kick01.wav",70
Sample,81600,0,"fs01.wav",70
Sample,81600,0,"ride01.wav",70
Sample,81600,0,"bass01.wav",70
Sample,81600,0,"kick02.wav",70
Sample,81600,0,"close01.wav",70
Sample,81700,0,"bb02.wav",70
Sample,81800,0,"ride01.wav",70
Sample,81800,0,"hihat02.wav",70
Sample,81800,0,"bass02.wav",70
Sample,81800,0,"bb03.wav",70
Sample,81800,0,"hihat01.wav",70
Sample,81800,0,"hihat03.wav",70
Sample,81800,0,"fs02.wav",70
Sample,81900,0,"bb04.wav",70
Sample,82000,0,"bb05.wav",70
Sample,82000,0,"close01.wav",70
Sample,82000,0,"fs03.wav",70
Sample,82000,0,"ride01.wav",70
Sample,82000,0,"kick01.wav",70
Sample,82000,0,"bass03.wav",70
Sample,82000,0,"kick02.wav",70
Sample,82100,0,"fs04.wav",70
Sample,82100,0,"bass04.wav",70
Sample,82100,0,"bb06.wav",70
Sample,82200,0,"ride01.wav",70
Sample,82200,0,"fs05.wav",70
Sample,82200,0,"hihat01.wav",70
Sample,82200,0,"bass05.wav",70
Sample,82200,0,"hihat03.wav",70
Sample,82200,0,"hihat02.wav",70
Sample,82200,0,"bb07.wav",70
Sample,82300,0,"fs06.wav",70
Sample,82300,0,"bass06.wav",70
Sample,82300,0,"bb08.wav",70
Sample,82400,0,"syn01.wav",70
Sample,82400,0,"ride01.wav",70
Sample,82400,0,"bass01.wav",70
Sample,82400,0,"fs01.wav",70
Sample,82400,0,"kick01.wav",70
Sample,82400,0,"close01.wav",70
Sample,82400,0,"bb01.wav",70
Sample,82600,0,"hihat01.wav",70
Sample,82600,0,"hihat02.wav",70
Sample,82600,0,"bass02.wav",70
Sample,82600,0,"syn02.wav",70
Sample,82600,0,"ride01.wav",70
Sample,82600,0,"bb03.wav",70
Sample,82600,0,"hihat03.wav",70
Sample,82600,0,"fs02.wav",70
Sample,82700,0,"bb04.wav",70
Sample,82800,0,"kick01.wav",70
Sample,82800,0,"bass03.wav",70
Sample,82800,0,"close01.wav",70
Sample,82800,0,"fs03.wav",70
Sample,82800,0,"ride01.wav",70
Sample,82800,0,"syn03.wav",70
Sample,82800,0,"kick02.wav",70
Sample,82900,0,"fs04.wav",70
Sample,82900,0,"bass04.wav",70
Sample,82900,0,"syn04.wav",70
Sample,83000,0,"bass05.wav",70
Sample,83000,0,"hihat01.wav",70
Sample,83000,0,"hihat02.wav",70
Sample,83000,0,"syn05.wav",70
Sample,83000,0,"fs05.wav",70
Sample,83000,0,"hihat03.wav",70
Sample,83000,0,"ride01.wav",70
Sample,83100,0,"bass06.wav",70
Sample,83100,0,"fs06.wav",70
Sample,83100,0,"syn06.wav",70
Sample,83200,0,"close01.wav",70
Sample,83200,0,"kick02.wav",70
Sample,83200,0,"fs01.wav",70
Sample,83200,0,"roll.wav",70
Sample,83200,0,"bb01.wav",70
Sample,83200,0,"syn01.wav",70
Sample,83200,0,"bass01.wav",70
Sample,83300,0,"bb02.wav",70
Sample,83400,0,"syn02.wav",70
Sample,83400,0,"hihat02.wav",70
Sample,83400,0,"bass02.wav",70
Sample,83400,0,"hihat01.wav",70
Sample,83400,0,"bb03.wav",70
Sample,83400,0,"hihat03.wav",70
Sample,83400,0,"fs02.wav",70
Sample,83500,0,"bb04.wav",70
Sample,83600,0,"bass03.wav",70
Sample,83600,0,"bb05.wav",70
Sample,83600,0,"syn03.wav",70
Sample,83600,0,"fs03.wav",70
Sample,83600,0,"kick02.wav",70
Sample,83600,0,"close01.wav",70
Sample,83700,0,"fs04.wav",70
Sample,83700,0,"bb06.wav",70
Sample,83700,0,"syn04.wav",70
Sample,83700,0,"bass04.wav",70
Sample,83800,0,"hihat01.wav",70
Sample,83800,0,"fs05.wav",70
Sample,83800,0,"bb07.wav",70
Sample,83800,0,"hihat02.wav",70
Sample,83800,0,"hihat03.wav",70
Sample,83800,0,"bass05.wav",70
Sample,83800,0,"syn05.wav",70
Sample,83900,0,"fs06.wav",70
Sample,83900,0,"syn06.wav",70
Sample,83900,0,"bb08.wav",70
Sample,83900,0,"bass06.wav",70
Sample,84000,0,"syn01.wav",70
Sample,84000,0,"close01.wav",70
Sample,84000,0,"kick02.wav",70
Sample,84000,0,"fs01.wav",70
Sample,84000,0,"bass01.wav",70
Sample,84000,0,"bb01.wav",70
Sample,84100,0,"bb02.wav",70
Sample,84200,0,"bb03.wav",70
Sample,84200,0,"syn02.wav",70
Sample,84200,0,"hihat02.wav",70
Sample,84200,0,"hihat01.wav",70
Sample,84200,0,"hihat03.wav",70
Sample,84200,0,"bass02.wav",70
Sample,84200,0,"fs02.wav",70
Sample,84300,0,"bb04.wav",70
Sample,84400,0,"bass03.wav",70
Sample,84400,0,"syn03.wav",70
Sample,84400,0,"fs03.wav",70
Sample,84400,0,"kick02.wav",70
Sample,84400,0,"close01.wav",70
Sample,84400,0,"bb05.wav",70
Sample,84500,0,"syn04.wav",70
Sample,84500,0,"bb06.wav",70
Sample,84500,0,"fs04.wav",70
Sample,84500,0,"bass04.wav",70
Sample,84600,0,"hihat03.wav",70
Sample,84600,0,"bass05.wav",70
Sample,84600,0,"hihat02.wav",70
Sample,84600,0,"syn05.wav",70
Sample,84600,0,"hihat01.wav",70
Sample,84600,0,"fs05.wav",70
Sample,84600,0,"bb07.wav",70
Sample,84700,0,"syn06.wav",70
Sample,84700,0,"bb08left.wav",70
Sample,84700,0,"bass06.wav",70
Sample,84700,0,"fs06.wav",70
Sample,84800,0,"bb01.wav",70
Sample,84800,0,"kick02.wav",70
Sample,84800,0,"close01.wav",70
Sample,84800,0,"bass01.wav",70
Sample,84800,0,"fs01.wav",70
Sample,84800,0,"syn01.wav",70
Sample,84900,0,"bb02.wav",70
Sample,85000,0,"hihat01.wav",70
Sample,85000,0,"bass02.wav",70
Sample,85000,0,"hihat02.wav",70
Sample,85000,0,"syn02.wav",70
Sample,85000,0,"hihat03.wav",70
Sample,85000,0,"bb03.wav",70
Sample,85000,0,"fs02.wav",70
Sample,85100,0,"bb04.wav",70
Sample,85200,0,"close01.wav",70
Sample,85200,0,"kick02.wav",70
Sample,85200,0,"bb05.wav",70
Sample,85200,0,"bass03.wav",70
Sample,85200,0,"syn03.wav",70
Sample,85200,0,"fs03.wav",70
Sample,85300,0,"bass04.wav",70
Sample,85300,0,"syn04.wav",70
Sample,85300,0,"bb06.wav",70
Sample,85300,0,"fs04.wav",70
Sample,85400,0,"syn05.wav",70
Sample,85400,0,"hihat03.wav",70
Sample,85400,0,"bb07.wav",70
Sample,85400,0,"hihat01.wav",70
Sample,85400,0,"hihat02.wav",70
Sample,85400,0,"fs05.wav",70
Sample,85400,0,"bass05.wav",70
Sample,85500,0,"syn06.wav",70
Sample,85500,0,"bb08.wav",70
Sample,85500,0,"fs06.wav",70
Sample,85500,0,"bass06.wav",70
Sample,85600,0,"close01.wav",70
Sample,85600,0,"bb01.wav",70
Sample,85600,0,"syn01.wav",70
Sample,85600,0,"bass01.wav",70
Sample,85600,0,"fs01.wav",70
Sample,85600,0,"kick02.wav",70
Sample,85700,0,"bb05.wav",70
Sample,85800,0,"hihat01.wav",70
Sample,85800,0,"hihat03.wav",70
Sample,85800,0,"fs02.wav",70
Sample,85800,0,"bb03.wav",70
Sample,85800,0,"bass02.wav",70
Sample,85800,0,"syn02.wav",70
Sample,85800,0,"hihat02.wav",70
Sample,85900,0,"bb04.wav",70
Sample,86000,0,"close01.wav",70
Sample,86000,0,"kick02.wav",70
Sample,86000,0,"bb05.wav",70
Sample,86000,0,"syn03.wav",70
Sample,86000,0,"bass03.wav",70
Sample,86000,0,"fs03.wav",70
Sample,86100,0,"bb06.wav",70
Sample,86100,0,"syn04.wav",70
Sample,86100,0,"bass04.wav",70
Sample,86100,0,"fs04.wav",70
Sample,86200,0,"hihat03.wav",70
Sample,86200,0,"bass05.wav",70
Sample,86200,0,"bb07.wav",70
Sample,86200,0,"hihat01.wav",70
Sample,86200,0,"hihat02.wav",70
Sample,86200,0,"syn05.wav",70
Sample,86200,0,"fs05.wav",70
Sample,86300,0,"syn06.wav",70
Sample,86300,0,"fs06.wav",70
Sample,86300,0,"bb08left.wav",70
Sample,86300,0,"bass06.wav",70
Sample,86400,0,"bb01.wav",70
Sample,86400,0,"kick02.wav",70
Sample,86400,0,"close01.wav",70
Sample,86400,0,"bass01.wav",70
Sample,86400,0,"fs01.wav",70
Sample,86400,0,"syn01.wav",70
Sample,86500,0,"bb02.wav",70
Sample,86600,0,"hihat01.wav",70
Sample,86600,0,"bass02.wav",70
Sample,86600,0,"hihat02.wav",70
Sample,86600,0,"syn02.wav",70
Sample,86600,0,"hihat03.wav",70
Sample,86600,0,"bb03.wav",70
Sample,86600,0,"fs02.wav",70
Sample,86700,0,"bb04.wav",70
Sample,86800,0,"close01.wav",70
Sample,86800,0,"kick02.wav",70
Sample,86800,0,"bass03.wav",70
Sample,86800,0,"bb05.wav",70
Sample,86800,0,"syn03.wav",70
Sample,86800,0,"fs03.wav",70
Sample,86900,0,"bass04.wav",70
Sample,86900,0,"syn04.wav",70
Sample,86900,0,"bb06.wav",70
Sample,86900,0,"fs04.wav",70
Sample,87000,0,"syn05.wav",70
Sample,87000,0,"hihat03.wav",70
Sample,87000,0,"bb07.wav",70
Sample,87000,0,"hihat01.wav",70
Sample,87000,0,"hihat02.wav",70
Sample,87000,0,"fs05.wav",70
Sample,87000,0,"bass05.wav",70
Sample,87100,0,"syn06.wav",70
Sample,87100,0,"bb08.wav",70
Sample,87100,0,"fs06.wav",70
Sample,87100,0,"bass06.wav",70
Sample,87200,0,"close01.wav",70
Sample,87200,0,"syn01.wav",70
Sample,87200,0,"fs01.wav",70
Sample,87200,0,"bass01.wav",70
Sample,87200,0,"kick02.wav",70
Sample,87200,0,"bb01.wav",70
Sample,87300,0,"bb02.wav",70
Sample,87400,0,"hihat01.wav",70
Sample,87400,0,"hihat02.wav",70
Sample,87400,0,"bass02.wav",70
Sample,87400,0,"hihat03.wav",70
Sample,87400,0,"fs02.wav",70
Sample,87400,0,"syn02.wav",70
Sample,87400,0,"bb03.wav",70
Sample,87500,0,"bb04.wav",70
Sample,87600,0,"close01.wav",70
Sample,87600,0,"bass03.wav",70
Sample,87600,0,"syn03.wav",70
Sample,87600,0,"bb05.wav",70
Sample,87600,0,"kick02.wav",70
Sample,87600,0,"fs03.wav",70
Sample,87700,0,"fs04.wav",70
Sample,87700,0,"syn04.wav",70
Sample,87700,0,"bass04.wav",70
Sample,87700,0,"bb06.wav",70
Sample,87800,0,"hihat03.wav",70
Sample,87800,0,"hihat02.wav",70
Sample,87800,0,"bb07.wav",70
Sample,87800,0,"hihat01.wav",70
Sample,87800,0,"bass05.wav",70
Sample,87800,0,"syn05.wav",70
Sample,87800,0,"fs05.wav",70
Sample,87900,0,"syn06.wav",70
Sample,87900,0,"fs06.wav",70
Sample,87900,0,"bb08left.wav",70
Sample,87900,0,"bass06.wav",70
Sample,88000,0,"bb01.wav",70
Sample,88000,0,"kick02.wav",70
Sample,88000,0,"syn01.wav",70
Sample,88000,0,"bass01.wav",70
Sample,88000,0,"fs01.wav",70
Sample,88000,0,"close01.wav",70
Sample,88100,0,"bb02.wav",70
Sample,88200,0,"hihat01.wav",70
Sample,88200,0,"bb03.wav",70
Sample,88200,0,"hihat02.wav",70
Sample,88200,0,"hihat03.wav",70
Sample,88200,0,"syn02.wav",70
Sample,88200,0,"fs02.wav",70
Sample,88200,0,"bass02.wav",70
Sample,88300,0,"bb04.wav",70
Sample,88400,0,"kick02.wav",70
Sample,88400,0,"bass03.wav",70
Sample,88400,0,"close01.wav",70
Sample,88400,0,"syn03.wav",70
Sample,88400,0,"bb05.wav",70
Sample,88400,0,"fs03.wav",70
Sample,88500,0,"bass04.wav",70
Sample,88500,0,"fs04.wav",70
Sample,88500,0,"bb06.wav",70
Sample,88500,0,"syn04.wav",70
Sample,88600,0,"fs05.wav",70
Sample,88600,0,"hihat02.wav",70
Sample,88600,0,"bass05.wav",70
Sample,88600,0,"hihat01.wav",70
Sample,88600,0,"syn05.wav",70
Sample,88600,0,"hihat03.wav",70
Sample,88600,0,"bb07.wav",70
Sample,88700,0,"bb08.wav",70
Sample,88700,0,"syn06.wav",70
Sample,88700,0,"bass01.wav",70
Sample,88700,0,"fs06.wav",70
Sample,88800,0,"hihat01mini.wav",70
Sample,88800,0,"kick02.wav",70
Sample,88800,0,"hihat03_mini.wav",70
Sample,88800,0,"bb05.wav",70
Sample,88800,0,"kick01.wav",70
Sample,88800,0,"hihat02mini.wav",70
Sample,88800,0,"bass02.wav",70
Sample,89100,0,"hihat02mini.wav",70
Sample,89100,0,"kick02_low01.wav",70
Sample,89100,0,"hihat01mini.wav",70
Sample,89100,0,"bass01.wav",70
Sample,89100,0,"bb05.wav",70
Sample,89100,0,"kick01_low01.wav",70
Sample,89100,0,"hihat03_mini.wav",70

[TimingPoints]
0,400,4,2,0,70,1,0

[HitObjects]
42,192,1600,5,0,0:0:0:0:se01.wav
384,192,4000,1,0,0:0:0:0:se02.wav
128,192,7200,1,0,0:0:0:0:d.wav
384,192,7300,1,0,0:0:0:0:kk.wav
213,192,7400,1,0,0:0:0:0:kkk.wav
298,192,7500,1,0,0:0:0:0:kkkk.wav
213,192,7600,1,0,0:0:0:0:kkkkk.wav
298,192,7700,1,0,0:0:0:0:kkkkkk.wav
213,192,7800,1,0,0:0:0:0:kkkkkkk.wav
298,192,7900,1,0,0:0:0:0:kkkkkkkk.wav
384,192,8000,1,0,0:0:0:0:syn01.wav
384,192,8200,1,0,0:0:0:0:syn02.wav
298,192,8400,1,0,0:0:0:0:syn03.wav
213,192,8500,1,0,0:0:0:0:syn04.wav
128,192,8600,1,0,0:0:0:0:syn05.wav
469,192,8700,1,0,0:0:0:0:syn06.wav
384,192,8800,1,0,0:0:0:0:syn01.wav
384,192,9000,1,0,0:0:0:0:syn02.wav
298,192,9200,1,0,0:0:0:0:syn03.wav
213,192,9300,1,0,0:0:0:0:syn04.wav
128,192,9400,1,0,0:0:0:0:syn05.wav
469,192,9500,1,0,0:0:0:0:syn06.wav
384,192,9600,1,0,0:0:0:0:syn01.wav
384,192,9800,1,0,0:0:0:0:syn02.wav
298,192,10000,1,0,0:0:0:0:syn03.wav
213,192,10100,1,0,0:0:0:0:syn04.wav
128,192,10200,1,0,0:0:0:0:syn05.wav
469,192,10300,1,0,0:0:0:0:syn06.wav
384,192,10400,1,0,0:0:0:0:syn01.wav
384,192,10600,1,0,0:0:0:0:syn02.wav
298,192,10800,1,0,0:0:0:0:syn03.wav
213,192,10900,1,0,0:0:0:0:syn04.wav
128,192,11000,1,0,0:0:0:0:syn05.wav
469,192,11100,1,0,0:0:0:0:syn06.wav
384,192,11200,1,0,0:0:0:0:syn01.wav
384,192,11400,1,0,0:0:0:0:syn02.wav
298,192,11600,1,0,0:0:0:0:syn03.wav
213,192,11700,1,0,0:0:0:0:syn04.wav
128,192,11800,1,0,0:0:0:0:syn05.wav
469,192,11900,1,0,0:0:0:0:syn06.wav
384,192,12000,1,0,0:0:0:0:syn01.wav
384,192,12200,1,0,0:0:0:0:syn02.wav
298,192,12400,1,0,0:0:0:0:syn03.wav
213,192,12500,1,0,0:0:0:0:syn04.wav
128,192,12600,1,0,0:0:0:0:syn05.wav
469,192,12700,1,0,0:0:0:0:syn06.wav
384,192,12800,1,0,0:0:0:0:syn01.wav
384,192,13000,1,0,0:0:0:0:syn02.wav
298,192,13200,1,0,0:0:0:0:syn03.wav
213,192,13300,1,0,0:0:0:0:syn04.wav
128,192,13400,1,0,0:0:0:0:syn05.wav
384,192,13500,1,0,0:0:0:0:syn01.wav
384,192,13800,1,0,0:0:0:0:syn01.wav
384,192,14100,1,0,0:0:0:0:syn01.wav
384,192,14300,1,0,0:0:0:0:syn01.wav
128,192,14400,1,0,0:0:0:0:kick02.wav
42,192,14400,1,0,0:0:0:0:cym.wav
298,192,14600,1,0,0:0:0:0:hihat02_key.wav
469,192,14600,1,0,0:0:0:0:hihat03_key.wav
128,192,14800,1,0,0:0:0:0:kick02.wav
298,192,15000,1,0,0:0:0:0:hihat02_key.wav
469,192,15000,1,0,0:0:0:0:hihat03_key.wav
128,192,15200,1,0,0:0:0:0:kick02.wav
298,192,15400,1,0,0:0:0:0:hihat02_key.wav
469,192,15400,1,0,0:0:0:0:hihat03_key.wav
128,192,15600,1,0,0:0:0:0:kick02.wav
298,192,15800,1,0,0:0:0:0:hihat02_key.wav
469,192,15800,1,0,0:0:0:0:hihat03_key.wav
128,192,16000,1,0,0:0:0:0:kick02.wav
298,192,16200,1,0,0:0:0:0:hihat02_key.wav
469,192,16200,1,0,0:0:0:0:hihat03_key.wav
128,192,16400,1,0,0:0:0:0:kick02.wav
298,192,16600,1,0,0:0:0:0:hihat02_key.wav
469,192,16600,1,0,0:0:0:0:hihat03_key.wav
128,192,16800,1,0,0:0:0:0:kick02.wav
42,192,16800,1,0,0:0:0:0:se02.wav
298,192,17000,1,0,0:0:0:0:hihat02_key.wav
469,192,17000,1,0,0:0:0:0:hihat03_key.wav
128,192,17200,1,0,0:0:0:0:kick02.wav
298,192,17400,1,0,0:0:0:0:hihat02_key.wav
469,192,17400,1,0,0:0:0:0:hihat03_key.wav
128,192,17600,1,0,0:0:0:0:kick02.wav
298,192,17800,1,0,0:0:0:0:hihat02_key.wav
469,192,17800,1,0,0:0:0:0:hihat03_key.wav
128,192,18000,1,0,0:0:0:0:kick02.wav
298,192,18200,1,0,0:0:0:0:hihat02_key.wav
469,192,18200,1,0,0:0:0:0:hihat03_key.wav
128,192,18400,1,0,0:0:0:0:kick02.wav
298,192,18600,1,0,0:0:0:0:hihat02_key.wav
469,192,18600,1,0,0:0:0:0:hihat03_key.wav
128,192,18800,1,0,0:0:0:0:kick02.wav
298,192,19000,1,0,0:0:0:0:hihat02_key.wav
469,192,19000,1,0,0:0:0:0:hihat03_key.wav
128,192,19200,1,0,0:0:0:0:kick02.wav
298,192,19400,1,0,0:0:0:0:hihat02_key.wav
469,192,19400,1,0,0:0:0:0:hihat03_key.wav
128,192,19600,1,0,0:0:0:0:kick02.wav
298,192,19800,1,0,0:0:0:0:hihat02_key.wav
469,192,19800,1,0,0:0:0:0:hihat03_key.wav
128,192,20000,1,0,0:0:0:0:kick02.wav
384,192,20100,1,0,0:0:0:0:bb05.wav
42,192,20400,1,0,0:0:0:0:bbsc.wav
128,192,20800,1,0,0:0:0:0:kick01.wav
469,192,20800,1,0,0:0:0:0:ride02.wav
42,192,20800,1,0,0:0:0:0:se01.wav
469,192,21000,1,0,0:0:0:0:ride02.wav
128,192,21200,1,0,0:0:0:0:kick01.wav
469,192,21200,1,0,0:0:0:0:ride02.wav
469,192,21400,1,0,0:0:0:0:ride02.wav
128,192,21600,1,0,0:0:0:0:kick01.wav
469,192,21600,1,0,0:0:0:0:ride02.wav
469,192,21800,1,0,0:0:0:0:ride02.wav
128,192,22000,1,0,0:0:0:0:kick01.wav
469,192,22000,1,0,0:0:0:0:ride02.wav
469,192,22200,1,0,0:0:0:0:ride02.wav
128,192,22400,1,0,0:0:0:0:kick01.wav
469,192,22400,1,0,0:0:0:0:ride02.wav
469,192,22600,1,0,0:0:0:0:ride02.wav
128,192,22800,1,0,0:0:0:0:kick01.wav
469,192,22800,1,0,0:0:0:0:ride02.wav
469,192,23000,1,0,0:0:0:0:ride02.wav
128,192,23200,1,0,0:0:0:0:kick01.wav
469,192,23200,1,0,0:0:0:0:ride02.wav
42,192,23200,1,0,0:0:0:0:se02.wav
469,192,23400,1,0,0:0:0:0:ride02.wav
128,192,23600,1,0,0:0:0:0:kick01.wav
469,192,23600,1,0,0:0:0:0:ride02.wav
469,192,23800,1,0,0:0:0:0:ride02.wav
128,192,24000,1,0,0:0:0:0:kick01.wav
469,192,24000,1,0,0:0:0:0:ride02.wav
469,192,24200,1,0,0:0:0:0:ride02.wav
128,192,24400,1,0,0:0:0:0:kick01.wav
469,192,24400,1,0,0:0:0:0:ride02.wav
469,192,24600,1,0,0:0:0:0:ride02.wav
128,192,24800,1,0,0:0:0:0:kick01.wav
469,192,24800,1,0,0:0:0:0:ride02.wav
469,192,25000,1,0,0:0:0:0:ride02.wav
128,192,25200,1,0,0:0:0:0:kick01.wav
469,192,25200,1,0,0:0:0:0:ride02.wav
469,192,25400,1,0,0:0:0:0:ride02.wav
128,192,25600,1,0,0:0:0:0:kick01.wav
469,192,25600,1,0,0:0:0:0:ride02.wav
469,192,25800,1,0,0:0:0:0:ride02.wav
128,192,26000,1,0,0:0:0:0:kick01.wav
469,192,26000,1,0,0:0:0:0:ride02.wav
469,192,26200,1,0,0:0:0:0:ride02.wav
213,192,26400,1,0,0:0:0:0:syn02.wav
384,192,26400,1,0,0:0:0:0:fs02.wav
213,192,26700,1,0,0:0:0:0:syn01.wav
384,192,26700,1,0,0:0:0:0:fs01.wav
42,192,26800,1,0,0:0:0:0:bbsc.wav
298,192,27200,1,0,0:0:0:0:v001.wav
128,192,27300,1,0,0:0:0:0:v002.wav
384,192,27500,1,0,0:0:0:0:v004.wav
128,192,27600,1,0,0:0:0:0:v005.wav
469,192,27700,1,0,0:0:0:0:v006.wav
213,192,27800,1,0,0:0:0:0:v007.wav
384,192,27900,1,0,0:0:0:0:v008.wav
128,192,28000,1,0,0:0:0:0:v009.wav
469,192,28100,1,0,0:0:0:0:v010.wav
213,192,28200,1,0,0:0:0:0:v011.wav
384,192,28300,1,0,0:0:0:0:v012.wav
298,192,28400,1,0,0:0:0:0:v013.wav
469,192,28500,1,0,0:0:0:0:v014.wav
469,192,28800,1,0,0:0:0:0:v015.wav
298,192,29000,1,0,0:0:0:0:v016.wav
128,192,29100,1,0,0:0:0:0:v017.wav
384,192,29200,1,0,0:0:0:0:v018.wav
128,192,29300,1,0,0:0:0:0:v019.wav
298,192,29400,1,0,0:0:0:0:v020.wav
128,192,29500,1,0,0:0:0:0:v021.wav
469,192,29600,1,0,0:0:0:0:v022.wav
298,192,29800,1,0,0:0:0:0:v023.wav
128,192,29900,1,0,0:0:0:0:v024.wav
469,192,30000,1,0,0:0:0:0:v025.wav
213,192,30200,1,0,0:0:0:0:v026.wav
384,192,30300,1,0,0:0:0:0:v027.wav
298,192,30400,1,0,0:0:0:0:v028.wav
298,192,30600,1,0,0:0:0:0:v030.wav
213,192,30800,1,0,0:0:0:0:v032.wav
469,192,30900,1,0,0:0:0:0:v033.wav
128,192,31000,1,0,0:0:0:0:v034.wav
384,192,31100,1,0,0:0:0:0:v035.wav
128,192,31200,1,0,0:0:0:0:v036.wav
298,192,31300,1,0,0:0:0:0:v037.wav
213,192,31400,1,0,0:0:0:0:v038.wav
128,192,31500,1,0,0:0:0:0:v039.wav
298,192,31600,1,0,0:0:0:0:v040.wav
469,192,31700,1,0,0:0:0:0:v041.wav
42,192,32000,1,0,0:0:0:0:va001.wav
469,192,32300,1,0,0:0:0:0:va002.wav
213,192,32400,1,0,0:0:0:0:va003.wav
384,192,32500,1,0,0:0:0:0:va004.wav
128,192,32600,1,0,0:0:0:0:va005.wav
384,192,32700,1,0,0:0:0:0:va006.wav
213,192,32800,1,0,0:0:0:0:va007.wav
469,192,32900,1,0,0:0:0:0:va008.wav
213,192,33000,1,0,0:0:0:0:va009.wav
469,192,33100,1,0,0:0:0:0:va010.wav
42,192,33200,1,0,0:0:0:0:va011.wav
298,192,33600,1,0,0:0:0:0:vb001.wav
384,192,33700,1,0,0:0:0:0:vb002.wav
298,192,33800,1,0,0:0:0:0:vb001.wav
384,192,33900,1,0,0:0:0:0:vb002.wav
298,192,34000,1,0,0:0:0:0:vb001.wav
128,192,34100,1,0,0:0:0:0:vb003.wav
213,192,34300,1,0,0:0:0:0:vb005.wav
469,192,34400,1,0,0:0:0:0:v009.wav
213,192,34500,1,0,0:0:0:0:v010.wav
384,192,34600,1,0,0:0:0:0:v011.wav
128,192,34700,1,0,0:0:0:0:v012.wav
298,192,34800,1,0,0:0:0:0:v013.wav
469,192,34900,1,0,0:0:0:0:v014.wav
469,192,35200,1,0,0:0:0:0:v015.wav
384,192,35400,1,0,0:0:0:0:v016.wav
128,192,35500,1,0,0:0:0:0:v017.wav
384,192,35600,1,0,0:0:0:0:v018.wav
213,192,35700,1,0,0:0:0:0:v019.wav
128,192,35800,1,0,0:0:0:0:v020.wav
213,192,35900,1,0,0:0:0:0:v021.wav
128,192,36000,1,0,0:0:0:0:vv01.wav
469,192,36100,1,0,0:0:0:0:vv02.wav
469,192,36400,1,0,0:0:0:0:vv02.wav
384,192,36600,1,0,0:0:0:0:vv03.wav
213,192,36700,1,0,0:0:0:0:vv04.wav
469,192,36800,1,0,0:0:0:0:vc001.wav
128,192,37200,1,0,0:0:0:0:vc002.wav
298,192,37600,1,0,0:0:0:0:vc003.wav
213,192,37700,1,0,0:0:0:0:vc004.wav
298,192,37800,1,0,0:0:0:0:vc005.wav
213,192,37900,1,0,0:0:0:0:vc006.wav
469,192,38000,1,0,0:0:0:0:vc007.wav
213,192,38400,1,0,0:0:0:0:vd001.wav
298,192,38700,1,0,0:0:0:0:vd002.wav
298,192,38900,1,0,0:0:0:0:vd003.wav
298,192,39100,1,0,0:0:0:0:vd004.wav
128,192,39200,1,0,0:0:0:0:vd005.wav
298,192,39300,1,0,0:0:0:0:vd006.wav
128,192,39400,1,0,0:0:0:0:vd007.wav
298,192,39500,1,0,0:0:0:0:vd008.wav
128,192,39600,1,0,0:0:0:0:vd009.wav
469,192,39700,1,0,0:0:0:0:vd010.wav
128,192,39800,1,0,0:0:0:0:vd011.wav
469,192,39900,1,0,0:0:0:0:vd012.wav
42,192,40000,1,0,0:0:0:0:cym.wav
213,192,40800,1,0,0:0:0:0:ve01.wav
469,192,40900,1,0,0:0:0:0:ve02.wav
128,192,41000,1,0,0:0:0:0:ve03.wav
384,192,41100,1,0,0:0:0:0:ve04.wav
298,192,41200,1,0,0:0:0:0:ve05.wav
213,192,42400,1,0,0:0:0:0:ve01.wav
469,192,42500,1,0,0:0:0:0:ve02.wav
128,192,42600,1,0,0:0:0:0:ve03.wav
384,192,42700,1,0,0:0:0:0:ve04.wav
298,192,42800,1,0,0:0:0:0:ve05.wav
213,192,44000,1,0,0:0:0:0:ve01.wav
469,192,44100,1,0,0:0:0:0:ve02.wav
128,192,44200,1,0,0:0:0:0:ve03.wav
384,192,44300,1,0,0:0:0:0:ve04.wav
298,192,44400,1,0,0:0:0:0:ve05.wav
213,192,45600,1,0,0:0:0:0:ve01.wav
469,192,45700,1,0,0:0:0:0:ve02.wav
128,192,45800,1,0,0:0:0:0:ve03.wav
384,192,45900,1,0,0:0:0:0:ve04.wav
298,192,46000,1,0,0:0:0:0:ve05.wav
42,192,46400,1,0,0:0:0:0:se01.wav
213,192,47200,1,0,0:0:0:0:ve01.wav
469,192,47300,1,0,0:0:0:0:ve02.wav
128,192,47400,1,0,0:0:0:0:ve03.wav
384,192,47500,1,0,0:0:0:0:ve04.wav
298,192,47600,1,0,0:0:0:0:ve05.wav
42,192,48000,1,0,0:0:0:0:se02.wav
213,192,48800,1,0,0:0:0:0:ve01.wav
469,192,48900,1,0,0:0:0:0:ve02.wav
128,192,49000,1,0,0:0:0:0:ve03.wav
384,192,49100,1,0,0:0:0:0:ve04.wav
298,192,49200,1,0,0:0:0:0:ve05.wav
128,192,49600,1,0,0:0:0:0:tr01_left.wav
213,192,49900,1,0,0:0:0:0:tr03_left2.wav
298,192,50100,1,0,0:0:0:0:tr04_left.wav
384,192,50300,1,0,0:0:0:0:tr05_left.wav
469,192,50400,1,0,0:0:0:0:tr01_right.wav
384,192,50700,1,0,0:0:0:0:tr03_right2.wav
298,192,50900,1,0,0:0:0:0:tr04_right.wav
213,192,51100,1,0,0:0:0:0:tr05_left.wav
128,192,51200,1,0,0:0:0:0:tr01_left.wav
213,192,51500,1,0,0:0:0:0:tr03_left.wav
469,192,51600,1,0,0:0:0:0:tr01_right.wav
384,192,51900,1,0,0:0:0:0:tr03_right.wav
298,192,52000,1,0,0:0:0:0:tr06.wav
298,192,52200,1,0,0:0:0:0:tr06.wav
298,192,52400,1,0,0:0:0:0:tr06.wav
298,192,52600,1,0,0:0:0:0:tr07.wav
298,192,52700,1,0,0:0:0:0:tr07.wav
42,192,52800,1,0,0:0:0:0:va011.wav
128,192,53200,1,0,0:0:0:0:cym.wav
298,192,53300,1,0,0:0:0:0:tr14.wav
384,192,53500,1,0,0:0:0:0:tr15.wav
213,192,53600,1,0,0:0:0:0:ss15.wav
128,192,53700,1,0,0:0:0:0:ss16.wav
469,192,53900,1,0,0:0:0:0:ss17.wav
213,192,54100,1,0,0:0:0:0:ss18.wav
298,192,54300,1,0,0:0:0:0:ss11.wav
128,192,54400,1,0,0:0:0:0:tr11.wav
213,192,54700,1,0,0:0:0:0:tr13.wav
298,192,54900,1,0,0:0:0:0:tr14.wav
384,192,55100,1,0,0:0:0:0:tr15.wav
298,192,55200,1,0,0:0:0:0:ss15.wav
213,192,55300,1,0,0:0:0:0:ss16.wav
298,192,55500,1,0,0:0:0:0:ss17.wav
384,192,55700,1,0,0:0:0:0:ss19.wav
469,192,55900,1,0,0:0:0:0:ss20.wav
128,192,56000,1,0,0:0:0:0:tr11.wav
42,192,56000,1,0,0:0:0:0:se02.wav
213,192,56300,1,0,0:0:0:0:tr13.wav
298,192,56500,1,0,0:0:0:0:tr14.wav
384,192,56700,1,0,0:0:0:0:tr15.wav
213,192,56800,1,0,0:0:0:0:ss15.wav
128,192,56900,1,0,0:0:0:0:ss16.wav
469,192,57100,1,0,0:0:0:0:ss17.wav
213,192,57300,1,0,0:0:0:0:ss18.wav
298,192,57500,1,0,0:0:0:0:ss11.wav
128,192,57600,1,0,0:0:0:0:tr11.wav
213,192,57900,1,0,0:0:0:0:tr13.wav
298,192,58100,1,0,0:0:0:0:tr14.wav
469,192,58300,1,0,0:0:0:0:tr15.wav
42,192,58400,1,0,0:0:0:0:scr01.wav
42,192,58600,1,0,0:0:0:0:scr01.wav
42,192,58800,1,0,0:0:0:0:scr01.wav
42,192,59000,1,0,0:0:0:0:scr01.wav
128,192,59200,1,0,0:0:0:0:tr11.wav
469,192,59200,1,0,0:0:0:0:cym.wav
42,192,59200,1,0,0:0:0:0:va011.wav
213,192,59500,1,0,0:0:0:0:tr13.wav
298,192,59700,1,0,0:0:0:0:tr14.wav
384,192,59900,1,0,0:0:0:0:tr15.wav
213,192,60000,1,0,0:0:0:0:ss15.wav
128,192,60100,1,0,0:0:0:0:ss16.wav
469,192,60300,1,0,0:0:0:0:ss17.wav
213,192,60500,1,0,0:0:0:0:ss18.wav
298,192,60700,1,0,0:0:0:0:ss11.wav
128,192,60800,1,0,0:0:0:0:tr11.wav
213,192,61100,1,0,0:0:0:0:tr13.wav
298,192,61300,1,0,0:0:0:0:tr14.wav
384,192,61500,1,0,0:0:0:0:tr15.wav
298,192,61600,1,0,0:0:0:0:ss15.wav
213,192,61700,1,0,0:0:0:0:ss16.wav
298,192,61900,1,0,0:0:0:0:ss17.wav
384,192,62100,1,0,0:0:0:0:ss19.wav
469,192,62300,1,0,0:0:0:0:ss20.wav
128,192,62400,1,0,0:0:0:0:tr11.wav
42,192,62400,1,0,0:0:0:0:se02.wav
213,192,62700,1,0,0:0:0:0:tr13.wav
298,192,62900,1,0,0:0:0:0:tr14.wav
384,192,63100,1,0,0:0:0:0:tr15.wav
213,192,63200,1,0,0:0:0:0:ss15.wav
128,192,63300,1,0,0:0:0:0:ss16.wav
469,192,63500,1,0,0:0:0:0:ss17.wav
213,192,63700,1,0,0:0:0:0:ss18.wav
298,192,63900,1,0,0:0:0:0:ss11.wav
128,192,64000,1,0,0:0:0:0:tr11.wav
213,192,64300,1,0,0:0:0:0:tr13.wav
298,192,64500,1,0,0:0:0:0:tr14.wav
469,192,64700,1,0,0:0:0:0:tr15.wav
42,192,64800,1,0,0:0:0:0:scr01.wav
42,192,65000,1,0,0:0:0:0:scr01.wav
42,192,65200,1,0,0:0:0:0:scr01.wav
42,192,65400,1,0,0:0:0:0:scr01.wav
42,192,65600,1,0,0:0:0:0:cym.wav
213,192,66000,1,0,0:0:0:0:big01.wav
298,192,66100,1,0,0:0:0:0:tr14.wav
469,192,66300,1,0,0:0:0:0:tr15.wav
42,192,66400,1,0,0:0:0:0:cym.wav
213,192,66800,1,0,0:0:0:0:big01.wav
298,192,66900,1,0,0:0:0:0:tr14.wav
469,192,67100,1,0,0:0:0:0:tr15.wav
42,192,67200,1,0,0:0:0:0:cym.wav
213,192,67600,1,0,0:0:0:0:big01.wav
298,192,67700,1,0,0:0:0:0:tr14.wav
469,192,67900,1,0,0:0:0:0:tr15.wav
42,192,68000,1,0,0:0:0:0:cym.wav
213,192,68400,1,0,0:0:0:0:big01.wav
298,192,68500,1,0,0:0:0:0:tr14.wav
469,192,68700,1,0,0:0:0:0:tr15.wav
42,192,68800,1,0,0:0:0:0:cym.wav
213,192,69200,1,0,0:0:0:0:big02.wav
298,192,69300,1,0,0:0:0:0:tr14.wav
469,192,69500,1,0,0:0:0:0:tr15.wav
128,192,69600,1,0,0:0:0:0:tr11.wav
213,192,70000,1,0,0:0:0:0:big03.wav
298,192,70100,1,0,0:0:0:0:tr14.wav
469,192,70300,1,0,0:0:0:0:tr15.wav
128,192,73600,1,0,0:0:0:0:kick01.wav
298,192,73600,1,0,0:0:0:0:syn01.wav
128,192,73800,1,0,0:0:0:0:syn02.wav
298,192,73800,1,0,0:0:0:0:fs02.wav
128,192,74400,1,0,0:0:0:0:kick01.wav
298,192,74400,1,0,0:0:0:0:syn01.wav
128,192,74600,1,0,0:0:0:0:syn02.wav
298,192,74600,1,0,0:0:0:0:fs02.wav
128,192,75200,1,0,0:0:0:0:kick01.wav
298,192,75200,1,0,0:0:0:0:syn01.wav
128,192,75400,1,0,0:0:0:0:syn02.wav
298,192,75400,1,0,0:0:0:0:fs02.wav
128,192,75600,1,0,0:0:0:0:kick01.wav
298,192,75600,1,0,0:0:0:0:syn01.wav
128,192,75800,1,0,0:0:0:0:syn02.wav
298,192,75800,1,0,0:0:0:0:fs02.wav
128,192,76000,1,0,0:0:0:0:kick01.wav
298,192,76000,1,0,0:0:0:0:syn01.wav
469,192,76100,1,0,0:0:0:0:syn01.wav
128,192,76200,1,0,0:0:0:0:kick01.wav
298,192,76200,1,0,0:0:0:0:syn01.wav
469,192,76300,1,0,0:0:0:0:syn01.wav
128,192,76400,1,0,0:0:0:0:kick01.wav
298,192,76400,1,0,0:0:0:0:syn01.wav
469,192,76500,1,0,0:0:0:0:syn01.wav
128,192,76600,1,0,0:0:0:0:kick01.wav
298,192,76600,1,0,0:0:0:0:syn01.wav
469,192,76700,1,0,0:0:0:0:syn01.wav
384,192,76800,1,0,0:0:0:0:syn01.wav
384,192,77000,1,0,0:0:0:0:syn02.wav
298,192,77200,1,0,0:0:0:0:syn03.wav
213,192,77300,1,0,0:0:0:0:syn04.wav
128,192,77400,1,0,0:0:0:0:syn05.wav
469,192,77500,1,0,0:0:0:0:syn06.wav
384,192,77600,1,0,0:0:0:0:syn01.wav
384,192,77800,1,0,0:0:0:0:syn02.wav
298,192,78000,1,0,0:0:0:0:syn03.wav
213,192,78100,1,0,0:0:0:0:syn04.wav
128,192,78200,1,0,0:0:0:0:syn05.wav
469,192,78300,1,0,0:0:0:0:syn06.wav
384,192,78400,1,0,0:0:0:0:syn01.wav
384,192,78600,1,0,0:0:0:0:syn02.wav
298,192,78800,1,0,0:0:0:0:syn03.wav
213,192,78900,1,0,0:0:0:0:syn04.wav
128,192,79000,1,0,0:0:0:0:syn05.wav
469,192,79100,1,0,0:0:0:0:syn06.wav
384,192,79200,1,0,0:0:0:0:syn01.wav
384,192,79400,1,0,0:0:0:0:syn02.wav
298,192,79600,1,0,0:0:0:0:syn03.wav
213,192,79700,1,0,0:0:0:0:syn04.wav
128,192,79800,1,0,0:0:0:0:syn05.wav
469,192,79900,1,0,0:0:0:0:syn06.wav
384,192,80000,1,0,0:0:0:0:syn01.wav
384,192,80200,1,0,0:0:0:0:syn02.wav
298,192,80400,1,0,0:0:0:0:syn03.wav
213,192,80500,1,0,0:0:0:0:syn04.wav
128,192,80600,1,0,0:0:0:0:syn05.wav
469,192,80700,1,0,0:0:0:0:syn06.wav
384,192,80800,1,0,0:0:0:0:syn01.wav
384,192,81000,1,0,0:0:0:0:syn02.wav
298,192,81200,1,0,0:0:0:0:syn03.wav
213,192,81300,1,0,0:0:0:0:syn04.wav
128,192,81400,1,0,0:0:0:0:syn05.wav
469,192,81500,1,0,0:0:0:0:syn06.wav
384,192,81600,1,0,0:0:0:0:syn01.wav
384,192,81800,1,0,0:0:0:0:syn02.wav
298,192,82000,1,0,0:0:0:0:syn03.wav
213,192,82100,1,0,0:0:0:0:syn04.wav
128,192,82200,1,0,0:0:0:0:syn05.wav
469,192,82300,1,0,0:0:0:0:syn06.wav
128,192,82400,1,0,0:0:0:0:kick02.wav
384,192,82500,1,0,0:0:0:0:bb05.wav
42,192,82800,1,0,0:0:0:0:bbsc.wav
128,192,83200,1,0,0:0:0:0:kick01.wav
469,192,83200,1,0,0:0:0:0:ride02.wav
42,192,83200,1,0,0:0:0:0:se01.wav
469,192,83400,1,0,0:0:0:0:ride02.wav
128,192,83600,1,0,0:0:0:0:kick01.wav
469,192,83600,1,0,0:0:0:0:ride02.wav
469,192,83800,1,0,0:0:0:0:ride02.wav
128,192,84000,1,0,0:0:0:0:kick01.wav
469,192,84000,1,0,0:0:0:0:ride02.wav
469,192,84200,1,0,0:0:0:0:ride02.wav
128,192,84400,1,0,0:0:0:0:kick01.wav
469,192,84400,1,0,0:0:0:0:ride02.wav
469,192,84600,1,0,0:0:0:0:ride02.wav
128,192,84800,1,0,0:0:0:0:kick01.wav
469,192,84800,1,0,0:0:0:0:ride02.wav
469,192,85000,1,0,0:0:0:0:ride02.wav
128,192,85200,1,0,0:0:0:0:kick01.wav
469,192,85200,1,0,0:0:0:0:ride02.wav
469,192,85400,1,0,0:0:0:0:ride02.wav
128,192,85600,1,0,0:0:0:0:kick01.wav
469,192,85600,1,0,0:0:0:0:ride02.wav
42,192,85600,1,0,0:0:0:0:se02.wav
469,192,85800,1,0,0:0:0:0:ride02.wav
128,192,86000,1,0,0:0:0:0:kick01.wav
469,192,86000,1,0,0:0:0:0:ride02.wav
469,192,86200,1,0,0:0:0:0:ride02.wav
128,192,86400,1,0,0:0:0:0:kick01.wav
469,192,86400,1,0,0:0:0:0:ride02.wav
469,192,86600,1,0,0:0:0:0:ride02.wav
128,192,86800,1,0,0:0:0:0:kick01.wav
469,192,86800,1,0,0:0:0:0:ride02.wav
469,192,87000,1,0,0:0:0:0:ride02.wav
128,192,87200,1,0,0:0:0:0:kick01.wav
469,192,87200,1,0,0:0:0:0:ride02.wav
469,192,87400,1,0,0:0:0:0:ride02.wav
128,192,87600,1,0,0:0:0:0:kick01.wav
469,192,87600,1,0,0:0:0:0:ride02.wav
469,192,87800,1,0,0:0:0:0:ride02.wav
128,192,88000,1,0,0:0:0:0:kick01.wav
469,192,88000,1,0,0:0:0:0:ride02.wav
469,192,88200,1,0,0:0:0:0:ride02.wav
128,192,88400,1,0,0:0:0:0:kick01.wav
469,192,88400,1,0,0:0:0:0:ride02.wav
469,192,88600,1,0,0:0:0:0:ride02.wav
213,192,88800,1,0,0:0:0:0:syn02.wav
384,192,88800,1,0,0:0:0:0:fs02.wav
213,192,89100,1,0,0:0:0:0:syn01.wav
384,192,89100,1,0,0:0:0:0:fs01.wav
42,192,89200,1,0,0:0:0:0:bbsc.wav
