osu file format v14

[General]
AudioFilename: audio.mp3
AudioLeadIn: 0
PreviewTime: 65528
Countdown: 1
SampleSet: Soft
StackLeniency: 0.7
Mode: 0
LetterboxInBreaks: 0
WidescreenStoryboard: 0

[Editor]
DistanceSpacing: 1.3
BeatDivisor: 4
GridSize: 4
TimelineZoom: 2.200005

[Metadata]
Title:Zeroichi Kiseki -TV Size-
TitleUnicode:ゼロイチキセキ TV Size
Artist:Nanjou Yoshino
ArtistUnicode:南條愛乃
Creator:[ -BELYOND- ]
Version:Kiseki
Source:ネトゲの嫁は女の子じゃないと思った?
Tags:Netoge no Yome wa Onnanoko ja Nai to Omotta? Ending
BeatmapID:984925
BeatmapSetID:459802

[Difficulty]
HPDrainRate:5
CircleSize:4
OverallDifficulty:8
ApproachRate:9
SliderMultiplier:1.7
SliderTickRate:1

[Events]
//Background and Video events
Video,0,"ネト嫁edゼロイチキセキ.mp4"
0,0,"bg.jpg",0,0
//Break Periods
//Storyboard Layer 0 (Background)
//Storyboard Layer 1 (Fail)
//Storyboard Layer 2 (Pass)
//Storyboard Layer 3 (Foreground)
//Storyboard Sound Samples

[TimingPoints]
-61,372.670807453416,4,2,0,30,1,0
125,-133.333333333333,4,2,0,30,0,0
5528,-100,4,2,0,50,0,0
14845,-133.333333333333,4,2,0,50,0,0
26771,-80,4,2,1,50,0,0
39441,-133.333333333333,4,2,0,50,0,0
44659,-80,4,2,1,60,0,0
53137,-80,4,2,1,80,0,1
84907,-133.333333333333,4,2,0,40,0,0

[HitObjects]
224,268,125,5,0,0:0:0:0:
224,268,311,1,0,0:0:0:0:
180,316,497,2,0,P|156:257|196:204,2,127.500004863739
260,344,1429,5,0,0:0:0:0:
332,304,1616,1,0,0:0:0:0:
360,224,1802,1,0,0:0:0:0:
348,144,1988,2,0,B|332:148|332:148|288:108|230:138|224:172,1,127.500004863739
288,200,2547,1,0,0:0:0:0:
288,200,2734,1,0,0:0:0:0:
264,264,2920,6,0,P|228:235|220:196,2,63.7500024318696
264,264,3479,2,0,P|247:324|189:343,1,127.500004863739
332,320,4038,1,0,0:0:0:0:
416,248,4224,1,0,0:0:0:0:
416,140,4411,2,0,P|356:154|316:132,1,95.6250036478044
327,105,4783,2,0,P|371:120|416:104,1,95.6250036478044
412,72,5156,2,0,P|352:86|312:64,1,95.6250036478044
244,32,5529,1,0,0:0:0:0:
244,32,5901,5,0,0:0:0:0:
164,132,6088,1,0,0:0:0:0:
84,32,6274,1,0,0:0:0:0:
120,184,6460,2,0,P|200:190|220:100,1,170
236,112,6926,1,0,0:0:0:0:
244,108,7019,2,0,L|336:76,1,85
300,4,7392,5,0,0:0:0:0:
354,153,7578,1,0,0:0:0:0:
420,45,7765,1,0,0:0:0:0:
416,172,7951,2,0,P|354:221|289:176,1,170
288,184,8417,1,0,0:0:0:0:
288,196,8510,2,0,L|288:280,1,85
404,284,8882,5,0,0:0:0:0:
288,356,9069,1,0,0:0:0:0:
172,284,9255,1,0,0:0:0:0:
356,228,9442,2,0,P|407:292|352:356,1,170
368,356,9907,1,0,0:0:0:0:
376,356,10001,2,0,L|468:356,1,85
356,228,10373,6,0,P|348:169|420:172,1,127.5
428,148,10746,2,0,B|412:80|336:92,1,85
248,152,11119,2,0,P|192:170|169:117,1,127.5
144,96,11492,2,0,B|100:116|104:172,1,85
160,264,11864,6,0,P|208:276|252:256,1,85
164,100,12237,1,0,0:0:0:0:
208,302,12423,6,0,P|256:288|284:249,1,85
164,100,12796,1,0,0:0:0:0:
270,311,12982,6,0,P|304:275|309:227,1,85
168,100,13355,1,0,0:0:0:0:
328,288,13541,6,0,P|340:240|320:195,1,85
164,100,13914,1,0,0:0:0:0:
366,239,14100,6,0,P|352:191|313:163,1,85
164,100,14473,1,0,0:0:0:0:
164,100,14566,1,0,0:0:0:0:
165,100,14659,1,0,0:0:0:0:
165,100,14752,1,0,0:0:0:0:
165,100,14845,6,0,P|200:92|236:108,1,63.7500024318696
336,168,15218,1,0,0:0:0:0:
320,56,15404,1,0,0:0:0:0:
452,64,15591,2,0,P|423:130|408:140,1,63.7500024318696
336,168,15963,1,0,0:0:0:0:
472,248,16150,6,0,P|436:260|404:252,1,63.7500024318696
336,168,16522,1,0,0:0:0:0:
240,260,16709,2,0,P|196:224|236:180,1,127.500004863739
340,184,17268,1,0,0:0:0:0:
232,176,17454,1,0,0:0:0:0:
340,184,17640,1,0,0:0:0:0:
228,96,17827,6,0,L|228:32,1,63.7500024318696
336,180,18199,1,0,0:0:0:0:
192,280,18386,1,0,0:0:0:0:
197,138,18572,2,0,P|221:186|249:202,1,63.7500024318696
320,256,18945,1,0,0:0:0:0:
404,352,19131,6,0,L|303:353,1,95.6250036478044
296,336,19504,1,0,0:0:0:0:
291,173,19690,2,0,P|293:101|248:124,1,127.500004863739
164,168,20249,1,0,0:0:0:0:
264,104,20435,1,0,0:0:0:0:
164,168,20622,1,0,0:0:0:0:
268,108,20808,5,0,0:0:0:0:
420,112,20994,1,0,0:0:0:0:
348,40,21181,1,0,0:0:0:0:
296,196,21367,1,0,0:0:0:0:
404,196,21553,2,0,L|404:280,1,63.7500024318696
464,348,21926,1,0,0:0:0:0:
300,256,22112,6,0,L|300:184,1,63.7500024318696
272,68,22485,1,0,0:0:0:0:
272,68,22671,2,0,P|219:49|223:103,1,127.500004863739
300,192,23230,1,0,0:0:0:0:
220,101,23417,1,0,0:0:0:0:
304,196,23603,1,0,0:0:0:0:
368,104,23789,6,0,L|444:104,1,63.7500024318696
424,224,24162,1,0,0:0:0:0:
288,268,24348,2,0,L|212:268,1,63.7500024318696
116,220,24721,1,0,0:0:0:0:
172,132,24907,2,0,L|244:132,1,63.7500024318696
336,168,25280,6,0,L|336:236,1,63.7500024318696
428,108,25653,1,0,0:0:0:0:
432,108,26025,2,0,P|432:144|416:176,1,63.7500024318696
400,176,26305,1,0,0:0:0:0:
368,160,26398,1,0,0:0:0:0:
336,140,26491,1,0,0:0:0:0:
312,184,26584,1,0,0:0:0:0:
288,224,26678,1,0,0:0:0:0:
272,256,26771,6,0,P|191:301|162:213,1,212.5
206,83,27330,2,0,P|288:39|316:128,1,212.5
76,296,27889,2,0,B|92:320|92:320|171:298,1,106.25,8|0,0:0|0:0,0:0:0:0:
324,268,28262,5,8,0:0:0:0:
380,152,28448,1,0,0:0:0:0:
200,220,28633,2,2,P|164:160|160:120,1,106.25
340,232,29007,1,8,0:0:0:0:
392,96,29193,1,0,0:0:0:0:
204,256,29379,2,2,P|168:196|164:156,1,106.25
300,80,29752,6,0,P|391:65|388:158,1,212.5
260,308,30311,2,0,P|169:323|172:230,1,212.5
441,190,30870,2,0,B|457:158|457:158|381:158,1,106.25
172,229,31243,5,8,0:0:0:0:
260,308,31429,1,0,0:0:0:0:
392,172,31616,2,2,P|388:112|344:76,1,106.25
168,104,31988,1,8,0:0:0:0:
280,256,32174,1,0,0:0:0:0:
412,116,32361,2,2,P|411:64|375:27,1,106.25
176,296,32734,6,6,B|136:300|136:300|76:260,1,106.25
188,144,33106,2,2,B|220:128|220:128|308:144,1,106.25
108,56,33479,1,4,0:0:0:0:
144,228,33665,1,0,0:0:0:0:
296,48,33852,2,2,B|344:24|404:56,1,106.25
404,60,34131,1,2,0:0:0:0:
408,68,34224,6,0,P|416:128|384:204,1,106.25
290,246,34597,2,2,P|289:193|308:144,1,106.25
452,332,34970,2,0,P|399:327|350:307,1,106.25
252,64,35342,2,8,P|304:72|352:96,1,106.25
416,240,35715,5,4,0:0:0:0:
248,292,35901,1,4,0:0:0:0:
248,292,36088,2,2,P|192:252|180:192,1,106.25
160,60,36461,1,0,0:0:0:0:
308,120,36647,1,0,0:0:0:0:
179,218,36833,1,8,0:0:0:0:
308,120,37020,1,2,0:0:0:0:
124,88,37206,5,12,0:0:0:0:
244,260,37392,1,12,0:0:0:0:
48,180,37579,1,12,0:0:0:0:
256,144,37765,1,12,0:0:0:0:
88,272,37951,1,10,0:0:0:0:
200,92,38138,1,10,0:0:0:0:
156,320,38324,1,8,0:0:0:0:
136,292,38417,1,8,0:0:0:0:
128,268,38510,1,8,0:0:0:0:
120,232,38603,1,8,0:0:0:0:
120,192,38697,5,12,0:0:0:0:
292,324,38883,1,12,0:0:0:0:
328,104,39069,1,12,0:0:0:0:
328,104,39441,1,0,0:0:0:0:
388,180,39628,1,0,0:0:0:0:
472,140,39814,1,0,0:0:0:0:
424,232,40001,6,0,P|364:244|324:196,1,127.500004863739
324,198,40560,1,8,0:0:0:0:
168,344,40933,1,8,0:0:0:0:
168,344,41305,2,0,P|143:298|148:272,1,63.7500024318696
40,304,41678,5,0,0:0:0:0:
136,200,41864,1,0,0:0:0:0:
248,272,42050,1,0,0:0:0:0:
136,200,42237,1,0,0:0:0:0:
44,136,42423,1,0,0:0:0:0:
70,117,42516,1,0,0:0:0:0:
99,104,42609,1,0,0:0:0:0:
129,97,42702,1,0,0:0:0:0:
161,95,42795,1,0,0:0:0:0:
193,100,42888,1,0,0:0:0:0:
223,110,42982,1,0,0:0:0:0:
251,126,43075,1,0,0:0:0:0:
275,146,43168,6,0,L|276:216,1,63.7500024318696
220,320,43541,1,0,0:0:0:0:
220,320,43914,2,0,L|220:248,1,63.7500024318696
272,116,44286,1,0,0:0:0:0:
284,108,44379,1,0,0:0:0:0:
300,100,44472,1,0,0:0:0:0:
312,92,44565,1,0,0:0:0:0:
324,84,44659,6,4,B|344:72|344:72|316:156,1,106.25
280,328,45032,6,4,B|260:340|260:340|288:256,1,106.25
472,228,45404,6,4,B|471:242|471:242|368:224,1,106.25
172,156,45777,6,4,B|147:159|147:159|234:177,1,106.25
392,152,46150,6,0,L|484:88,1,106.25
216,252,46522,2,2,L|96:328,1,106.25
192,56,46895,1,0,0:0:0:0:
198,60,47268,5,0,0:0:0:0:
198,60,47454,1,0,0:0:0:0:
226,290,47640,1,0,0:0:0:0:
339,87,47826,1,0,0:0:0:0:
129,186,48012,1,0,0:0:0:0:
340,232,48199,1,0,0:0:0:0:
340,232,48758,5,0,0:0:0:0:
336,232,48944,1,0,0:0:0:0:
140,120,49131,1,12,0:0:0:0:
364,140,49318,1,12,0:0:0:0:
184,12,49504,1,12,0:0:0:0:
128,228,49690,1,12,0:0:0:0:
128,228,50249,5,0,0:0:0:0:
128,228,50436,1,0,0:0:0:0:
348,196,50622,1,12,0:0:0:0:
136,128,50808,1,12,0:0:0:0:
360,120,50995,1,12,0:0:0:0:
152,44,51181,1,12,0:0:0:0:
152,44,51554,5,8,0:0:0:0:
348,152,51740,1,8,0:0:0:0:
140,196,51926,2,2,P|166:302|256:260,1,212.5
192,240,52485,2,0,L|120:336,1,106.25
128,328,53044,1,0,0:0:0:0:
32,188,53230,1,0,0:0:0:0:
144,68,53417,1,0,0:0:0:0:
136,200,53603,6,4,P|128:276|152:320,1,106.25
316,188,53976,2,2,P|328:124|316:72,1,106.25
216,236,54349,1,0,0:0:0:0:
360,316,54535,1,0,0:0:0:0:
452,188,54721,1,10,0:0:0:0:
380,52,54908,6,0,B|356:20|356:20|312:88|196:84,1,212.5
60,208,55467,2,2,P|88:148|76:92,1,106.25
248,208,55839,2,0,P|256:276|276:316,1,106.25
356,136,56212,1,8,0:0:0:0:
164,132,56398,1,8,0:0:0:0:
164,132,56492,1,8,0:0:0:0:
164,132,56585,6,4,P|200:164|272:140,1,106.25
408,136,56957,2,2,P|428:188|412:248,1,106.25
260,330,57330,1,0,0:0:0:0:
156,156,57516,2,2,P|206:141|257:153,1,106.25
392,288,57889,6,4,B|416:336|416:336|332:304|256:332,1,212.5
257,153,58448,1,8,0:0:0:0:
412,24,58634,1,8,0:0:0:0:
412,24,58728,1,8,0:0:0:0:
412,24,58821,2,0,P|392:80|400:126,1,106.25,0|2,0:0|0:0,0:0:0:0:
472,220,59193,2,2,P|496:280|472:332,1,106.25
304,240,59566,6,4,B|256:180|312:120,1,106.25
399,124,59938,1,0,0:0:0:0:
288,48,60124,1,0,0:0:0:0:
176,188,60311,2,0,L|52:188,1,106.25
180,264,60683,1,0,0:0:0:0:
264,72,60869,1,0,0:0:0:0:
352,176,61056,2,0,L|458:176,1,106.25
416,104,61429,6,2,L|309:104,1,106.25
320,296,61802,2,0,P|287:254|278:202,1,106.25
148,64,62174,2,2,P|180:105|189:157,1,106.25
52,340,62547,1,12,0:0:0:0:
272,144,62734,1,12,0:0:0:0:
64,296,62920,1,12,0:0:0:0:
312,152,63106,1,12,0:0:0:0:
312,152,63479,1,8,0:0:0:0:
312,152,63572,1,8,0:0:0:0:
312,152,63665,5,8,0:0:0:0:
156,120,63852,1,8,0:0:0:0:
388,84,64038,1,12,0:0:0:0:
112,208,64224,1,12,0:0:0:0:
440,172,64411,1,12,0:0:0:0:
68,108,64597,1,12,0:0:0:0:
88,296,64783,5,4,0:0:0:0:
104,276,64877,1,0,0:0:0:0:
120,256,64970,1,8,0:0:0:0:
140,240,65063,1,0,0:0:0:0:
160,220,65156,1,12,0:0:0:0:
184,204,65249,1,8,0:0:0:0:
208,192,65342,1,8,0:0:0:0:
236,188,65436,1,8,0:0:0:0:
272,196,65529,6,4,P|292:112|284:44,1,106.25
104,68,65901,2,2,P|132:124|128:184,1,106.25
124,364,66274,1,0,0:0:0:0:
236,208,66461,1,0,0:0:0:0:
60,284,66647,1,10,0:0:0:0:
240,348,66832,1,0,0:0:0:0:
424,292,67020,6,0,L|404:188,1,106.25
316,16,67392,1,10,0:0:0:0:
332,216,67579,1,10,0:0:0:0:
352,184,67672,1,10,0:0:0:0:
372,160,67765,1,2,0:0:0:0:
260,316,67950,1,0,0:0:0:0:
260,316,68043,1,0,0:0:0:0:
260,316,68137,2,0,L|148:316,1,106.25
256,156,68509,6,12,B|265:139|265:139|364:140,1,106.25
408,324,68882,2,0,L|408:216,1,106.25
312,52,69255,1,0,0:0:0:0:
300,244,69442,1,0,0:0:0:0:
428,104,69628,1,10,0:0:0:0:
240,128,69814,1,0,0:0:0:0:
240,128,69907,1,0,0:0:0:0:
240,128,70000,6,0,L|100:128,1,106.25
280,4,70373,1,10,0:0:0:0:
324,192,70560,1,10,0:0:0:0:
286,191,70653,1,10,0:0:0:0:
258,189,70746,1,8,0:0:0:0:
227,188,70839,1,8,0:0:0:0:
203,186,70932,1,8,0:0:0:0:
252,0,71119,1,10,0:0:0:0:
392,128,71304,2,0,L|348:184,1,53.125
296,232,71491,5,8,0:0:0:0:
292,84,71678,1,0,0:0:0:0:
248,220,71864,1,8,0:0:0:0:
196,72,72050,1,0,0:0:0:0:
204,232,72236,1,8,0:0:0:0:
104,124,72422,1,0,0:0:0:0:
172,272,72609,1,8,0:0:0:0:
44,204,72795,1,0,0:0:0:0:
56,344,72981,6,0,B|80:356|80:356|176:336,1,106.25
344,300,73354,1,8,0:0:0:0:
236,124,73540,1,0,0:0:0:0:
232,316,73727,1,0,0:0:0:0:
364,176,73913,1,0,0:0:0:0:
180,228,74099,1,8,0:0:0:0:
356,304,74286,1,0,0:0:0:0:
448,136,74472,6,4,B|428:96|428:96|260:124,1,212.5
92,212,75031,1,0,0:0:0:0:
92,212,75124,1,0,0:0:0:0:
92,212,75217,2,8,L|152:216,1,53.125
336,232,75404,1,8,0:0:0:0:
336,232,75777,6,4,B|380:200|472:176|472:176|388:128,1,212.5
415,143,76336,1,8,0:0:0:0:
144,52,76522,1,0,0:0:0:0:
144,52,76615,1,0,0:0:0:0:
144,52,76709,2,0,L|96:168,1,106.25
230,239,77082,2,2,L|268:136,1,106.25
264,139,77454,1,8,0:0:0:0:
260,144,78013,2,8,L|200:144,1,53.125
60,152,78200,1,8,0:0:0:0:
68,184,78293,1,8,0:0:0:0:
80,212,78386,2,8,L|144:208,1,53.125
188,220,78572,2,8,L|124:252,1,53.125
40,308,78759,6,4,P|144:340|248:340,1,212.5
280,336,79224,1,0,0:0:0:0:
308,324,79318,1,0,0:0:0:0:
340,312,79411,1,0,0:0:0:0:
368,296,79504,1,8,0:0:0:0:
392,280,79597,1,8,0:0:0:0:
416,260,79690,2,12,P|440:196|436:136,1,106.25
344,48,80063,2,0,P|328:112|340:168,1,106.25
372,308,80436,5,2,0:0:0:0:
436,128,80622,1,2,0:0:0:0:
288,204,80808,2,6,L|164:204,1,106.25
412,284,81181,1,0,0:0:0:0:
280,196,81367,1,0,0:0:0:0:
456,96,81554,1,2,0:0:0:0:
388,276,81740,6,6,P|280:272|180:224,1,212.5
312,376,82299,1,8,0:0:0:0:
336,188,82485,1,0,0:0:0:0:
188,312,82672,1,0,0:0:0:0:
324,180,82858,1,0,0:0:0:0:
136,184,83043,1,2,0:0:0:0:
364,236,83230,6,12,P|367:129|271:140,1,212.5
248,148,83696,1,8,0:0:0:0:
216,152,83789,2,8,P|164:92|188:56,1,106.25
176,60,84068,1,8,0:0:0:0:
188,44,84161,2,8,P|264:28|288:76,1,106.25
287,56,84441,1,8,0:0:0:0:
297,76,84534,2,8,P|271:151|225:135,1,106.25,8|8,3:0|3:0,3:0:0:0:
248,152,84813,1,8,3:0:0:0:
236,148,84908,6,12,B|192:36|120:36|0:176|176:300|256:348|256:348|316:304|512:172|408:36|312:36|280:148,1,924.375035262109
