osu file format v14

[General]
AudioFilename: audio.ogg
AudioLeadIn: 0
PreviewTime: 59866
Countdown: 0
SampleSet: Soft
StackLeniency: 0.7
Mode: 0
LetterboxInBreaks: 0
WidescreenStoryboard: 1

[Editor]
DistanceSpacing: 1
BeatDivisor: 4
GridSize: 4
TimelineZoom: 1.4

[Metadata]
Title:Tasogare no Starlight (TV Size)
TitleUnicode:黄昏のスタアライト (TV Size)
Artist:Nanjo Yoshino
ArtistUnicode:南條愛乃
Creator:Sayama Kaede
Version:Normal
Source:グリザイアの楽園
Tags:suzuaki_rin japanese jpop j pop j-pop anime ed ending visual novel vn eroge galgame video game カプリスの繭 caprice mayu le eden de la grisaia no rakuen frontwing front wing フロントウィング Elements Garden 藤間仁 Fujima Hitoshi ナンジョルノ
BeatmapID:4143113
BeatmapSetID:1993718

[Difficulty]
HPDrainRate:3
CircleSize:3
OverallDifficulty:3
ApproachRate:5
SliderMultiplier:1.1
SliderTickRate:1

[Events]
//Background and Video events
0,0,"a3.jpg",0,0
//Break Periods
//Storyboard Layer 0 (Background)
//Storyboard Layer 1 (Fail)
//Storyboard Layer 2 (Pass)
//Storyboard Layer 3 (Foreground)
//Storyboard Layer 4 (Overlay)
//Storyboard Sound Samples

[TimingPoints]
3617,394.736842105263,4,2,1,60,1,0
3617,-111.111111111111,4,2,1,60,0,0
5985,-111.111111111111,4,2,1,65,0,0
6774,-99.9999999999999,4,2,1,75,0,0
13090,-99.9999999999999,4,2,1,80,0,0
14077,-99.9999999999999,4,2,1,60,0,0
14669,-99.9999999999999,4,2,1,80,0,0
15163,-99.9999999999999,4,2,1,60,0,0
16248,-99.9999999999999,4,2,1,75,0,0
17827,-99.9999999999999,4,2,1,80,0,0
18419,-99.9999999999999,4,2,1,55,0,0
19406,-111.111111111111,4,2,1,60,0,0
30656,-111.111111111111,4,2,1,65,0,0
32038,-111.111111111111,4,2,1,65,0,0
41709,-111.111111111111,4,2,1,80,0,0
44669,-111.111111111111,4,2,1,60,0,0
50985,-111.111111111111,4,2,1,70,0,0
54143,-111.111111111111,4,2,1,75,0,0
57301,-111.111111111111,4,2,1,80,0,0
60459,-100,4,2,1,90,0,1
85722,-100,4,2,1,70,0,0
87301,-100,4,2,1,70,0,0

[Colours]
Combo1 : 99,235,160
Combo2 : 112,222,235
Combo3 : 184,116,239
Combo4 : 242,149,211

[HitObjects]
234,54,3617,6,0,P|197:63|179:124,1,98.9999969787598,4|2,3:2|0:2,0:0:0:0:
254,176,4406,2,0,L|359:163,1,98.9999969787598,4|2,3:2|0:2,0:0:0:0:
437,214,5195,1,4,3:2:0:0:
288,344,5985,2,0,P|233:340|209:299,1,98.9999969787598,4|0,3:2|3:2,0:0:0:0:
165,205,6774,6,0,L|49:221,1,110,4|8,3:2|3:2,0:2:0:0:
13,193,7367,1,0,0:2:0:0:
13,193,7564,2,0,P|-10:148|13:93,1,110,0|8,3:2|3:2,0:0:0:0:
108,45,8353,1,0,3:2:0:0:
191,116,8748,2,0,L|254:104,1,55,8|0,3:2|0:2,0:2:0:0:
297,122,9143,2,0,P|362:117|383:74,1,110,0|8,3:2|3:2,0:0:0:0:
470,17,9932,6,0,P|509:61|502:125,1,110,4|8,3:2|3:2,0:2:0:0:
475,153,10524,1,0,0:2:0:0:
475,153,10722,2,0,L|486:265,1,110,0|8,3:2|3:2,0:0:0:0:
432,358,11511,1,0,3:2:0:0:
342,294,11906,2,0,L|272:301,1,55,8|0,3:2|0:2,0:2:0:0:
243,332,12301,2,0,P|197:298|206:237,1,110,0|8,3:2|3:2,0:0:0:0:
264,162,13090,5,4,3:2:0:0:
72,48,14077,2,0,P|34:45|2:2,2,82.4999999999999,0|0|4,3:2|3:2|3:2,0:2:0:0:
318,26,15656,2,0,P|359:25|396:66,1,82.4999999999999,0|0,3:2|3:2,0:2:0:0:
375,131,16248,6,0,L|382:205,1,55,4|0,3:2|3:2,0:2:0:0:
385,240,16643,2,0,P|419:240|457:225,2,55,0|0|8,3:2|3:2|3:2,0:2:0:0:
332,257,17235,1,0,3:2:0:0:
332,257,17432,2,0,L|263:245,1,55,8|0,3:2|3:2,0:0:0:0:
223,237,17827,2,0,P|180:250|156:285,1,82.5,4|0,3:2|3:2,0:2:0:0:
158,278,19406,6,0,P|117:281|73:238,1,98.9999969787598,4|0,3:2|3:2,0:0:0:0:
42,151,20195,1,0,3:2:0:0:
57,53,20590,1,0,3:2:0:0:
157,43,20985,2,0,P|217:32|257:70,1,98.9999969787598,0|0,3:2|3:2,0:0:0:0:
226,148,21774,1,0,3:2:0:0:
263,239,22169,1,0,3:2:0:0:
207,320,22564,6,0,P|233:364|290:363,1,98.9999969787598,0|0,3:2|3:2,0:0:0:0:
374,348,23353,1,0,3:2:0:0:
467,315,23748,1,0,3:0:0:0:
482,215,24143,2,0,P|506:176|486:127,1,98.9999969787598,0|0,3:2|3:2,0:0:0:0:
416,61,24932,1,0,3:2:0:0:
327,105,25327,1,0,3:2:0:0:
295,198,25722,6,0,L|308:314,1,98.9999969787598,0|0,3:2|3:2,0:0:0:0:
239,369,26511,1,0,3:2:0:0:
155,315,26906,1,0,3:2:0:0:
134,217,27301,2,0,P|87:217|52:176,1,98.9999969787598,0|0,3:2|3:2,0:2:0:0:
7,93,28090,1,0,3:2:0:0:
81,27,28485,1,0,3:2:0:0:
170,74,28880,6,0,B|226:68|219:117|259:111,1,98.9999969787598,0|0,3:2|3:2,0:2:0:0:
336,53,29669,1,0,3:2:0:0:
424,108,30064,1,0,3:2:0:0:
424,108,30261,1,0,0:2:0:0:
376,195,30656,1,4,3:2:0:0:
454,254,31051,2,0,L|516:244,2,49.4999984893799,4|0|0,3:2|0:2|3:2,0:0:0:0:
424,293,31643,1,2,3:2:0:0:
343,351,32038,6,0,P|312:343|288:282,1,98.9999969787598,6|8,3:2|3:2,0:2:0:0:
312,243,32630,1,0,0:2:0:0:
312,243,32827,2,0,L|292:142,1,98.9999969787598,0|8,3:2|3:2,0:2:0:0:
339,58,33616,1,0,3:2:0:0:
258,0,34011,2,0,L|199:12,1,49.4999984893799,8|0,3:2|0:2,0:2:0:0:
160,19,34406,2,0,P|169:66|121:98,1,98.9999969787598,2|10,3:2|3:2,0:2:0:0:
35,84,35195,5,2,3:2:0:0:
3,177,35590,1,8,3:2:0:0:
3,177,35788,2,0,L|14:284,1,98.9999969787598,0|2,0:2|0:2,0:0:0:0:
22,324,36380,1,10,3:2:0:0:
106,374,36774,2,0,P|151:352|160:295,1,98.9999969787598,0|8,3:2|3:2,0:2:0:0:
108,224,37564,1,2,3:2:0:0:
171,147,37959,2,0,L|239:132,1,49.4999984893799,10|0,3:2|0:2,0:2:0:0:
267,124,38353,6,0,P|310:144|313:204,1,98.9999969787598,2|8,3:2|3:2,0:2:0:0:
263,273,39143,1,0,3:2:0:0:
323,351,39538,1,10,3:2:0:0:
323,351,39735,2,0,P|374:348|398:297,1,98.9999969787598,2|4,3:2|3:2,0:2:0:0:
486,191,40722,2,0,B|439:175|473:139|405:117,1,98.9999969787598,0|2,0:2|0:2,0:0:0:0:
370,111,41314,1,2,0:2:0:0:
279,150,41709,6,0,L|256:35,1,98.9999969787598,4|2,3:2|0:2,0:2:0:0:
249,4,42301,1,4,3:2:0:0:
117,66,42893,2,0,L|94:181,1,98.9999969787598,4|2,3:2|0:2,0:2:0:0:
88,211,43485,1,4,3:2:0:0:
23,286,43880,1,2,0:2:0:0:
23,286,44077,2,0,P|46:325|103:334,1,98.9999969787598,4|0,3:2|0:0,0:2:0:0:
142,320,44669,5,4,3:2:0:0:
205,243,45064,1,0,0:2:0:0:
292,289,45459,2,0,P|338:263|336:202,1,98.9999969787598,2|8,0:2|0:2,0:2:0:0:
359,176,46051,1,2,0:2:0:0:
359,176,46248,2,0,B|326:173|333:135|277:139,2,74.2499977340699,0|0|0,3:2|3:2|3:2,0:0:0:0:
405,158,47038,2,0,P|458:184|460:235,1,98.9999969787599,2|10,0:2|0:2,0:2:0:0:
444,316,47827,6,0,L|381:304,1,49.4999984893799,0|0,3:2|0:2,0:0:0:0:
352,331,48222,1,0,0:0:0:0:
253,337,48616,2,0,P|222:299|245:240,1,98.9999969787599,2|8,0:2|0:2,0:2:0:0:
267,218,49209,1,2,0:2:0:0:
267,218,49406,2,0,P|301:240|341:245,2,74.2499977340699,0|0|0,3:2|3:2|3:2,0:2:0:0:
275,169,50195,1,2,0:2:0:0:
229,80,50590,2,0,L|216:19,1,49.4999984893799,10|2,0:2|0:2,0:0:0:0:
177,3,50985,6,0,P|132:7|96:62,1,98.9999969787599,6|0,3:2|0:0,0:2:0:0:
77,142,51774,2,0,L|93:252,1,98.9999969787599,4|0,3:2|0:0,0:0:0:0:
189,254,52564,2,0,P|242:235|253:186,1,98.9999969787599,6|0,3:2|0:0,0:2:0:0:
315,115,53353,1,4,3:2:0:0:
410,139,53748,2,0,L|419:191,1,49.4999984893799,2|0,0:2|0:0,0:2:0:0:
423,237,54143,6,0,P|452:273|431:318,1,98.9999969787598,4|0,3:2|0:2,0:2:0:0:
388,339,54735,1,0,3:2:0:0:
289,326,55130,2,0,L|275:393,2,49.4999984893799,2|10|2,0:2|3:2|0:2,0:0:0:0:
259,286,55722,2,0,P|232:272|201:277,1,49.4999984893799,6|0,3:2|0:2,0:2:0:0:
169,295,56116,1,8,3:2:0:0:
96,362,56511,1,0,3:2:0:0:
96,362,56709,2,0,L|72:253,1,98.9999969787598,2|2,0:2|0:2,0:0:0:0:
63,216,57301,5,6,3:2:0:0:
83,119,57695,2,0,P|62:107|30:107,2,49.4999984893799,2|10|2,3:2|3:2|3:2,0:0:0:0:
118,83,58288,2,0,P|111:57|86:39,2,49.4999984893799,10|2|10,3:2|3:2|3:2,0:0:0:0:
168,103,58880,1,2,3:2:0:0:
168,103,59077,2,0,L|231:96,1,49.4999984893799,2|2,3:2|3:2,0:0:0:0:
266,92,59472,1,6,3:2:0:0:
478,266,60459,6,0,P|470:320|412:329,1,110,4|8,3:2|3:2,0:2:0:0:
373,321,61051,1,4,0:3:0:0:
373,321,61248,2,0,L|251:335,1,110,2|8,3:2|3:2,0:2:0:0:
219,300,61840,1,6,0:3:0:0:
274,206,62235,1,4,0:3:0:0:
274,206,62432,2,0,L|264:142,1,55,10|4,3:2|0:3,0:2:0:0:
261,96,62827,2,0,P|247:58|179:50,1,110,0|8,3:2|3:2,0:0:0:0:
86,97,63616,6,0,P|49:93|29:55,2,82.4999999999999,0|0|4,3:2|0:2|0:3,0:2:0:0:
125,136,64406,1,0,3:2:0:0:
63,227,64801,1,8,3:2:0:0:
144,300,65195,2,0,P|212:277|266:278,1,110,2|8,3:2|3:2,0:2:0:0:
293,309,65788,1,6,0:3:0:0:
293,309,65985,1,0,3:0:0:0:
361,222,66380,2,0,L|419:233,1,55,10|6,3:2|0:3,3:2:0:0:
449,274,66774,6,0,P|446:321|485:340,2,82.4999999999999,6|0|4,3:2|0:2|0:3,0:2:0:0:
498,248,67564,1,2,3:2:0:0:
450,148,67959,2,0,L|460:94,1,55,8|6,3:2|0:3,0:0:0:0:
435,44,68353,2,0,P|468:7|501:5,2,82.4999999999999,2|0|4,3:2|0:2|0:3,0:2:0:0:
383,63,69143,1,2,3:2:0:0:
283,10,69538,2,0,L|221:20,1,55,10|6,3:2|0:3,0:0:0:0:
182,48,69932,6,0,P|130:60|101:44,2,82.4999999999999,4|0|8,3:2|3:2|3:2,0:2:0:0:
200,100,70722,2,0,P|162:138|129:140,2,82.4999999999999,4|0|8,3:2|3:2|3:2,0:2:0:0:
254,94,71511,1,0,0:2:0:0:
309,189,71906,1,2,3:2:0:0:
261,288,72301,2,0,L|197:279,1,55,2|6,3:2|3:3,0:0:0:0:
159,309,72695,2,0,L|95:300,1,55,2|6,3:2|3:3,0:0:0:0:
50,291,73090,6,0,P|75:247|46:183,1,110,6|8,3:2|3:2,0:2:0:0:
22,159,73682,1,4,0:3:0:0:
22,159,73879,2,0,L|46:38,1,110,2|8,3:2|3:2,0:2:0:0:
78,8,74471,1,6,0:3:0:0:
170,78,74866,1,4,0:3:0:0:
170,78,75063,2,0,L|235:68,1,55,10|4,3:2|0:3,0:2:0:0:
271,40,75458,2,0,P|323:42|347:89,1,110,0|8,3:2|3:2,0:0:0:0:
374,195,76247,6,0,P|399:180|455:195,2,82.4999999999999,0|0|4,3:2|0:2|0:3,0:2:0:0:
348,243,77037,1,2,3:2:0:0:
242,211,77432,1,10,3:2:0:0:
132,222,77827,2,0,P|149:190|154:107,1,110,2|10,3:2|3:2,0:0:0:0:
138,70,78419,1,4,0:3:0:0:
138,70,78616,1,0,3:2:0:0:
235,18,79011,1,8,3:2:0:0:
323,82,79405,6,0,P|361:72|388:26,2,82.4999999999999,4|0|8,3:2|3:2|3:2,0:2:0:0:
340,134,80195,2,0,P|377:146|425:122,2,82.4999999999999,0|0|8,3:2|3:2|3:2,0:2:0:0:
319,185,80985,2,0,P|342:223|394:232,2,82.5,4|0|8,3:2|3:2|3:2,0:2:0:0:
264,191,81774,1,0,3:2:0:0:
195,277,82169,1,0,3:0:0:0:
95,230,82564,6,0,P|63:241|21:220,2,82.4999999999999,4|0|8,3:2|3:2|3:2,0:2:0:0:
115,179,83353,2,0,P|80:171|58:130,2,82.4999999999999,4|0|8,3:2|3:2|3:2,0:2:0:0:
159,146,84143,2,0,P|152:89|203:53,1,110,4|8,3:2|3:2,0:0:0:0:
290,94,84932,2,0,L|351:85,1,55,4|4,3:3|3:3,0:0:0:0:
383,46,85327,2,0,L|444:37,1,55,4|4,3:3|3:3,0:0:0:0:
488,59,85722,5,4,3:2:0:0:
307,304,87399,2,0,L|413:291,2,82.5,6|6|4,3:2|3:2|3:2,0:0:0:0:
