osu file format v14

[General]
AudioFilename: audio.ogg
AudioLeadIn: 0
PreviewTime: 59866
Countdown: 0
SampleSet: Soft
StackLeniency: 0.7
Mode: 0
LetterboxInBreaks: 0
WidescreenStoryboard: 1

[Editor]
DistanceSpacing: 1.7
BeatDivisor: 4
GridSize: 4
TimelineZoom: 2.4

[Metadata]
Title:Tasogare no Starlight (TV Size)
TitleUnicode:黄昏のスタアライト (TV Size)
Artist:Nanjo Yoshino
ArtistUnicode:南條愛乃
Creator:Sayama Kaede
Version:Light Insane
Source:グリザイアの楽園
Tags:suzuaki_rin japanese jpop j pop j-pop anime ed ending visual novel vn eroge galgame video game カプリスの繭 caprice mayu le eden de la grisaia no rakuen frontwing front wing フロントウィング Elements Garden 藤間仁 Fujima Hitoshi ナンジョルノ
BeatmapID:4143112
BeatmapSetID:1993718

[Difficulty]
HPDrainRate:4
CircleSize:3.7
OverallDifficulty:7
ApproachRate:8
SliderMultiplier:1.6
SliderTickRate:1

[Events]
//Background and Video events
0,0,"a3.jpg",0,0
//Break Periods
//Storyboard Layer 0 (Background)
//Storyboard Layer 1 (Fail)
//Storyboard Layer 2 (Pass)
//Storyboard Layer 3 (Foreground)
//Storyboard Layer 4 (Overlay)
//Storyboard Sound Samples

[TimingPoints]
3617,394.736842105263,4,2,1,60,1,0
3617,-142.857142857143,4,2,1,60,0,0
5195,-125,4,2,1,60,0,0
5985,-111.111111111111,4,2,1,65,0,0
6774,-86.9565217391304,4,2,1,75,0,0
13090,-111.111111111111,4,2,1,80,0,0
14077,-111.111111111111,4,2,1,60,0,0
14669,-111.111111111111,4,2,1,80,0,0
15163,-111.111111111111,4,2,1,60,0,0
16248,-111.111111111111,4,2,1,75,0,0
17432,-100,4,2,1,75,0,0
17827,-86.9565217391304,4,2,1,80,0,0
18419,-86.9565217391304,4,2,1,55,0,0
19406,-125,4,2,1,60,0,0
30656,-125,4,2,1,65,0,0
32038,-111.111111111111,4,2,1,65,0,0
41709,-100,4,2,1,80,0,0
44669,-105.263157894737,4,2,1,60,0,0
50985,-95.2380952380952,4,2,1,70,0,0
54143,-90.9090909090909,4,2,1,75,0,0
57301,-90.9090909090909,4,2,1,80,0,0
60459,-83.3333333333333,4,2,1,90,0,1
69932,-76.9230769230769,4,2,1,90,0,1
71511,-83.3333333333333,4,2,1,90,0,1
79406,-76.9230769230769,4,2,1,90,0,1
84932,-83.3333333333333,4,2,1,90,0,1
85722,-83.3333333333333,4,2,1,70,0,0
87301,-83.3333333333333,4,2,1,70,0,0

[Colours]
Combo1 : 99,235,160
Combo2 : 112,222,235
Combo3 : 184,116,239
Combo4 : 242,149,211

[HitObjects]
387,23,3617,6,0,P|351:51|377:122,1,111.999996582031,4|2,3:2|0:2,0:0:0:0:
438,175,4209,1,0,0:2:0:0:
438,175,4307,1,0,0:2:0:0:
438,175,4406,2,0,L|422:302,1,111.999996582031,4|2,3:2|0:2,0:0:0:0:
363,351,4998,1,0,0:2:0:0:
363,351,5097,1,0,0:2:0:0:
363,351,5195,6,0,L|321:343,3,32,4|0|0|0,3:2|0:2|0:2|0:2,0:0:0:0:
303,272,5590,2,0,L|261:264,3,32,2|0|0|0,0:2|0:2|0:2|0:2,0:0:0:0:
227,199,5985,2,0,P|193:198|164:241,1,71.9999978027344,4|0,3:2|0:2,0:0:0:0:
169,313,6281,1,0,3:2:0:0:
169,313,6380,2,0,B|117:324|147:281|72:297,1,71.9999978027344,0|8,3:2|0:2,0:0:0:0:
9,192,6774,6,0,P|68:198|68:98,1,184.000003509522,4|8,3:2|3:2,0:2:0:0:
11,0,7367,1,0,0:2:0:0:
11,0,7465,1,2,0:2:0:0:
11,0,7564,2,0,P|57:14|104:23,1,92.0000017547608,0|2,3:2|0:2,0:0:0:0:
165,78,7860,1,0,0:0:0:0:
165,78,7959,2,0,P|207:67|283:73,1,92.0000017547608,8|2,3:2|0:2,0:0:0:0:
387,31,8353,5,0,3:2:0:0:
403,13,8452,2,0,P|351:29|352:105,1,138.000002632141,0|8,0:2|3:2,0:2:0:0:
363,194,8945,1,0,0:2:0:0:
363,194,9044,1,2,0:2:0:0:
363,194,9143,1,0,3:2:0:0:
463,140,9340,1,2,0:2:0:0:
468,295,9538,2,0,P|436:285|370:279,1,92.0000017547608,8|2,3:2|0:2,0:0:0:0:
255,326,9932,6,0,P|296:267|232:191,1,184.000003509522,4|8,3:2|3:2,0:2:0:0:
159,289,10524,1,0,0:2:0:0:
159,289,10623,1,2,0:2:0:0:
159,289,10722,2,0,P|169:324|172:384,1,92.0000017547608,0|2,3:2|0:2,0:0:0:0:
57,309,11018,1,0,0:0:0:0:
57,309,11116,2,0,P|76:270|81:217,1,92.0000017547608,8|2,3:2|0:2,0:0:0:0:
55,85,11511,5,0,3:2:0:0:
43,69,11610,2,0,P|102:71|136:137,1,138.000002632141,0|8,0:2|3:2,0:2:0:0:
195,211,12103,1,0,0:2:0:0:
195,211,12202,1,2,0:0:0:0:
195,211,12301,1,0,3:2:0:0:
260,88,12498,1,2,0:0:0:0:
298,220,12695,1,8,3:2:0:0:
298,220,12794,1,0,0:2:0:0:
298,220,12893,2,0,L|315:288,1,46.0000008773804,2|0,0:2|0:2,0:0:0:0:
333,343,13090,5,4,3:2:0:0:
473,130,14077,2,0,P|447:109|449:69,1,71.9999978027344,0|0,3:2|0:2,0:2:0:0:
422,31,14373,2,0,P|385:28|355:53,1,71.9999978027344,0|0,3:2|0:2,0:2:0:0:
340,98,14669,6,0,L|202:70,1,107.999996704102,4|0,3:2|0:2,0:2:0:0:
50,261,15656,2,0,P|23:237|34:185,1,71.9999978027344,0|0,3:2|0:2,0:2:0:0:
64,173,15952,2,0,B|107:180|88:199|144:210,1,71.9999978027344,0|0,3:2|0:2,0:2:0:0:
174,225,16248,5,4,3:2:0:0:
152,316,16445,1,0,3:2:0:0:
241,288,16643,1,0,3:2:0:0:
218,378,16840,1,0,3:2:0:0:
335,351,17038,1,8,3:2:0:0:
333,333,17136,1,0,3:2:0:0:
331,315,17235,1,0,3:2:0:0:
329,297,17334,1,0,3:2:0:0:
327,279,17432,2,0,L|319:218,3,40,8|0|0|0,3:2|3:2|3:2|3:2,0:0:0:0:
286,160,17827,6,0,L|304:38,1,92.0000017547608,4|0,3:2|0:2,0:2:0:0:
379,50,18123,1,0,3:2:0:0:
379,50,19406,5,4,3:2:0:0:
379,50,19801,1,0,3:2:0:0:
306,10,19998,1,0,0:2:0:0:
248,69,20195,2,0,L|263:141,1,64,0|0,3:2|0:2,0:2:0:0:
217,202,20590,1,0,3:2:0:0:
137,179,20788,1,0,0:2:0:0:
87,320,20985,5,0,3:2:0:0:
87,320,21380,1,0,3:2:0:0:
87,320,21774,2,0,L|160:327,1,64,0|0,3:2|0:2,0:2:0:0:
217,375,22169,2,0,L|290:382,1,64,0|0,3:2|0:0,0:2:0:0:
338,320,22564,6,0,P|312:268|356:214,1,128,0|0,3:2|3:2,0:0:0:0:
431,229,23156,2,0,P|454:193|449:168,1,64,0|0,0:2|3:2,0:2:0:0:
399,108,23551,2,0,L|327:90,1,64,0|0,0:0|3:0,0:0:0:0:
268,139,23945,1,0,0:2:0:0:
203,14,24143,5,0,3:2:0:0:
203,14,24538,1,0,3:2:0:0:
203,14,24932,2,0,L|211:93,1,64,0|0,3:2|0:2,0:2:0:0:
155,141,25327,2,0,P|110:121|112:82,1,64,0|0,3:2|0:0,0:2:0:0:
88,29,25722,6,0,P|23:36|5:112,1,128,0|0,3:2|3:2,0:0:0:0:
41,248,26511,2,0,L|50:169,1,64,0|0,3:2|0:0,0:2:0:0:
155,142,26906,2,0,L|147:205,1,64,0|0,3:2|0:2,0:2:0:0:
113,302,27301,6,0,P|153:258|242:265,1,128,0|0,3:2|3:2,0:2:0:0:
288,309,27893,1,0,0:2:0:0:
358,187,28090,1,0,3:2:0:0:
358,187,28485,1,0,3:2:0:0:
358,187,28880,6,0,L|364:266,1,64,0|0,3:2|0:0,0:2:0:0:
368,340,29274,2,0,P|397:358|451:348,1,64,0|0,3:2|0:2,0:2:0:0:
503,312,29669,2,0,B|516:242|450:272|470:178,1,128,0|0,3:2|3:2,0:2:0:0:
505,114,30261,5,0,0:2:0:0:
505,114,30656,1,4,3:2:0:0:
297,5,31051,2,0,L|307:80,2,64,4|0|0,3:2|0:2|3:2,0:0:0:0:
397,73,31643,1,2,3:2:0:0:
395,80,31741,1,2,0:2:0:0:
394,88,31840,1,2,0:2:0:0:
393,96,31939,1,2,0:2:0:0:
392,104,32038,6,0,P|311:114|310:178,1,143.999995605469,6|8,3:2|3:2,0:2:0:0:
364,244,32630,1,0,0:2:0:0:
275,334,32827,2,0,P|271:281|257:233,1,71.9999978027344,0|2,3:2|0:2,0:2:0:0:
244,233,33123,1,0,0:2:0:0:
244,233,33222,1,8,3:2:0:0:
164,294,33419,1,2,0:2:0:0:
46,167,33616,6,0,P|89:177|144:183,1,71.9999978027344,0|0,3:2|0:0,0:2:0:0:
185,132,33913,1,0,0:2:0:0:
185,132,34011,2,0,P|222:123|268:117,1,71.9999978027344,8|0,3:2|0:2,0:2:0:0:
393,178,34406,2,0,P|354:149|362:93,1,107.999996704102,2|0,3:2|0:2,0:2:0:0:
376,83,34801,2,0,P|410:94|450:107,1,71.9999978027344,10|0,3:2|0:0,0:2:0:0:
504,243,35195,6,0,P|435:237|404:306,1,143.999995605469,2|8,3:2|3:2,0:2:0:0:
277,376,35788,2,0,P|303:339|297:289,1,71.9999978027344,0|0,0:2|3:2,0:0:0:0:
294,228,36182,1,2,0:2:0:0:
110,284,36380,2,0,L|220:308,1,107.999996704102,10|0,3:2|0:2,0:2:0:0:
225,312,36774,6,0,L|212:232,1,71.9999978027344,0|0,3:2|0:0,0:2:0:0:
198,216,37070,1,0,0:2:0:0:
198,216,37169,1,8,3:2:0:0:
250,130,37366,1,0,0:2:0:0:
165,37,37564,2,0,P|125:53|82:57,1,71.9999978027344,2|0,3:2|0:0,0:2:0:0:
0,139,37959,2,0,P|35:142|71:155,1,71.9999978027344,10|0,3:2|0:2,0:2:0:0:
127,259,38353,6,0,P|104:192|173:158,1,143.999995605469,2|8,3:2|3:2,0:2:0:0:
257,193,38945,1,0,0:2:0:0:
299,53,39143,2,0,P|329:73|381:74,1,71.9999978027344,0|0,3:2|0:0,0:2:0:0:
451,27,39538,1,10,3:2:0:0:
511,164,39735,5,2,3:2:0:0:
511,164,40130,2,0,P|460:157|468:241,1,143.999995605469,4|0,3:2|0:0,0:0:0:0:
506,352,40722,2,0,P|438:335|376:328,1,107.999996704102,0|0,0:2|0:0,0:0:0:0:
374,338,41116,1,2,0:2:0:0:
259,272,41314,2,0,P|312:258|369:230,1,107.999996704102,2|0,0:2|0:0,0:0:0:0:
368,226,41709,6,0,P|356:178|346:105,1,120,4|0,3:2|0:2,0:2:0:0:
353,57,42103,1,2,0:2:0:0:
157,7,42301,2,0,P|175:65|181:146,1,120,4|0,3:2|0:2,0:2:0:0:
176,165,42695,1,2,0:2:0:0:
39,300,42893,6,0,P|68:252|132:278,1,120,4|0,3:2|0:2,0:2:0:0:
145,300,43288,1,2,0:2:0:0:
326,347,43485,2,0,P|275:371|236:314,1,120,4|0,3:2|0:2,0:2:0:0:
237,289,43880,1,2,0:2:0:0:
325,189,44077,2,0,B|420:214|338:267|448:291,1,160,4|0,3:2|0:0,0:2:0:0:
512,122,44669,6,0,P|475:145|414:147,1,75.9999979705811,4|0,3:2|0:2,0:2:0:0:
374,86,45064,2,0,P|342:61|291:60,1,75.9999979705811,0|0,0:2|3:2,0:2:0:0:
228,146,45459,2,0,P|262:113|204:13,1,151.999995941162,2|8,0:2|0:2,0:2:0:0:
136,6,46051,1,2,0:2:0:0:
17,87,46248,6,0,P|65:93|117:110,1,75.9999979705811,0|0,3:2|0:2,0:2:0:0:
132,130,46544,1,0,3:2:0:0:
132,130,46643,1,0,0:2:0:0:
57,194,46840,1,0,3:2:0:0:
122,292,47038,2,0,P|131:257|148:217,1,75.9999979705811,2|0,0:2|0:0,0:2:0:0:
247,130,47432,2,0,P|243:167|251:251,1,113.999996955872,10|0,0:2|0:0,0:0:0:0:
257,282,47827,5,0,3:2:0:0:
338,226,48024,1,0,0:2:0:0:
413,351,48222,2,0,P|371:341|325:333,1,75.9999979705811,0|0,0:0|3:0,0:0:0:0:
246,380,48616,2,0,P|176:355|173:262,1,151.999995941162,2|8,0:2|0:2,0:2:0:0:
205,195,49209,1,2,0:2:0:0:
114,155,49406,6,0,P|65:167|17:170,1,75.9999979705811,0|0,3:2|0:2,0:2:0:0:
10,198,49702,1,0,3:2:0:0:
10,198,49801,1,0,0:2:0:0:
80,261,49998,1,0,3:2:0:0:
70,359,50195,2,0,P|96:307|157:299,1,113.999996955872,0|0,0:2|0:2,0:2:0:0:
190,320,50590,1,10,0:2:0:0:
271,264,50788,1,2,0:2:0:0:
215,139,50985,6,0,P|234:212|317:191,1,167.999994873047,6|0,3:2|0:0,0:2:0:0:
367,142,51577,1,0,0:2:0:0:
242,21,51774,1,4,3:2:0:0:
324,55,51972,2,0,L|434:37,2,83.9999974365235,0|2|0,0:2|0:2|0:2,0:2:0:0:
504,97,52564,6,0,P|437:129|449:240,1,167.999994873047,6|0,3:2|0:0,0:2:0:0:
506,265,53156,1,0,0:2:0:0:
387,363,53353,2,0,P|330:365|310:291,1,125.999996154785,4|0,3:2|0:2,0:2:0:0:
279,292,53748,2,0,B|265:388,1,83.9999974365235,0|0,0:2|0:0,0:2:0:0:
212,231,54143,6,0,P|263:179|227:87,1,176.000005371094,4|0,3:2|0:0,0:0:0:0:
61,117,54735,2,0,P|110:183|128:288,1,176.000005371094,0|0,3:2|0:0,0:2:0:0:
79,347,55327,1,10,3:2:0:0:
234,340,55524,1,2,0:2:0:0:
234,340,55623,1,2,0:2:0:0:
234,340,55722,6,0,L|246:226,1,88.000002685547,6|0,3:2|0:0,0:0:0:0:
209,112,56116,2,0,P|217:158|252:171,1,88.000002685547,8|0,3:2|0:2,0:2:0:0:
330,123,56511,1,0,3:2:0:0:
254,19,56709,1,2,0:2:0:0:
254,19,56807,1,2,0:2:0:0:
254,19,56906,2,0,L|196:28,3,44.0000013427735,10|2|2|2,0:2|0:2|0:2|0:2,0:0:0:0:
123,1,57301,5,6,3:2:0:0:
74,84,57498,1,0,3:2:0:0:
153,139,57695,1,2,3:2:0:0:
104,222,57892,1,10,3:2:0:0:
180,281,58090,2,0,L|235:289,3,44.0000013427735,2|2|10|2,3:2|0:2|3:2|0:2,0:0:0:0:
287,237,58485,2,0,L|342:245,3,44.0000013427735,2|2|10|0,3:2|0:2|3:2|0:2,0:0:0:0:
423,192,58880,5,2,3:2:0:0:
424,202,58978,1,2,3:2:0:0:
426,213,59077,1,2,3:2:0:0:
428,224,59176,1,2,3:2:0:0:
430,235,59274,2,0,L|441:302,1,44.0000013427735,2|2,3:2|3:2,0:2:0:0:
458,361,59472,1,6,3:2:0:0:
458,361,60459,6,0,P|408:375|379:308,1,95.9999970703126,4|4,3:2|0:3,0:2:0:0:
372,310,60755,1,0,0:2:0:0:
372,310,60853,1,8,3:2:0:0:
284,269,61051,1,4,0:3:0:0:
149,369,61248,1,2,3:2:0:0:
185,211,61445,2,0,L|205:304,1,95.9999970703126,6|8,0:3|3:2,0:0:0:0:
70,378,61840,1,6,0:3:0:0:
70,378,61939,1,0,0:2:0:0:
70,378,62038,6,0,P|105:351|98:293,1,95.9999970703126,0|4,3:2|0:3,0:2:0:0:
42,234,62334,1,0,0:2:0:0:
42,234,62432,2,0,P|29:172|25:125,1,95.9999970703126,10|4,3:2|0:3,0:2:0:0:
156,24,62827,1,0,3:2:0:0:
139,5,62926,2,0,P|94:27|108:94,1,95.9999970703126,2|0,0:0|0:0,0:0:0:0:
125,140,63222,1,8,3:2:0:0:
257,43,63419,1,4,0:3:0:0:
288,217,63616,6,0,L|161:199,1,95.9999970703126,0|4,3:2|0:3,0:2:0:0:
166,229,63913,1,0,0:2:0:0:
166,229,64011,1,8,3:2:0:0:
229,325,64209,1,4,0:3:0:0:
364,222,64406,2,0,P|324:189|353:78,1,143.999995605469,0|0,3:2|0:0,0:0:0:0:
355,77,64801,2,0,L|465:109,1,95.9999970703126,8|4,3:2|0:3,0:0:0:0:
443,253,65195,6,0,P|372:253|341:351,1,143.999995605469,2|0,3:2|0:2,0:2:0:0:
343,365,65590,1,8,3:2:0:0:
244,305,65788,1,6,0:3:0:0:
286,198,65985,2,0,L|180:224,1,95.9999970703126,0|4,3:0|0:3,0:0:0:0:
119,283,66281,1,0,0:2:0:0:
119,283,66380,2,0,L|105:231,3,47.9999985351563,10|2|6|2,3:2|0:2|0:3|0:2,0:0:0:0:
28,190,66774,6,0,P|25:144|84:107,1,95.9999970703126,6|4,3:2|0:3,0:2:0:0:
141,137,67070,1,0,0:2:0:0:
141,137,67169,2,0,P|198:150|279:168,1,95.9999970703126,8|4,3:2|0:3,0:2:0:0:
317,109,67564,1,2,3:2:0:0:
237,26,67761,2,0,L|244:94,2,47.9999985351563,4|0|8,0:3|0:0|3:2,0:0:0:0:
418,0,68156,1,6,0:3:0:0:
418,0,68255,1,2,0:2:0:0:
418,0,68353,6,0,L|403:101,1,95.9999970703126,2|4,3:2|0:3,0:2:0:0:
454,165,68649,1,0,0:2:0:0:
454,165,68748,2,0,P|435:207|388:219,1,95.9999970703126,8|4,3:2|0:3,0:2:0:0:
305,172,69143,1,2,3:2:0:0:
244,246,69340,1,6,0:3:0:0:
244,246,69439,1,2,0:2:0:0:
244,246,69538,2,0,L|235:300,3,47.9999985351563,10|2|6|2,3:2|0:2|0:3|0:2,0:0:0:0:
311,354,69932,6,0,P|362:353|402:384,1,103.999995239258,4|0,3:2|0:2,0:2:0:0:
422,381,70228,2,0,P|426:317|473:283,1,103.999995239258,0|0,3:2|0:2,0:2:0:0:
512,242,70524,1,8,3:2:0:0:
438,117,70722,2,0,L|323:95,1,103.999995239258,4|0,3:2|0:2,0:2:0:0:
342,65,71018,2,0,L|206:85,1,103.999995239258,0|0,3:2|0:2,0:2:0:0:
164,63,71314,1,8,3:2:0:0:
239,204,71511,5,0,0:2:0:0:
141,240,71709,1,6,3:3:0:0:
141,240,71807,1,2,0:2:0:0:
141,240,71906,2,0,L|131:182,3,47.9999985351563,2|2|6|2,3:2|0:2|3:3|0:2,0:0:0:0:
57,154,72301,2,0,L|47:96,3,47.9999985351563,2|2|6|2,3:2|0:2|3:3|0:2,0:0:0:0:
88,18,72695,1,2,3:2:0:0:
112,10,72793,1,2,0:2:0:0:
137,16,72892,1,6,3:3:0:0:
157,32,72991,1,2,0:2:0:0:
167,56,73090,6,0,P|187:100|266:97,1,95.9999970703126,6|4,3:2|0:3,0:2:0:0:
262,100,73386,1,0,0:2:0:0:
262,100,73484,1,8,3:2:0:0:
306,14,73682,1,4,0:3:0:0:
426,71,73879,1,2,3:2:0:0:
347,121,74076,2,0,L|327:28,1,95.9999970703126,6|8,0:3|3:2,0:0:0:0:
420,172,74471,1,6,0:3:0:0:
420,172,74570,1,0,0:2:0:0:
420,172,74669,6,0,P|386:217|390:281,1,95.9999970703126,0|4,3:2|0:3,0:2:0:0:
459,318,74965,1,0,0:2:0:0:
459,318,75063,2,0,P|405:325|361:356,1,95.9999970703126,10|4,3:2|0:3,0:2:0:0:
214,349,75458,1,0,3:2:0:0:
236,370,75557,2,0,P|282:338|267:281,1,95.9999970703126,2|0,0:0|0:0,0:0:0:0:
251,230,75853,1,8,3:2:0:0:
119,313,76050,1,4,0:3:0:0:
115,164,76247,6,0,L|133:37,1,95.9999970703126,0|4,3:2|0:3,0:2:0:0:
163,35,76544,1,0,0:2:0:0:
163,35,76642,1,8,3:2:0:0:
21,65,76840,1,4,0:3:0:0:
38,198,77037,2,0,P|104:195|139:283,1,143.999995605469,2|0,3:2|0:2,0:2:0:0:
140,298,77432,2,0,P|91:313|44:327,1,95.9999970703126,10|4,3:2|0:3,0:0:0:0:
272,372,77826,6,0,P|221:323|251:238,1,143.999995605469,2|0,3:2|0:0,0:0:0:0:
251,248,78222,2,0,P|282:269|297:308,2,63.9999980468751,10|2|2,3:2|0:2|0:0,0:0:0:0:
190,177,78616,2,0,L|319:154,1,95.9999970703126,0|4,3:2|0:3,0:2:0:0:
375,206,78912,1,0,0:0:0:0:
375,206,79011,2,0,L|364:152,1,47.9999985351563,8|0,3:2|0:0,0:0:0:0:
326,89,79209,1,4,0:3:0:0:
474,242,79406,6,0,P|456:192|476:140,1,103.999995239258,4|0,3:2|0:2,0:2:0:0:
498,120,79702,1,0,3:2:0:0:
498,120,79801,2,0,L|487:48,1,51.999997619629,0|0,0:0|0:2,0:0:0:0:
436,11,79998,1,8,3:2:0:0:
342,135,80195,2,0,P|277:119|209:112,1,103.999995239258,0|0,3:2|0:2,0:2:0:0:
176,68,80491,1,0,3:2:0:0:
176,68,80590,2,0,P|160:104|153:125,1,51.999997619629,0|0,0:0|0:2,0:0:0:0:
175,192,80788,1,8,3:2:0:0:
77,313,80985,6,0,P|108:283|167:303,1,103.999995239258,4|0,3:2|0:2,0:2:0:0:
221,348,81281,2,0,P|265:364|306:323,1,103.999995239258,0|0,3:2|0:2,0:2:0:0:
315,252,81577,1,8,3:2:0:0:
315,252,81676,1,0,0:2:0:0:
315,252,81774,2,0,P|298:191|295:136,1,103.999995239258,0|0,3:2|0:2,0:2:0:0:
249,80,82070,1,0,3:2:0:0:
249,80,82169,1,0,3:2:0:0:
335,0,82366,1,8,3:2:0:0:
465,76,82564,6,0,P|417:92|418:162,1,103.999995239258,4|0,3:2|0:2,0:2:0:0:
461,195,82860,2,0,P|453:265|462:317,1,103.999995239258,0|0,3:2|0:2,0:2:0:0:
499,367,83156,1,8,3:2:0:0:
333,375,83353,2,0,P|371:336|349:269,1,103.999995239258,4|0,3:2|0:2,0:2:0:0:
313,223,83649,1,0,3:2:0:0:
313,223,83748,2,0,P|272:227|233:239,1,51.999997619629,0|0,0:0|0:2,0:0:0:0:
191,153,83945,1,8,3:2:0:0:
191,153,84044,1,0,3:2:0:0:
191,153,84143,5,4,3:2:0:0:
166,254,84340,1,0,3:2:0:0:
65,228,84538,1,8,3:2:0:0:
91,127,84735,1,0,3:2:0:0:
155,260,84932,2,0,L|167:310,3,47.9999985351563,4|0|4|0,3:3|3:2|3:3|3:2,0:0:0:0:
90,362,85327,1,4,3:3:0:0:
70,358,85425,1,0,3:2:0:0:
51,355,85524,1,4,3:3:0:0:
32,352,85623,1,0,3:2:0:0:
13,348,85721,1,4,3:2:0:0:
149,45,87301,5,0,0:2:0:0:
158,63,87399,2,0,P|111:88|120:158,1,95.9999970703126,6|0,3:2|0:2,0:2:0:0:
165,178,87695,2,0,B|218:167|183:130|242:121,1,95.9999970703126,6|0,3:2|0:2,0:2:0:0:
312,154,87991,5,4,3:2:0:0:
