osu file format v14

[General]
AudioFilename: audio.ogg
AudioLeadIn: 0
PreviewTime: 59866
Countdown: 0
SampleSet: Soft
StackLeniency: 0.7
Mode: 0
LetterboxInBreaks: 0
WidescreenStoryboard: 1

[Editor]
DistanceSpacing: 1
BeatDivisor: 4
GridSize: 4
TimelineZoom: 2.4

[Metadata]
Title:Tasogare no Starlight (TV Size)
TitleUnicode:黄昏のスタアライト (TV Size)
Artist:Nanjo Yoshino
ArtistUnicode:南條愛乃
Creator:Sayama Kaede
Version:Expert
Source:グリザイアの楽園
Tags:suzuaki_rin japanese jpop j pop j-pop anime ed ending visual novel vn eroge galgame video game カプリスの繭 caprice mayu le eden de la grisaia no rakuen frontwing front wing フロントウィング Elements Garden 藤間仁 Fujima Hitoshi ナンジョルノ
BeatmapID:4143109
BeatmapSetID:1993718

[Difficulty]
HPDrainRate:5.2
CircleSize:4
OverallDifficulty:8
ApproachRate:9.2
SliderMultiplier:1.8
SliderTickRate:1

[Events]
//Background and Video events
0,0,"a3.jpg",0,0
//Break Periods
//Storyboard Layer 0 (Background)
//Storyboard Layer 1 (Fail)
//Storyboard Layer 2 (Pass)
//Storyboard Layer 3 (Foreground)
//Storyboard Layer 4 (Overlay)
//Storyboard Sound Samples

[TimingPoints]
3617,394.736842105263,4,2,1,60,1,0
3617,-125,4,2,1,60,0,0
5985,-66.6666666666667,4,2,1,65,0,0
6774,-71.4285714285714,4,2,1,75,0,0
13090,-55.5555555555556,4,2,1,80,0,0
14077,-100,4,2,1,60,0,0
14373,-76.9230769230769,4,2,1,60,0,0
14669,-55.5555555555556,4,2,1,80,0,0
15163,-55.5555555555556,4,2,1,60,0,0
15656,-100,4,2,1,60,0,0
15952,-76.9230769230769,4,2,1,60,0,0
16248,-71.4285714285714,4,2,1,75,0,0
17827,-58.8235294117647,4,2,1,80,0,0
18419,-142.857142857143,4,2,1,55,0,0
19406,-142.857142857143,4,2,1,60,0,0
30656,-142.857142857143,4,2,1,65,0,0
32038,-100,4,2,1,65,0,0
39932,-125,4,2,1,65,0,0
41511,-58.8235294117647,4,2,1,65,0,0
41709,-58.8235294117647,4,2,1,80,0,0
44077,-166.666666666667,4,2,1,80,0,0
44669,-111.111111111111,4,2,1,60,0,0
50985,-125,4,2,1,70,0,0
54143,-90.9090909090909,4,2,1,75,0,0
57301,-90.9090909090909,4,2,1,80,0,0
60459,-66.6666666666667,4,2,1,90,0,1
69932,-52.6315789473684,4,2,1,90,0,1
71511,-66.6666666666667,4,2,1,90,0,1
79406,-52.6315789473684,4,2,1,90,0,1
84143,-66.6666666666667,4,2,1,90,0,1
85722,-66.6666666666667,4,2,1,70,0,0
87301,-52.6315789473684,4,2,1,70,0,0

[Colours]
Combo1 : 99,235,160
Combo2 : 112,222,235
Combo3 : 184,116,239
Combo4 : 242,149,211

[HitObjects]
392,24,3617,6,0,L|403:88,3,36,4|0|0|0,3:2|0:2|0:2|0:2,0:0:0:0:
341,162,4011,2,0,L|335:127,3,36,2|0|0|0,0:2|0:2|0:2|0:2,0:0:0:0:
291,42,4406,5,4,3:2:0:0:
280,56,4505,1,0,0:2:0:0:
256,68,4603,1,0,0:2:0:0:
221,66,4702,1,0,0:2:0:0:
180,44,4801,2,0,L|164:109,3,36,2|0|0|0,0:2|0:2|0:2|0:2,0:0:0:0:
66,143,5195,5,4,3:2:0:0:
95,134,5294,1,0,0:2:0:0:
132,148,5393,1,0,0:2:0:0:
153,191,5492,1,0,0:2:0:0:
133,244,5590,2,0,L|82:233,1,36,2|0,0:2|0:2,0:0:0:0:
77,314,5788,2,0,L|26:303,1,36,0|0,0:2|0:2,0:0:0:0:
212,348,5985,6,0,P|199:283|257:238,1,135.000005149842,4|0,3:2|0:2,0:0:0:0:
374,284,6281,1,0,3:2:0:0:
346,350,6380,2,0,L|320:206,1,135.000005149842,0|8,3:2|0:2,0:0:0:0:
223,17,6774,6,0,P|210:79|299:103,1,125.999996154785,4|0,3:2|0:2,0:2:0:0:
442,152,7070,1,0,0:2:0:0:
397,81,7169,2,0,L|330:100,1,62.9999980773926,8|0,3:2|0:2,0:2:0:0:
349,291,7367,1,0,0:2:0:0:
425,302,7465,2,0,P|423:242|325:242,1,125.999996154785,2|0,0:2|0:0,0:0:0:0:
263,271,7761,2,0,L|273:341,1,62.9999980773926,2|0,0:2|0:0,0:2:0:0:
200,384,7959,2,0,L|191:321,1,62.9999980773926,8|0,3:2|0:0,0:0:0:0:
108,282,8156,2,0,L|116:344,1,62.9999980773926,2|0,0:2|0:0,0:0:0:0:
144,122,8353,5,0,3:2:0:0:
176,187,8452,2,0,P|123:201|73:135,1,125.999996154785,0|0,0:2|0:2,0:2:0:0:
220,34,8748,2,0,L|234:131,1,62.9999980773926,8|0,3:2|0:2,0:2:0:0:
331,250,8945,1,0,0:2:0:0:
253,233,9044,2,0,P|270:175|329:165,1,125.999996154785,2|0,0:2|0:2,0:0:0:0:
421,232,9340,2,0,L|407:306,1,62.9999980773926,2|0,0:2|0:2,0:2:0:0:
276,373,9538,1,8,3:2:0:0:
254,338,9636,1,0,0:2:0:0:
222,321,9735,1,2,0:2:0:0:
181,327,9834,1,0,0:2:0:0:
140,351,9932,6,0,L|167:195,1,125.999996154785,4|0,3:2|0:2,0:2:0:0:
132,36,10228,1,0,0:2:0:0:
90,103,10327,2,0,P|103:151|148:159,1,62.9999980773926,8|0,3:2|0:2,0:2:0:0:
217,171,10524,1,0,0:2:0:0:
284,122,10623,2,0,P|228:82|169:103,1,125.999996154785,2|0,0:2|0:0,0:0:0:0:
268,248,10919,2,0,P|309:238|336:215,1,62.9999980773926,2|0,0:2|0:0,0:2:0:0:
410,250,11116,2,0,P|422:269|418:246,1,62.9999980773926,8|0,3:2|0:0,0:0:0:0:
455,172,11314,2,0,P|496:162|523:139,1,62.9999980773926,2|0,0:2|0:0,0:0:0:0:
479,0,11511,5,0,3:2:0:0:
404,19,11610,2,0,L|377:153,1,125.999996154785,0|0,0:2|0:2,0:2:0:0:
316,227,11906,2,0,L|306:159,1,62.9999980773926,8|0,3:2|0:2,0:2:0:0:
228,2,12103,1,0,0:2:0:0:
303,22,12202,2,0,P|285:80|221:90,1,125.999996154785,2|0,0:0|0:0,0:0:0:0:
97,16,12498,2,0,P|142:21|164:47,1,62.9999980773926,2|0,0:0|0:0,0:0:0:0:
116,203,12695,1,8,3:2:0:0:
49,184,12794,1,0,0:2:0:0:
45,114,12893,1,2,0:2:0:0:
108,87,12991,1,0,0:2:0:0:
161,137,13090,6,0,B|130:196|136:255|136:255|149:284|142:318|142:318|123:344|121:393,1,242.999992584229,4|0,3:2|0:0,0:2:0:0:
259,360,14077,2,0,P|236:381|236:337,1,90,0|0,3:2|0:2,0:2:0:0:
322,266,14373,2,0,P|304:318|289:267,1,116.999994644165,0|0,3:2|0:2,0:2:0:0:
396,110,14669,6,0,B|427:169|421:228|421:228|408:257|415:291|415:291|434:317|436:366,1,242.999992584229,4|0,3:2|0:0,0:2:0:0:
245,179,15656,2,0,P|268:200|268:156,1,90,0|0,3:2|0:2,0:2:0:0:
182,85,15952,2,0,P|200:137|215:86,1,116.999994644165,0|0,3:2|0:2,0:2:0:0:
63,2,16248,6,0,L|84:137,1,125.999996154785,4|0,3:2|3:2,0:2:0:0:
129,195,16544,1,0,0:2:0:0:
129,195,16643,1,0,3:2:0:0:
245,27,16840,1,0,3:2:0:0:
234,165,17038,5,8,3:2:0:0:
264,164,17136,1,0,3:2:0:0:
291,186,17235,1,0,3:2:0:0:
302,216,17334,1,0,3:2:0:0:
289,249,17432,5,8,3:2:0:0:
257,311,17531,1,0,3:2:0:0:
303,362,17630,1,0,3:2:0:0:
365,333,17728,1,0,3:2:0:0:
358,263,17827,6,0,P|402:198|480:202,1,153.000002918243,4|0,3:2|0:2,0:2:0:0:
512,335,18123,1,0,3:2:0:0:
512,335,18419,6,0,L|502:260,2,62.9999980773926,0|0|0,0:2|0:2|0:2,0:2:0:0:
445,379,19011,1,0,0:2:0:0:
373,341,19209,1,0,0:2:0:0:
408,206,19406,5,4,3:2:0:0:
408,206,19801,1,0,3:2:0:0:
464,146,19998,1,0,0:2:0:0:
423,74,20195,1,0,3:2:0:0:
343,95,20393,1,0,0:2:0:0:
332,176,20590,1,0,3:2:0:0:
259,214,20788,1,0,0:2:0:0:
200,156,20985,1,0,3:2:0:0:
200,156,21380,1,0,3:2:0:0:
206,21,21774,2,0,P|156:31|94:45,1,94.499997116089,0|0,3:2|0:0,0:2:0:0:
110,55,22169,2,0,P|66:48|37:37,1,62.9999980773926,0|0,3:2|0:0,0:2:0:0:
3,152,22564,6,0,P|61:136|79:205,1,125.999996154785,0|0,3:2|3:2,0:0:0:0:
43,256,23156,2,0,L|60:326,1,62.9999980773926,0|0,0:2|3:2,0:2:0:0:
156,373,23551,2,0,L|141:311,1,62.9999980773926,0|0,0:0|3:0,0:0:0:0:
174,229,23945,1,0,0:2:0:0:
174,229,24143,1,0,3:2:0:0:
250,272,24538,1,0,3:2:0:0:
296,189,24932,1,0,3:2:0:0:
218,145,25327,2,0,L|199:73,1,62.9999980773926,0|0,3:2|0:0,0:2:0:0:
254,13,25722,6,0,P|303:8|319:62,1,94.499997116089,0|0,3:2|0:0,0:0:0:0:
315,57,26116,2,0,L|306:132,1,62.9999980773926,0|0,3:2|0:0,0:0:0:0:
305,243,26511,2,0,P|331:205|382:227,1,94.499997116089,0|0,3:2|0:2,0:2:0:0:
384,231,26906,2,0,L|371:304,1,62.9999980773926,0|0,3:2|0:2,0:2:0:0:
206,365,27301,2,0,P|249:327|218:261,1,125.999996154785,0|0,3:2|3:2,0:2:0:0:
155,221,27893,1,0,0:2:0:0:
14,307,28090,1,0,3:2:0:0:
14,307,28485,1,0,3:2:0:0:
152,371,28880,6,0,L|140:289,1,62.9999980773926,0|0,3:2|0:0,0:2:0:0:
85,241,29274,2,0,L|73:159,1,62.9999980773926,0|0,3:2|0:2,0:2:0:0:
3,55,29669,2,0,P|36:98|111:60,1,125.999996154785,0|0,3:2|3:2,0:2:0:0:
138,17,30261,1,0,0:2:0:0:
138,17,30656,5,4,3:2:0:0:
342,105,31051,1,4,3:2:0:0:
326,191,31248,1,0,0:2:0:0:
239,172,31445,1,0,3:2:0:0:
167,245,31643,5,2,3:2:0:0:
189,251,31741,1,2,0:2:0:0:
212,257,31840,1,2,0:2:0:0:
235,263,31939,1,2,0:2:0:0:
258,270,32038,6,0,L|362:295,1,90,6|0,3:2|0:2,0:2:0:0:
372,323,32334,1,0,0:0:0:0:
372,323,32432,1,8,3:2:0:0:
457,294,32630,1,0,0:2:0:0:
344,68,32827,2,0,L|354:168,1,90,0|2,3:2|0:2,0:2:0:0:
396,230,33123,1,0,0:2:0:0:
396,230,33222,2,0,P|434:203|435:180,1,45,8|0,3:2|0:0,0:0:0:0:
439,128,33419,1,2,0:2:0:0:
264,4,33616,6,0,L|248:124,1,90,0|0,3:2|0:0,0:2:0:0:
238,174,33913,1,0,0:2:0:0:
238,174,34011,2,0,L|190:161,1,45,8|0,3:2|0:2,0:2:0:0:
167,87,34209,1,0,0:2:0:0:
24,212,34406,2,0,B|7:195|22:169|22:169|127:142,1,135,2|0,3:2|0:2,0:2:0:0:
117,161,34801,2,0,L|99:256,1,90,10|0,3:2|0:0,0:2:0:0:
55,384,35195,6,0,P|20:357|41:297,1,90,2|0,3:2|0:2,0:2:0:0:
35,285,35491,1,0,0:2:0:0:
35,285,35590,1,8,3:2:0:0:
201,303,35788,2,0,P|163:310|110:331,1,90,0|0,0:2|3:2,0:0:0:0:
248,235,36182,1,2,0:2:0:0:
331,384,36380,2,0,L|357:247,1,135,10|0,3:2|0:2,0:2:0:0:
366,237,36774,6,0,B|429:247|408:286|460:296,1,90,0|0,3:2|0:0,0:2:0:0:
508,256,37070,1,0,0:2:0:0:
508,256,37169,2,0,L|495:201,1,45,8|0,3:2|0:2,0:2:0:0:
432,169,37366,2,0,L|442:125,1,45,0|0,0:2|0:0,0:0:0:0:
495,13,37564,2,0,B|490:27|490:27|366:57,1,135,2|0,3:2|0:2,0:2:0:0:
358,45,37959,2,0,P|323:85|337:136,1,90,10|0,3:2|0:2,0:2:0:0:
336,233,38353,6,0,P|317:199|269:198,1,90,2|0,3:2|0:2,0:2:0:0:
215,250,38649,1,0,0:2:0:0:
215,250,38748,2,0,L|223:317,1,45,8|0,3:2|0:0,0:0:0:0:
142,356,38945,2,0,L|136:311,1,45,0|0,0:2|0:2,0:2:0:0:
172,138,39143,2,0,P|158:205|98:216,1,135,0|0,3:2|0:2,0:2:0:0:
75,206,39538,1,10,3:2:0:0:
23,22,39735,1,2,3:2:0:0:
23,22,40130,6,0,B|72:20|72:20|96:44|136:50|136:50|182:39|229:50|229:50|269:111|317:123|317:123|366:95|368:32,1,432,4|2,3:2|0:2,0:0:0:0:
367,41,41709,6,0,P|218:68|171:225,1,306.000005836487,4|2,3:2|0:2,0:2:0:0:
206,351,42301,2,0,P|78:281|78:136,1,306.000005836487,4|2,3:2|0:2,0:2:0:0:
476,38,42893,6,0,P|449:187|292:234,1,306.000005836487,4|2,3:2|0:2,0:2:0:0:
165,198,43485,2,0,P|235:326|381:327,1,306.000005836487,4|2,3:2|0:2,0:2:0:0:
334,23,44077,6,0,P|307:76|285:24,1,134.999995880127,4|0,3:2|0:2,0:2:0:0:
280,32,44669,6,0,L|176:48,1,80.9999975280763,4|0,3:2|0:2,0:2:0:0:
126,96,44965,1,0,0:2:0:0:
126,96,45064,2,0,L|44:84,1,80.9999975280763,0|0,0:2|3:2,0:2:0:0:
257,169,45459,2,0,L|92:201,1,161.999995056153,2|8,0:2|0:2,0:2:0:0:
97,199,46051,2,0,L|110:259,1,40.4999987640381,2|0,0:2|0:2,0:2:0:0:
98,364,46248,6,0,P|121:331|181:325,1,80.9999975280763,0|0,3:2|0:2,0:2:0:0:
240,360,46544,1,0,3:2:0:0:
260,366,46643,2,0,L|254:310,1,40.4999987640381,0|0,0:2|0:2,0:2:0:0:
337,320,46840,2,0,L|331:264,1,40.4999987640381,0|0,3:2|0:2,0:2:0:0:
273,161,47038,2,0,P|304:218|420:196,1,161.999995056153,2|10,0:2|0:2,0:2:0:0:
393,222,47827,5,0,3:2:0:0:
499,44,48024,1,0,0:2:0:0:
412,10,48222,2,0,L|427:100,1,80.9999975280763,0|0,0:0|3:0,0:0:0:0:
497,186,48616,2,0,P|447:192|431:287,1,161.999995056153,2|8,0:2|0:2,0:2:0:0:
431,287,49209,2,0,L|376:305,1,40.4999987640381,2|0,0:2|0:2,0:0:0:0:
310,373,49406,6,0,L|286:268,1,80.9999975280763,0|0,3:2|0:2,0:2:0:0:
211,268,49702,1,0,3:2:0:0:
211,268,49801,2,0,L|224:199,1,40.4999987640381,0|0,0:2|0:2,0:2:0:0:
294,213,49998,2,0,L|307:144,1,40.4999987640381,0|0,3:2|0:2,0:2:0:0:
201,4,50195,2,0,L|221:155,1,121.499996292114,0|0,0:2|0:2,0:2:0:0:
219,148,50590,1,10,0:2:0:0:
298,68,50788,1,2,0:2:0:0:
94,98,50985,6,0,P|59:111|72:25,1,180,6|0,3:2|0:2,0:2:0:0:
71,24,51577,1,0,0:2:0:0:
274,99,51774,1,4,3:2:0:0:
190,57,51972,1,0,0:2:0:0:
191,143,52169,2,0,L|174:63,1,72,2|0,0:2|0:2,0:0:0:0:
335,2,52564,6,0,B|312:21|312:21|276:172,1,180,6|0,3:2|0:2,0:2:0:0:
277,167,53156,1,0,0:2:0:0:
413,71,53353,2,0,L|337:89,1,72,4|0,3:2|0:0,0:2:0:0:
494,148,53748,2,0,L|423:164,1,72,0|0,0:2|0:0,0:2:0:0:
328,293,54143,5,4,3:2:0:0:
406,172,54340,1,0,0:2:0:0:
449,246,54538,1,0,0:2:0:0:
295,384,54735,2,0,P|249:359|251:268,1,148.50000453186,0|0,3:2|0:2,0:2:0:0:
258,261,55130,2,0,L|240:179,1,49.5000015106202,2|0,0:2|0:0,0:0:0:0:
272,92,55327,1,10,3:2:0:0:
241,72,55426,1,2,0:2:0:0:
209,88,55524,1,2,0:2:0:0:
200,123,55623,1,2,0:2:0:0:
224,149,55722,6,0,L|302:134,1,49.5000015106202,6|0,3:2|0:2,0:2:0:0:
204,233,55919,2,0,L|282:218,1,49.5000015106202,0|0,0:2|0:2,0:2:0:0:
162,320,56116,2,0,B|131:300|131:300|110:211,1,99.0000030212403,8|0,3:2|0:2,0:2:0:0:
86,63,56511,1,0,3:2:0:0:
10,137,56709,1,2,0:2:0:0:
23,153,56807,1,2,0:2:0:0:
38,167,56906,2,0,L|93:154,1,49.5000015106202,10|2,0:2|0:2,0:0:0:0:
153,105,57103,2,0,L|208:92,1,49.5000015106202,2|2,0:2|0:2,0:0:0:0:
256,24,57301,5,6,3:2:0:0:
204,229,57498,1,0,3:2:0:0:
472,101,57695,1,2,3:2:0:0:
454,197,57893,1,10,3:2:0:0:
431,206,57991,1,2,0:2:0:0:
402,206,58090,6,0,L|321:187,1,49.5000015106202,2|2,3:2|0:2,0:0:0:0:
326,69,58288,2,0,L|374:80,1,49.5000015106202,10|2,3:2|0:2,0:0:0:0:
407,215,58485,2,0,L|326:196,1,49.5000015106202,2|2,3:2|0:2,0:0:0:0:
321,60,58682,2,0,L|369:71,1,49.5000015106202,10|0,3:2|0:2,0:2:0:0:
266,201,58880,5,2,3:2:0:0:
217,250,58978,1,2,3:2:0:0:
157,214,59077,1,2,3:2:0:0:
167,146,59176,1,2,3:2:0:0:
235,138,59274,1,2,3:2:0:0:
246,70,59373,1,2,3:2:0:0:
185,34,59472,1,6,3:2:0:0:
185,34,60459,6,0,B|208:134|208:134|180:187,1,135.000005149842,4|4,3:2|0:3,0:2:0:0:
114,190,60755,1,0,0:2:0:0:
62,128,60853,2,0,P|91:106|130:113,1,67.5000025749208,8|0,3:2|0:0,0:2:0:0:
240,230,61051,2,0,P|210:246|167:242,1,67.5000025749208,4|0,0:3|0:2,0:0:0:0:
290,164,61248,1,2,3:2:0:0:
372,384,61445,2,0,P|328:320|248:328,1,135.000005149842,6|8,0:3|3:2,0:0:0:0:
62,316,61840,1,6,0:3:0:0:
116,367,61939,1,0,0:2:0:0:
183,335,62038,6,0,P|191:268|149:195,1,135.000005149842,0|4,3:2|0:3,0:2:0:0:
22,104,62333,1,0,0:2:0:0:
75,155,62432,2,0,L|155:125,1,67.5000025749208,10|0,3:2|0:2,0:2:0:0:
205,0,62630,2,0,B|198:19|198:19|193:75,1,67.5000025749208,4|0,0:3|0:2,0:2:0:0:
341,143,62827,1,0,3:2:0:0:
312,215,62926,2,0,P|260:188|279:111,1,135.000005149842,2|0,0:0|0:0,0:0:0:0:
394,240,63222,2,0,P|380:273|334:290,1,67.5000025749208,8|0,3:2|0:2,0:2:0:0:
275,295,63419,1,4,0:3:0:0:
494,116,63616,6,0,L|475:277,1,135.000005149842,0|4,3:2|0:3,0:2:0:0:
461,373,63913,1,0,0:2:0:0:
391,335,64011,2,0,P|388:298|429:250,1,67.5000025749208,8|0,3:2|0:2,0:2:0:0:
354,143,64209,2,0,P|357:180|346:210,1,67.5000025749208,4|0,0:3|0:2,0:2:0:0:
305,378,64406,2,0,P|281:319|186:339,1,135.000005149842,0|4,3:2|0:3,0:0:0:0:
0,236,64702,1,0,0:0:0:0:
59,292,64801,2,0,P|116:268|99:180,1,135.000005149842,8|4,3:2|0:3,0:0:0:0:
305,378,65195,6,0,L|275:183,1,135.000005149842,2|4,3:2|0:3,0:2:0:0:
218,76,65491,1,0,0:2:0:0:
206,149,65590,2,0,L|195:234,1,67.5000025749208,8|0,3:2|0:2,0:2:0:0:
309,6,65788,2,0,B|296:22|296:22|325:186,1,135.000005149842,6|0,0:3|3:0,0:0:0:0:
403,349,66182,1,4,0:3:0:0:
396,274,66281,1,0,0:2:0:0:
462,239,66380,1,10,3:2:0:0:
510,294,66478,1,2,0:2:0:0:
478,361,66577,1,6,0:3:0:0:
424,102,66774,6,0,P|378:148|310:130,1,135.000005149842,6|4,3:2|0:3,0:2:0:0:
149,95,67070,1,0,0:2:0:0:
213,44,67169,2,0,P|247:42|277:60,1,67.5000025749208,8|0,3:2|0:2,0:2:0:0:
337,6,67366,2,0,P|355:34|355:69,1,67.5000025749208,4|0,0:3|0:2,0:2:0:0:
256,258,67564,2,0,L|233:117,2,135.000005149842,2|4|8,3:2|0:3|3:2,0:2:0:0:
435,338,68156,1,6,0:3:0:0:
487,284,68255,1,2,0:2:0:0:
506,355,68353,6,0,L|348:385,1,135.000005149842,2|4,3:2|0:3,0:2:0:0:
256,257,68650,1,0,0:2:0:0:
329,266,68748,2,0,L|402:276,1,67.5000025749208,8|0,3:2|0:2,0:2:0:0:
237,347,68945,2,0,L|303:337,1,67.5000025749208,4|0,0:3|0:2,0:2:0:0:
165,310,69143,1,2,3:2:0:0:
449,211,69340,2,0,L|439:145,1,67.5000025749208,6|2,0:3|0:2,0:0:0:0:
295,8,69538,1,10,3:2:0:0:
263,75,69637,1,2,0:2:0:0:
311,130,69735,1,6,0:3:0:0:
377,95,69834,1,2,0:2:0:0:
370,20,69932,6,0,P|321:67|189:72,1,170.999995433807,4|0,3:2|0:2,0:2:0:0:
12,20,70228,2,0,P|77:38|147:150,1,170.999995433807,0|0,3:2|0:2,0:2:0:0:
207,239,70524,2,0,P|198:206|229:147,1,85.4999977169037,8|0,3:2|0:2,0:2:0:0:
461,238,70722,6,0,B|453:246|453:246|277:283,1,170.999995433807,4|0,3:2|0:2,0:2:0:0:
96,346,71018,2,0,B|253:371|253:371|263:366,1,170.999995433807,0|0,3:2|0:2,0:2:0:0:
397,345,71314,1,8,3:2:0:0:
287,111,71511,5,0,0:2:0:0:
460,13,71709,1,6,3:3:0:0:
455,23,71807,1,2,0:2:0:0:
451,33,71906,1,2,3:2:0:0:
472,70,72005,1,2,0:2:0:0:
464,111,72103,1,6,3:3:0:0:
424,127,72202,1,2,0:2:0:0:
384,110,72301,6,0,P|364:83|369:48,1,67.5000025749208,2|2,3:2|0:2,0:0:0:0:
390,209,72498,2,0,P|358:212|331:193,1,67.5000025749208,6|2,3:3|0:2,0:0:0:0:
175,79,72695,5,2,3:2:0:0:
183,153,72794,1,2,0:2:0:0:
253,174,72892,1,6,3:3:0:0:
291,110,72991,1,2,0:2:0:0:
245,50,73090,6,0,L|108:74,1,135.000005149842,6|4,3:2|0:3,0:2:0:0:
0,130,73386,1,0,0:2:0:0:
74,146,73484,2,0,L|157:161,1,67.5000025749208,8|0,3:2|0:0,0:2:0:0:
18,237,73682,2,0,L|88:230,1,67.5000025749208,4|0,0:3|0:2,0:0:0:0:
253,230,73879,1,2,3:2:0:0:
224,374,74076,2,0,P|179:349|193:262,1,135.000005149842,6|8,0:3|3:2,0:0:0:0:
269,19,74471,1,6,0:3:0:0:
218,73,74570,1,0,0:2:0:0:
250,140,74669,6,0,L|400:115,1,135.000005149842,0|4,3:2|0:3,0:2:0:0:
511,167,74964,1,0,0:2:0:0:
446,204,75063,2,0,L|380:195,1,67.5000025749208,10|0,3:2|0:2,0:2:0:0:
389,270,75261,2,0,B|322:284,1,67.5000025749208,4|0,0:3|0:2,0:2:0:0:
164,282,75458,1,0,3:2:0:0:
186,356,75557,2,0,P|230:333|219:239,1,135.000005149842,2|0,0:0|0:0,0:0:0:0:
101,229,75853,2,0,P|124:204|157:201,1,67.5000025749208,8|0,3:2|0:2,0:2:0:0:
83,303,76050,1,4,0:3:0:0:
276,141,76247,6,0,L|138:120,1,135.000005149842,0|4,3:2|0:3,0:2:0:0:
5,98,76544,1,0,0:2:0:0:
34,26,76642,2,0,P|67:52|75:105,1,67.5000025749208,8|0,3:2|0:2,0:2:0:0:
52,216,76840,2,0,L|67:145,1,67.5000025749208,4|0,0:3|0:0,0:0:0:0:
245,56,77037,2,0,B|221:50|208:78|208:78|189:188,1,135.000005149842,2|4,3:2|0:3,0:2:0:0:
230,278,77333,1,0,0:2:0:0:
246,350,77432,2,0,L|269:208,1,135.000005149842,10|4,3:2|0:3,0:0:0:0:
362,2,77826,6,0,P|372:95|457:73,1,202.500007724762,2|0,3:2|0:0,0:0:0:0:
441,188,78222,5,10,3:2:0:0:
399,143,78353,5,2,0:2:0:0:
381,199,78485,5,2,0:0:0:0:
431,298,78616,6,0,B|417:288|417:288|284:263,1,135.000005149842,0|4,3:2|0:3,0:2:0:0:
161,295,78913,1,0,0:0:0:0:
197,359,79011,2,0,P|231:327|231:286,1,67.5000025749208,8|0,3:2|0:0,0:0:0:0:
215,138,79209,1,4,0:3:0:0:
23,304,79406,6,0,P|36:209|132:188,1,170.999995433807,4|0,3:2|0:2,0:2:0:0:
250,341,79702,2,0,P|187:348|115:261,1,170.999995433807,0|0,3:2|0:2,0:2:0:0:
187,150,79998,2,0,P|206:197|183:235,1,85.4999977169037,8|0,3:2|0:2,0:2:0:0:
57,0,80195,6,0,B|76:23|76:23|233:51,1,170.999995433807,0|0,3:2|0:2,0:2:0:0:
442,77,80491,2,0,L|262:110,1,170.999995433807,0|0,3:2|0:2,0:2:0:0:
152,160,80788,2,0,L|109:67,1,85.4999977169037,8|0,3:2|0:2,0:2:0:0:
322,176,80985,6,0,P|371:246|342:325,1,170.999995433807,4|0,3:2|0:2,0:2:0:0:
264,333,81281,2,0,P|215:263|244:184,1,170.999995433807,0|0,3:2|0:2,0:2:0:0:
273,107,81577,1,8,3:2:0:0:
273,107,81676,1,0,0:2:0:0:
273,107,81774,6,0,L|97:131,1,170.999995433807,0|0,3:2|0:2,0:2:0:0:
82,305,82070,2,0,P|99:312|82:311,1,42.7499988584519,0|0,3:2|3:2,0:2:0:0:
111,339,82169,2,0,P|27:335|3:251,1,170.999995433807,0|8,3:2|3:2,0:2:0:0:
316,366,82564,6,0,P|263:304|309:197,1,170.999995433807,4|0,3:2|0:2,0:2:0:0:
467,176,82860,2,0,P|439:252|324:266,1,170.999995433807,0|0,3:2|0:2,0:2:0:0:
269,136,83156,2,0,P|309:128|343:175,1,85.4999977169037,8|0,3:2|0:2,0:2:0:0:
149,357,83353,6,0,L|186:177,1,170.999995433807,4|0,3:2|0:2,0:2:0:0:
66,19,83649,2,0,L|100:186,1,170.999995433807,0|0,3:2|0:2,0:2:0:0:
28,301,83945,1,8,3:2:0:0:
28,301,84044,1,0,3:2:0:0:
28,301,84143,5,4,3:2:0:0:
253,54,84340,1,0,3:2:0:0:
118,274,84538,1,8,3:2:0:0:
268,144,84735,1,0,3:2:0:0:
268,144,84834,1,0,0:0:0:0:
268,144,84932,6,0,L|194:123,1,67.5000025749208,4|0,3:3|3:2,0:0:0:0:
290,242,85130,2,0,L|216:221,1,67.5000025749208,4|0,3:3|3:2,0:0:0:0:
61,125,85327,1,4,3:3:0:0:
16,64,85426,1,0,3:2:0:0:
54,0,85525,1,4,3:3:0:0:
124,22,85623,1,0,3:2:0:0:
131,96,85722,1,4,3:2:0:0:
203,366,87301,5,0,0:2:0:0:
239,288,87399,2,0,P|222:185|95:155,1,170.999995433807,6|0,3:2|0:2,0:2:0:0:
57,210,87695,2,0,P|74:313|201:343,1,170.999995433807,6|0,3:2|0:2,0:2:0:0:
89,128,87991,5,4,3:2:0:0:
