osu file format v14

[General]
AudioFilename: audio.ogg
AudioLeadIn: 0
PreviewTime: 59866
Countdown: 0
SampleSet: Soft
StackLeniency: 0.7
Mode: 0
LetterboxInBreaks: 0
WidescreenStoryboard: 1

[Editor]
DistanceSpacing: 1
BeatDivisor: 2
GridSize: 4
TimelineZoom: 1

[Metadata]
Title:Tasogare no Starlight (TV Size)
TitleUnicode:黄昏のスタアライト (TV Size)
Artist:Nanjo Yoshino
ArtistUnicode:南條愛乃
Creator:Sayama Kaede
Version:Easy
Source:グリザイアの楽園
Tags:suzuaki_rin japanese jpop j pop j-pop anime ed ending visual novel vn eroge galgame video game カプリスの繭 caprice mayu le eden de la grisaia no rakuen frontwing front wing フロントウィング Elements Garden 藤間仁 Fujima Hitoshi ナンジョルノ
BeatmapID:4143108
BeatmapSetID:1993718

[Difficulty]
HPDrainRate:2
CircleSize:2
OverallDifficulty:2
ApproachRate:3
SliderMultiplier:0.899999999999999
SliderTickRate:1

[Events]
//Background and Video events
0,0,"a3.jpg",0,0
//Break Periods
//Storyboard Layer 0 (Background)
//Storyboard Layer 1 (Fail)
//Storyboard Layer 2 (Pass)
//Storyboard Layer 3 (Foreground)
//Storyboard Layer 4 (Overlay)
//Storyboard Sound Samples

[TimingPoints]
3617,394.736842105263,4,2,1,60,1,0
3617,-100,4,2,1,60,0,0
5985,-100,4,2,1,65,0,0
6774,-100,4,2,1,75,0,0
13090,-100,4,2,1,80,0,0
14077,-100,4,2,1,60,0,0
14669,-100,4,2,1,80,0,0
15163,-100,4,2,1,60,0,0
16248,-100,4,2,1,75,0,0
17827,-100,4,2,1,80,0,0
18419,-100,4,2,1,55,0,0
19406,-100,4,2,1,60,0,0
30656,-100,4,2,1,65,0,0
32038,-100,4,2,1,65,0,0
41709,-100,4,2,1,80,0,0
44669,-100,4,2,1,60,0,0
50985,-100,4,2,1,70,0,0
54143,-100,4,2,1,75,0,0
57301,-100,4,2,1,80,0,0
60459,-100,4,2,1,90,0,1
85722,-100,4,2,1,70,0,0
87301,-100,4,2,1,70,0,0

[Colours]
Combo1 : 99,235,160
Combo2 : 112,222,235
Combo3 : 184,116,239
Combo4 : 242,149,211

[HitObjects]
102,113,3617,6,0,P|181:136|226:61,1,180,4|4,3:2|3:2,0:0:0:0:
401,24,5195,2,0,P|470:87|443:172,1,180,4|4,3:2|3:2,0:0:0:0:
363,181,6380,1,0,3:2:0:0:
282,221,6774,6,0,L|265:327,1,89.9999999999999,4|8,3:2|3:2,0:2:0:0:
193,360,7564,1,0,3:2:0:0:
114,316,7959,1,8,3:2:0:0:
155,236,8353,2,0,P|133:197|82:184,1,89.9999999999999,0|8,3:2|3:2,0:0:0:0:
4,160,9143,1,0,3:2:0:0:
3,69,9538,1,8,3:2:0:0:
73,13,9932,6,0,L|173:30,1,89.9999999999999,4|8,3:2|3:2,0:2:0:0:
213,102,10722,1,0,3:2:0:0:
291,58,11116,1,8,3:2:0:0:
373,94,11511,2,0,P|384:138|360:188,1,89.9999999999999,0|8,3:2|3:2,0:0:0:0:
302,239,12301,1,0,3:2:0:0:
356,310,12695,1,8,3:2:0:0:
284,364,13090,5,4,3:2:0:0:
114,215,14077,2,0,P|86:207|61:166,2,67.4999999999999,0|0|4,3:2|3:2|3:2,0:2:0:0:
293,79,15656,2,0,P|283:50|302:4,2,67.4999999999999,0|0|4,3:2|3:2|3:2,0:2:0:0:
375,115,16643,5,0,3:2:0:0:
452,160,17038,1,8,3:2:0:0:
429,247,17432,1,8,3:2:0:0:
463,330,17827,2,0,P|433:350|393:353,1,67.4999999999999,4|0,3:2|3:2,0:2:0:0:
315,83,19406,6,0,P|245:120|150:84,1,180,4|0,3:2|3:2,0:0:0:0:
22,58,20788,2,0,P|68:115|44:186,1,135,0|0,0:0|3:2,0:0:0:0:
14,250,21774,2,0,P|44:287|90:287,1,89.9999999999999,0|0,3:2|3:2,0:0:0:0:
173,276,22564,6,0,B|197:129,1,135,0|0,3:2|0:0,0:0:0:0:
159,59,23551,1,0,0:0:0:0:
238,17,23945,1,0,0:0:0:0:
490,50,25327,1,0,3:2:0:0:
414,99,25722,6,0,L|399:196,1,89.9999999999999,0|0,3:2|3:2,0:0:0:0:
457,257,26511,2,0,L|442:354,1,89.9999999999999,0|0,3:2|3:2,0:0:0:0:
359,375,27301,2,0,P|317:359|307:270,1,135,0|0,3:2|0:0,0:2:0:0:
294,52,28880,6,0,P|266:86|217:92,1,89.9999999999999,0|0,3:2|3:2,0:2:0:0:
131,84,29669,2,0,P|65:97|42:174,1,135,0|0,3:2|0:2,0:2:0:0:
60,244,30656,1,4,3:2:0:0:
135,293,31051,2,0,L|269:278,1,135,4|2,3:2|3:2,0:0:0:0:
320,203,32038,5,6,3:2:0:0:
254,141,32432,1,8,3:2:0:0:
267,51,32827,2,0,P|303:20|401:35,2,135,0|0|8,3:2|0:2|3:2,0:2:0:0:
340,103,34406,2,0,P|348:141|364:200,1,89.9999999999999,2|10,3:2|3:2,0:2:0:0:
384,277,35195,6,0,P|337:318|259:302,1,135,2|0,3:2|0:2,0:2:0:0:
211,239,36182,2,0,P|202:183|263:130,1,135,2|0,0:2|3:2,0:0:0:0:
342,113,37169,1,8,3:2:0:0:
322,25,37564,1,2,3:2:0:0:
234,2,37959,1,10,3:2:0:0:
149,33,38353,6,0,P|139:88|105:117,1,89.9999999999999,2|8,3:2|3:2,0:2:0:0:
30,141,39143,2,0,L|58:273,1,135,0|2,3:2|3:2,0:2:0:0:
81,359,40130,1,4,3:2:0:0:
215,365,40722,2,0,P|265:338|266:265,1,135,0|2,0:2|0:2,0:0:0:0:
207,198,41709,6,0,P|211:113|255:89,1,135,4|4,3:2|3:2,0:2:0:0:
381,105,42893,2,0,P|425:90|401:16,2,135,4|4|4,3:2|3:2|3:2,0:2:0:0:
321,224,44669,6,0,P|331:288|233:359,1,180,4|2,3:2|0:2,0:2:0:0:
116,358,46051,2,0,L|100:203,1,135,2|0,0:2|0:2,0:0:0:0:
153,147,47038,1,2,0:2:0:0:
239,170,47432,1,10,0:2:0:0:
306,109,47827,6,0,P|357:91|457:163,1,180,0|2,3:2|0:2,0:0:0:0:
474,288,49209,2,0,L|286:265,1,180,2|0,0:2|3:2,0:0:0:0:
161,286,50590,1,10,0:2:0:0:
121,366,50985,5,6,3:2:0:0:
1,231,51774,1,4,3:2:0:0:
31,53,52564,1,6,3:2:0:0:
203,2,53353,1,4,3:2:0:0:
297,155,54143,6,0,P|350:155|398:90,2,135,4|0|8,3:2|3:2|3:2,0:2:0:0:
207,161,55722,1,4,3:2:0:0:
213,250,56116,2,0,P|229:310|312:315,1,135,8|2,3:2|0:2,0:0:0:0:
416,267,57301,6,0,L|433:172,1,89.9999999999999,6|2,3:2|3:2,0:2:0:0:
488,108,58090,1,2,3:2:0:0:
440,31,58485,1,2,3:2:0:0:
357,66,58880,2,0,P|290:80|244:33,1,135,2|6,3:2|3:2,0:2:0:0:
22,5,60459,5,4,3:2:0:0:
37,93,60853,2,0,P|101:103|125:177,1,135,8|6,3:2|0:3,0:2:0:0:
84,240,61840,2,0,P|80:293|142:354,1,135,6|10,0:3|3:2,0:2:0:0:
201,293,62827,1,0,3:2:0:0:
279,337,63222,1,8,3:2:0:0:
351,284,63616,6,0,L|333:177,1,89.9999999999999,0|8,3:2|3:2,0:2:0:0:
268,134,64406,1,0,3:2:0:0:
283,45,64801,1,8,3:2:0:0:
371,59,65195,2,0,P|405:7|483:32,2,135,2|6|10,3:2|0:3|3:2,0:2:0:0:
422,132,66774,6,0,L|520:151,2,89.9999999999999,6|8|2,3:2|3:2|3:2,0:2:0:0:
354,191,67959,1,8,3:2:0:0:
311,270,68353,2,0,P|265:266|226:295,1,89.9999999999999,2|8,3:2|3:2,0:2:0:0:
162,349,69143,1,2,3:2:0:0:
74,327,69538,1,10,3:2:0:0:
37,244,69932,6,0,P|-8:133|151:80,1,315,4|8,3:2|3:2,0:2:0:0:
271,109,71906,1,2,3:2:0:0:
324,36,72301,2,0,L|431:29,1,89.9999999999999,2|2,3:2|3:2,0:0:0:0:
469,105,73090,5,6,3:2:0:0:
392,151,73484,2,0,P|356:191|364:270,1,135,8|6,3:2|0:3,0:2:0:0:
393,352,74471,2,0,L|253:370,1,135,6|10,0:3|3:2,0:2:0:0:
172,345,75458,1,0,3:2:0:0:
215,266,75853,1,8,3:2:0:0:
143,211,76248,6,0,L|125:104,1,89.9999999999999,0|8,3:2|3:2,0:2:0:0:
149,34,77037,1,2,3:2:0:0:
238,21,77432,1,10,3:2:0:0:
308,77,77827,2,0,P|355:41|445:47,2,135,2|4|8,3:2|0:3|3:2,0:0:0:0:
264,156,79406,6,0,L|282:241,1,67.4999999999999,4|0,3:2|3:2,0:2:0:0:
309,330,80195,2,0,P|354:335|388:316,1,67.4999999999999,0|0,3:2|3:0,0:2:0:0:
466,263,80985,2,0,L|436:140,1,89.9999999999999,4|0,3:2|3:2,0:2:0:0:
387,106,81774,2,0,L|280:92,1,89.9999999999999,0|0,3:2|3:2,0:2:0:0:
227,37,82564,6,0,P|182:51|169:80,1,67.4999999999999,4|0,3:2|3:0,0:2:0:0:
190,177,83353,2,0,L|205:264,1,67.4999999999999,4|0,3:2|3:2,0:2:0:0:
184,354,84143,2,0,P|140:378|77:357,1,89.9999999999999,4|8,3:2|3:2,0:2:0:0:
22,328,84932,1,4,3:3:0:0:
40,239,85327,1,4,3:3:0:0:
56,150,85722,5,4,3:2:0:0:
474,130,87399,6,0,B|488:66|488:66|445:7,1,135,6|4,3:2|3:2,0:2:0:0:
