osu file format v14

[General]
AudioFilename: audio.mp3
AudioLeadIn: 0
PreviewTime: 52628
Countdown: 0
SampleSet: Soft
StackLeniency: 0.5
Mode: 0
LetterboxInBreaks: 0
WidescreenStoryboard: 1

[Editor]
Bookmarks: 50914
DistanceSpacing: 1
BeatDivisor: 4
GridSize: 4
TimelineZoom: 1

[Metadata]
Title:Shinsekai
TitleUnicode:新世界
Artist:Nanjo Yoshino
ArtistUnicode:南條愛乃
Creator:PaRaDogi
Version:Hard
Source:グリザイア クロノスリベリオン
Tags:Hinsvar Dora- Doraemonelf Grisaia no Kajitsu Rakuen Phantom Trigger Chronos Rebellion Japanese Mobile Game Frontwing visual novel vn
BeatmapID:2165261
BeatmapSetID:1035680

[Difficulty]
HPDrainRate:4
CircleSize:4
OverallDifficulty:7
ApproachRate:7
SliderMultiplier:1.5
SliderTickRate:1

[Events]
//Background and Video events
0,0,"wallpaper-1736379.jpg",0,0
//Break Periods
2,47233,48877
//Storyboard Layer 0 (Background)
//Storyboard Layer 1 (Fail)
//Storyboard Layer 2 (Pass)
//Storyboard Layer 3 (Foreground)
//Storyboard Layer 4 (Overlay)
//Storyboard Sound Samples

[TimingPoints]
406,342.857142857143,4,2,1,55,1,0
406,-133.333333333333,4,2,1,55,0,0
577,-133.333333333333,4,2,2,55,0,0
748,-133.333333333333,4,2,3,55,0,0
920,-133.333333333333,4,2,4,55,0,0
1091,-133.333333333333,4,2,3,55,0,0
1262,-133.333333333333,4,2,5,55,0,0
1434,-133.333333333333,4,2,3,55,0,0
1606,-133.333333333333,4,2,2,55,0,0
1777,-133.333333333333,4,2,1,55,0,0
1948,-133.333333333333,4,2,2,55,0,0
2119,-133.333333333333,4,2,3,55,0,0
2291,-133.333333333333,4,2,4,55,0,0
2463,-133.333333333333,4,2,3,55,0,0
2634,-133.333333333333,4,2,5,55,0,0
2806,-133.333333333333,4,2,3,55,0,0
2977,-133.333333333333,4,2,2,55,0,0
3148,-100,4,2,1,75,0,0
3491,-100,4,2,5,75,0,0
8634,-100,4,2,5,60,0,0
8976,-100,4,2,1,60,0,0
9148,-100,4,2,2,60,0,0
9319,-100,4,2,1,60,0,0
9663,-100,4,2,2,60,0,0
10005,-100,4,2,1,60,0,0
10177,-100,4,2,2,60,0,0
10519,-100,4,2,1,60,0,0
10691,-100,4,2,2,60,0,0
11205,-100,4,2,1,60,0,0
11377,-100,4,2,2,60,0,0
11719,-100,4,2,1,60,0,0
11891,-100,4,2,2,60,0,0
12062,-100,4,2,1,60,0,0
12406,-100,4,2,2,60,0,0
12748,-100,4,2,1,60,0,0
12920,-100,4,2,2,60,0,0
13262,-100,4,2,1,60,0,0
13434,-100,4,2,2,60,0,0
13948,-100,4,2,1,60,0,0
14120,-100,4,2,1,50,0,0
15148,-100,4,2,6,50,0,0
23720,-100,4,2,1,70,0,0
25091,-100,4,2,5,65,0,0
30234,-100,4,2,1,65,0,0
30577,-100,4,2,5,65,0,0
33320,-100,4,2,7,65,0,0
34691,-100,4,2,5,65,0,0
35548,-100,4,2,3,65,0,0
36063,-100,4,2,2,65,0,0
36405,-100,4,2,3,65,0,0
36919,-100,4,2,5,65,0,0
37091,-100,4,2,3,65,0,0
37434,-100,4,2,5,65,0,0
37605,-100,4,2,3,65,0,0
40177,-100,4,2,7,65,0,0
40519,-100,4,2,3,65,0,0
40691,-100,4,2,7,65,0,0
41033,-100,4,2,1,65,0,0
41548,-100,4,2,5,65,0,0
41806,-100,4,2,4,65,0,0
42062,-100,4,2,5,65,0,0
43434,-100,4,2,3,65,0,0
43606,-100,4,2,8,65,0,0
44120,-100,4,2,5,65,0,0
45491,-100,4,2,7,65,0,0
46520,-100,4,2,3,65,0,0
47033,-100,4,2,7,65,0,0
49777,-100,4,2,7,70,0,0
52005,-100,4,2,7,60,0,0
52520,-100,4,2,1,80,0,1
52691,-100,4,2,9,80,0,1
59377,-100,4,2,10,80,0,1
59634,-100,4,2,99,5,0,1
59720,-100,4,2,10,80,0,1
59977,-100,4,2,99,5,0,1
60063,-100,4,2,10,80,0,1
60320,-100,4,2,99,5,0,1
60406,-100,4,2,10,80,0,1
60748,-100,4,2,9,80,0,1
62634,-100,4,2,4,70,0,1
62977,-100,4,2,9,70,0,1
63491,-100,4,2,1,80,0,1
63662,-100,4,2,9,80,0,1
68120,-100,4,2,10,80,0,1
68977,-100,4,2,9,80,0,1
70348,-100,4,2,10,80,0,1
71548,-100,4,2,4,80,0,1
71720,-100,4,2,4,70,0,0
72406,-133.333333333333,4,2,4,70,0,0
73091,-133.333333333333,4,2,10,85,0,0
73348,-133.333333333333,4,2,99,5,0,0
73434,-133.333333333333,4,2,10,85,0,0
73691,-133.333333333333,4,2,99,5,0,0
73777,-133.333333333333,4,2,10,85,0,0
74034,-133.333333333333,4,2,99,5,0,0
74120,-133.333333333333,4,2,10,85,0,0
74377,-133.333333333333,4,2,99,5,0,0
74463,-100,4,2,2,75,0,0
74805,-100,4,2,7,75,0,0
78834,-100,4,2,99,5,0,0
78920,-100,4,2,7,75,0,0
79777,-100,4,2,1,75,0,0
79948,-133.333333333333,4,2,1,60,0,0
80119,-133.333333333333,4,2,2,60,0,0
80290,-133.333333333333,4,2,3,60,0,0
80463,-133.333333333333,4,2,4,60,0,0
80634,-133.333333333333,4,2,3,60,0,0
80805,-133.333333333333,4,2,5,60,0,0
80977,-133.333333333333,4,2,3,60,0,0
81148,-133.333333333333,4,2,2,60,0,0
81320,-133.333333333333,4,2,1,60,0,0
81491,-133.333333333333,4,2,2,60,0,0
81662,-133.333333333333,4,2,3,60,0,0
81834,-133.333333333333,4,2,4,60,0,0
82005,-133.333333333333,4,2,3,60,0,0
82176,-133.333333333333,4,2,5,60,0,0
82348,-133.333333333333,4,2,3,60,0,0
82520,-133.333333333333,4,2,2,60,0,0
82691,-133.333333333333,4,2,1,60,0,0
82862,-133.333333333333,4,2,2,60,0,0
83033,-133.333333333333,4,2,3,60,0,0
83206,-133.333333333333,4,2,4,60,0,0
83377,-133.333333333333,4,2,3,60,0,0
83548,-133.333333333333,4,2,5,60,0,0
83720,-133.333333333333,4,2,3,60,0,0
83891,-133.333333333333,4,2,2,60,0,0
84063,-133.333333333333,4,2,1,60,0,0
84234,-133.333333333333,4,2,2,60,0,0
84405,-133.333333333333,4,2,3,60,0,0
84577,-133.333333333333,4,2,4,60,0,0
84748,-133.333333333333,4,2,3,60,0,0
84920,-133.333333333333,4,2,11,60,0,0
85091,-133.333333333333,4,2,12,60,0,0
85263,-133.333333333333,4,2,13,60,0,0

[Colours]
Combo1 : 251,142,235
Combo2 : 121,249,255
Combo3 : 252,221,3
Combo4 : 16,169,235

[HitObjects]
155,68,406,6,0,L|85:64,2,56.2500021457673,10|8|8,2:0|2:0|2:0,2:0:0:0:
215,122,920,2,0,L|282:121,2,56.2500021457673,10|8|8,2:0|2:0|2:0,2:0:0:0:
149,167,1434,1,10,2:0:0:0:
149,167,1606,1,10,2:0:0:0:
149,167,1777,6,0,L|78:167,2,56.2500021457673,10|8|8,2:0|2:0|2:0,2:0:0:0:
209,217,2291,1,10,2:0:0:0:
209,217,2463,1,8,2:0:0:0:
279,190,2634,1,8,2:0:0:0:
279,190,2806,2,0,L|341:197,1,56.2500021457673,10|10,2:0|2:0,2:0:0:0:
409,259,3148,6,0,P|428:223|425:181,1,75,2|0,3:0|2:0,2:0:0:0:
386,103,3491,2,0,L|306:105,1,75,2|0,1:2|2:0,2:0:0:0:
230,60,3834,2,0,L|146:61,1,75,2|0,3:2|2:0,2:0:0:0:
56,29,4177,2,0,L|57:111,1,75,2|0,1:2|2:0,2:0:0:0:
134,146,4520,6,0,L|137:245,1,75,2|0,0:0|0:0,0:0:0:0:
136,293,4863,2,0,L|211:293,1,75,2|0,1:2|2:0,2:0:0:0:
261,363,5206,2,0,P|287:331|294:290,1,75,2|0,3:2|2:0,2:0:0:0:
260,228,5548,2,0,P|249:180|262:142,1,75,2|0,1:2|2:0,2:0:0:0:
320,88,5891,6,0,L|406:87,1,75,2|0,3:2|2:0,2:0:0:0:
474,137,6234,1,2,1:2:0:0:
474,137,6406,1,0,2:0:0:0:
418,200,6577,2,0,L|417:276,1,75,2|0,3:2|2:0,2:0:0:0:
360,345,6920,1,2,1:2:0:0:
360,345,7091,1,0,2:0:0:0:
281,297,7263,2,0,L|197:297,1,75,2|0,3:2|2:0,2:0:0:0:
120,356,7606,2,0,L|120:271,1,75,2|0,1:2|2:0,2:0:0:0:
182,217,7948,1,2,3:2:0:0:
182,217,8120,1,0,1:0:0:0:
113,161,8291,2,0,P|75:152|35:161,1,75,2|0,1:2|1:0,2:0:0:0:
187,133,8634,6,0,P|163:100|102:84,2,75,0|0|8,3:0|2:0|2:3,2:0:0:0:
266,129,9148,2,0,P|254:89|202:53,2,75,2|8|8,2:3|2:3|2:3,2:0:0:0:
335,169,9663,2,0,B|407:148|406:207|490:168,1,150,2|8,2:3|2:3,2:0:0:0:
509,88,10177,1,2,2:3:0:0:
509,88,10348,2,0,L|510:3,1,75,0|8,2:0|2:3,2:0:0:0:
424,29,10691,2,0,P|380:39|338:22,1,75,2|0,2:3|2:0,2:0:0:0:
267,63,11034,2,0,P|225:57|173:74,1,75,2|8,2:3|2:3,2:0:0:0:
117,80,11377,6,0,L|118:4,2,75,2|0|8,3:0|2:0|2:3,2:0:0:0:
36,128,11891,2,0,L|36:47,2,75,2|8|8,2:3|2:3|2:3,2:0:0:0:
115,169,12406,2,0,B|175:168|175:168|203:176|203:176|271:175,1,150,2|8,2:3|2:3,2:0:0:0:
344,243,12920,2,0,P|361:287|307:369,1,150,2|8,2:3|2:3,2:0:0:0:
202,353,13434,1,2,2:3:0:0:
88,333,13606,1,2,2:3:0:0:
88,333,13691,1,2,2:3:0:0:
88,333,13777,2,0,L|83:285,3,37.5,8|8|4|4,2:3|2:3|2:3|2:3,2:0:0:0:
81,263,14120,6,0,P|123:246|160:250,1,75,2|2,3:2|2:0,2:0:0:0:
225,271,14463,2,0,P|264:283|301:275,1,75,2|2,3:2|2:0,2:0:0:0:
365,238,14806,1,2,3:2:0:0:
365,238,14977,2,0,L|357:155,1,75,2|8,2:0|3:2,2:0:0:0:
312,100,15320,1,2,2:0:0:0:
312,100,15491,6,0,B|241:136|241:60|153:107,1,150,0|0,3:0|3:0,2:0:0:0:
107,147,16006,1,0,2:0:0:0:
107,147,16177,2,0,L|112:238,1,75,0|0,3:0|2:0,2:0:0:0:
200,232,16520,2,0,L|203:330,1,75,8|0,3:2|2:0,2:0:0:0:
263,357,16863,6,0,P|306:368|342:359,1,75,2|2,3:2|2:0,2:0:0:0:
399,323,17206,2,0,P|439:311|481:321,1,75,2|2,3:2|2:0,2:0:0:0:
507,250,17548,1,2,3:2:0:0:
507,250,17720,2,0,L|508:156,1,75,2|8,2:0|3:2,2:0:0:0:
477,102,18063,6,0,P|438:82|338:106,1,150,2|2,2:0|2:0,2:0:0:0:
279,155,18577,1,2,3:2:0:0:
279,155,18748,2,0,B|222:156|222:156|196:148|196:148|124:149,1,150,2|0,2:0|2:0,2:0:0:0:
66,196,19263,1,8,3:2:0:0:
103,271,19434,1,0,1:0:0:0:
103,271,19520,1,0,1:0:0:0:
103,271,19606,6,0,L|102:357,1,75,2|2,3:2|2:0,2:0:0:0:
176,377,19948,2,0,P|214:365|252:369,1,75,2|2,3:2|2:0,2:0:0:0:
323,369,20291,1,2,3:2:0:0:
323,369,20463,2,0,L|323:283,1,75,2|8,2:0|1:2,2:0:0:0:
364,230,20806,2,0,B|364:185|364:185|373:158|373:158|362:131|362:131|360:76,1,150,2|0,2:0|2:0,2:0:0:0:
301,32,21320,6,0,P|265:22|212:35,1,75,2|0,3:2|2:0,2:0:0:0:
162,68,21663,2,0,P|122:81|78:71,1,75,2|0,3:2|2:0,2:0:0:0:
13,58,22006,2,0,L|14:140,1,75,10|0,1:2|2:0,2:0:0:0:
61,193,22348,6,0,L|61:272,1,75,2|0,3:2|2:0,2:0:0:0:
110,330,22691,1,2,3:2:0:0:
110,330,22863,2,0,P|152:339|187:330,1,75,2|0,2:0|3:0,2:0:0:0:
251,295,23206,2,0,B|339:288|293:365|413:344,1,150,2|2,2:0|2:0,2:0:0:0:
457,293,23720,6,0,L|459:370,1,75,4|0,1:2|3:0,2:0:0:0:
477,210,24063,2,0,L|477:293,1,75,4|0,1:2|3:0,2:0:0:0:
455,121,24406,2,0,L|455:204,1,75,4|4,1:2|1:2,2:0:0:0:
368,27,25091,6,0,P|327:17|286:27,1,75,6|2,3:2|2:0,2:0:0:0:
228,55,25434,2,0,P|187:66|146:58,1,75,2|2,1:2|2:0,2:0:0:0:
78,50,25777,1,2,3:2:0:0:
78,50,25948,2,0,L|76:154,1,75,2|0,3:2|1:0,2:0:0:0:
113,193,26291,2,0,B|114:244|114:244|121:268|121:268|113:296|113:296|112:345,1,150,2|0,2:0|2:0,2:0:0:0:
183,376,26806,6,0,P|222:369|258:378,1,75,0|0,1:0|2:0,2:0:0:0:
325,342,27148,1,0,3:0:0:0:
325,342,27320,1,0,3:0:0:0:
400,369,27491,2,0,L|401:290,1,75,0|0,1:0|2:0,2:0:0:0:
351,237,27834,6,0,P|299:226|260:237,1,75,2|2,3:2|2:0,2:0:0:0:
211,261,28177,2,0,P|163:270|129:260,1,75,2|2,1:2|2:0,2:0:0:0:
74,223,28520,1,2,3:2:0:0:
74,223,28691,2,0,L|76:135,1,75,2|0,3:2|1:0,2:0:0:0:
117,84,29034,2,0,P|158:60|259:95,1,150,2|2,2:0|2:0,2:0:0:0:
298,150,29548,1,2,1:2:0:0:
298,150,29720,2,0,L|298:239,1,75,2|0,3:2|2:0,2:0:0:0:
355,277,30063,2,0,L|356:354,1,75,0|4,3:0|1:2,2:0:0:0:
437,362,30406,1,0,2:0:0:0:
437,362,30491,1,0,2:0:0:0:
437,362,30577,6,0,L|519:359,1,75,6|2,3:2|2:0,2:0:0:0:
510,270,30920,2,0,L|511:182,1,75,2|2,1:2|2:0,2:0:0:0:
475,131,31263,1,2,3:2:0:0:
475,131,31434,2,0,P|431:117|395:126,1,75,2|0,3:2|1:0,2:0:0:0:
330,139,31777,2,0,B|241:132|303:203|182:181,1,150,2|0,2:0|2:0,2:0:0:0:
121,159,32291,6,0,L|121:237,1,75,2|0,1:2|2:0,2:0:0:0:
55,276,32634,2,0,L|56:363,1,75,2|0,3:2|3:0,2:0:0:0:
131,374,32977,2,0,P|173:367|220:379,1,75,2|0,1:2|2:0,2:0:0:0:
284,376,33320,6,0,B|257:306|257:306|287:231,1,150,6|2,3:2|1:2,2:0:0:0:
342,184,33834,2,0,P|385:175|466:240,1,150,2|0,3:2|3:0,2:0:0:0:
382,339,34348,2,0,L|382:262,1,75,2|0,1:2|2:0,2:0:0:0:
342,184,34691,6,0,B|343:140|343:140|351:114|351:114|344:90|344:90|344:30,1,150,6|2,3:2|1:2,2:0:0:0:
246,22,35206,1,2,2:0:0:0:
246,22,35377,2,0,L|158:22,1,75,0|8,1:0|2:3,2:0:0:0:
101,56,35720,2,0,L|16:56,1,75,8|4,2:3|2:3,2:0:0:0:
187,92,36063,6,0,B|187:140|187:140|175:165|175:165|186:190|186:190|187:244,1,150,4|6,2:0|2:3,2:0:0:0:
237,297,36577,1,10,2:3:0:0:
237,297,36748,2,0,P|280:308|312:297,1,75,6|2,2:3|2:0,2:0:0:0:
374,268,37091,2,0,P|417:256|456:265,1,75,6|0,2:3|2:0,2:0:0:0:
505,305,37434,2,0,L|504:383,2,75,2|10|6,3:2|2:3|2:3,2:0:0:0:
446,260,37948,1,10,2:3:0:0:
446,260,38120,2,0,L|447:181,1,75,6|6,2:3|2:3,2:0:0:0:
501,133,38463,2,0,L|501:52,1,75,4|10,2:3|2:3,2:0:0:0:
438,9,38806,6,0,P|401:0|353:11,1,75,4|8,2:3|2:3,2:0:0:0:
301,48,39148,2,0,P|260:56|216:42,1,75,6|8,2:3|2:3,2:0:0:0:
154,23,39491,2,0,L|155:131,1,75,6|4,2:3|2:3,2:0:0:0:
108,159,39834,2,0,L|109:249,1,75,6|0,2:3|2:0,2:0:0:0:
59,297,40177,6,0,P|101:313|184:261,1,150,6|6,3:2|2:3,2:0:0:0:
214,190,40691,2,0,P|245:162|360:191,1,150,14|4,2:0|2:3,2:0:0:0:
405,227,41206,2,0,P|446:238|479:227,1,75,4|0,1:2|2:0,2:0:0:0:
511,163,41548,5,4,3:2:0:0:
478,91,41720,1,2,2:0:0:0:
478,91,41806,1,8,2:3:0:0:
478,91,41891,2,0,L|476:3,1,75,0|2,1:0|2:0,2:0:0:0:
401,13,42234,2,0,P|352:22|319:14,1,75,2|2,3:2|3:2,2:0:0:0:
254,10,42577,2,0,P|209:4|175:16,1,75,2|2,1:2|2:0,2:0:0:0:
108,39,42920,6,0,B|119:76|119:76|111:115,1,75,6|2,3:2|3:2,2:0:0:0:
63,169,43263,2,0,B|52:206|52:206|60:245,1,75,2|10,1:2|2:3,2:0:0:0:
76,318,43606,1,2,1:2:0:0:
76,318,43777,1,6,1:2:0:0:
276,316,44120,6,0,B|357:311|329:384|427:356,1,150,6|0,3:2|3:0,2:0:0:0:
475,318,44634,2,0,P|490:279|479:230,1,75,0|0,1:0|2:0,2:0:0:0:
456,178,44977,2,0,P|444:137|452:99,1,75,2|0,3:2|3:0,2:0:0:0:
477,32,45320,1,2,1:2:0:0:
477,32,45491,2,0,L|378:33,1,75,6|0,3:2|2:0,2:0:0:0:
331,61,45834,5,2,3:2:0:0:
331,61,46006,1,2,1:2:0:0:
265,15,46177,2,0,L|180:16,1,75,6|0,3:2|1:0,2:0:0:0:
112,14,46520,1,8,2:3:0:0:
112,14,46691,2,0,B|112:69|112:69|103:109|103:109|103:169,1,150,4|2,2:3|2:0,2:0:0:0:
220,349,49777,5,6,1:2:0:0:
220,349,49948,2,0,L|296:348,1,75,6|0,1:2|2:0,2:0:0:0:
346,274,50291,5,6,1:2:0:0:
346,274,50462,2,0,L|270:273,1,75,6|0,1:2|2:0,2:0:0:0:
224,198,50806,5,6,1:2:0:0:
224,198,50977,2,0,L|300:197,1,75,6|0,1:2|2:0,2:0:0:0:
363,152,51320,2,0,P|371:109|360:78,1,75,0|0,1:0|1:0,2:0:0:0:
307,24,51663,2,0,B|233:47|234:-10|155:24,1,150,2|2,1:2|1:2,2:0:0:0:
102,71,52177,2,0,P|85:115|92:157,1,75,2|2,1:2|1:2,2:0:0:0:
51,217,52520,6,0,L|146:216,1,75,6|2,3:1|2:0,2:0:0:0:
211,177,52863,1,2,1:2:0:0:
211,177,53034,2,0,L|211:272,1,75,2|0,3:2|2:0,2:0:0:0:
267,333,53377,1,2,3:2:0:0:
267,333,53548,2,0,P|320:344|348:336,1,75,2|2,1:2|2:0,2:0:0:0:
427,297,53891,6,0,L|426:218,1,75,2|2,3:2|3:2,2:0:0:0:
475,137,54234,1,2,1:2:0:0:
475,137,54406,2,0,B|414:137|414:137|386:131|386:131|304:131,1,150,2|0,3:2|3:0,2:0:0:0:
243,84,54920,2,0,P|233:123|241:169,1,75,0|2,1:0|2:0,2:0:0:0:
271,247,55263,6,0,L|179:246,1,75,2|2,3:2|3:2,2:0:0:0:
114,293,55606,1,2,1:2:0:0:
114,293,55777,2,0,P|99:234|160:158,1,150,2|0,3:2|3:0,2:0:0:0:
113,78,56291,2,0,P|157:71|195:86,1,75,2|2,1:2|1:2,2:0:0:0:
241,161,56634,1,2,3:2:0:0:
241,161,56806,2,0,L|241:240,1,75,2|0,3:2|1:0,2:0:0:0:
288,318,57148,2,0,P|328:342|428:309,1,150,2|0,3:2|3:0,2:0:0:0:
489,243,57663,2,0,L|488:159,1,75,0|0,1:0|2:0,2:0:0:0:
424,80,58006,6,0,L|512:81,1,75,6|0,3:2|2:0,2:0:0:0:
327,103,58348,2,0,L|415:104,1,75,2|0,1:2|2:0,2:0:0:0:
294,70,58691,1,2,3:2:0:0:
294,70,58863,1,2,3:2:0:0:
227,132,59034,2,0,P|181:138|143:124,1,75,2|2,1:2|2:0,2:0:0:0:
68,77,59377,6,0,L|66:202,1,112.5,6|0,3:2|2:0,2:0:0:0:
81,222,59720,6,0,P|121:247|198:235,1,112.5,6|0,3:2|2:0,2:0:0:0:
216,229,60063,6,0,P|259:217|331:238,1,112.5,6|0,3:2|2:0,2:0:0:0:
356,256,60406,6,0,L|459:257,1,75,4|0,3:2|2:0,2:0:0:0:
506,204,60748,6,0,L|506:126,1,75,6|2,3:2|2:0,2:0:0:0:
441,55,61091,1,2,1:2:0:0:
441,55,61263,2,0,P|394:44|358:56,1,75,2|0,3:2|2:0,2:0:0:0:
288,98,61606,1,2,3:2:0:0:
288,98,61691,1,0,2:0:0:0:
288,98,61777,1,2,1:2:0:0:
361,161,61948,2,0,B|361:206|361:206|372:237|372:237|360:267|360:267|360:323,1,150,2|0,3:2|3:0,2:0:0:0:
285,372,62463,6,0,P|245:379|204:367,1,75,0|10,1:0|1:3,2:0:0:0:
132,322,62806,2,0,P|85:308|44:316,1,75,6|2,1:3|1:2,2:0:0:0:
12,229,63148,1,2,1:2:0:0:
90,174,63320,1,2,1:2:0:0:
90,174,63406,1,0,1:0:0:0:
90,174,63491,6,0,L|90:95,1,75,6|2,3:1|2:0,2:0:0:0:
161,32,63834,1,2,1:2:0:0:
161,32,64006,2,0,P|198:17|309:47,1,150,2|2,3:2|3:2,2:0:0:0:
374,114,64520,2,0,L|373:203,1,75,2|2,1:2|2:0,2:0:0:0:
316,274,64863,5,2,3:2:0:0:
316,274,65034,1,2,3:2:0:0:
230,239,65206,1,2,1:2:0:0:
230,239,65377,2,0,L|152:239,1,75,2|0,3:2|2:0,2:0:0:0:
63,281,65720,1,0,3:0:0:0:
63,281,65891,2,0,L|62:202,1,75,0|2,1:0|2:0,2:0:0:0:
112,124,66234,5,2,3:2:0:0:
112,124,66406,1,2,3:2:0:0:
76,42,66577,1,2,1:2:0:0:
76,42,66748,2,0,L|157:41,1,75,2|2,3:2|2:0,2:0:0:0:
239,15,67091,1,2,3:2:0:0:
239,15,67263,2,0,L|237:94,1,75,2|2,1:2|1:2,2:0:0:0:
287,173,67606,5,2,3:2:0:0:
287,173,67777,2,0,P|332:181|370:169,1,75,2|0,3:2|1:0,2:0:0:0:
446,127,68120,2,0,B|445:170|445:170|456:200|456:200|445:230|445:230|447:279,1,150,6|0,3:2|3:0,2:0:0:0:
386,345,68634,2,0,P|343:355|296:339,1,75,0|0,1:0|2:0,2:0:0:0:
235,297,68977,6,0,L|235:217,1,75,6|2,3:2|2:0,2:0:0:0:
292,149,69320,2,0,P|333:139|373:155,1,75,2|2,1:2|3:2,2:0:0:0:
441,193,69663,2,0,P|476:202|512:192,2,75,2|2|2,2:0|3:2|1:2,2:0:0:0:
445,102,70177,1,2,3:2:0:0:
445,102,70263,1,0,3:0:0:0:
445,102,70348,6,0,L|444:17,1,75,4|2,1:2|3:2,2:0:0:0:
352,17,70691,1,2,3:2:0:0:
352,17,70863,2,0,P|310:10|258:20,1,75,4|2,1:2|3:2,2:0:0:0:
194,52,71206,1,0,3:0:0:0:
194,52,71377,2,0,L|194:127,1,75,6|8,1:2|2:3,2:0:0:0:
194,154,71720,5,6,3:0:0:0:
502,319,72406,6,0,P|516:289|506:245,1,56.2500021457673,2|0,2:0|2:0,2:0:0:0:
489,202,72748,2,0,P|481:172|484:130,1,56.2500021457673,2|0,2:0|2:0,2:0:0:0:
455,79,73091,2,0,P|434:74|367:87,1,84.3750032186509,6|0,1:2|2:0,2:0:0:0:
333,98,73434,6,0,P|303:111|247:103,1,84.3750032186509,6|0,1:2|2:0,2:0:0:0:
220,115,73777,6,0,L|220:205,1,84.3750032186509,6|0,1:2|2:0,2:0:0:0:
230,228,74120,6,0,L|230:318,1,84.3750032186509,6|0,1:2|2:0,2:0:0:0:
199,330,74463,6,0,P|159:357|51:328,1,150,6|2,3:1|1:2,2:0:0:0:
10,284,74977,1,2,2:0:0:0:
41,215,75148,2,0,L|43:133,1,75,2|2,3:2|3:2,2:0:0:0:
83,71,75491,2,0,P|122:62|167:75,1,75,2|2,1:2|2:0,2:0:0:0:
226,100,75834,6,0,B|299:79|297:134|384:100,1,150,2|2,3:2|1:2,2:0:0:0:
446,76,76348,1,0,2:0:0:0:
446,76,76520,2,0,L|445:159,1,75,2|0,3:2|3:0,2:0:0:0:
404,212,76863,2,0,L|402:289,1,75,2|0,1:2|2:0,2:0:0:0:
355,347,77206,6,0,P|305:364|205:341,1,150,2|2,3:2|1:2,2:0:0:0:
157,290,77720,1,2,2:0:0:0:
157,290,77891,2,0,L|158:209,1,75,2|2,3:2|3:2,2:0:0:0:
115,151,78234,2,0,L|115:77,1,75,2|2,1:2|2:0,2:0:0:0:
167,17,78577,6,0,P|206:10|276:34,1,112.5,6|0,3:2|2:0,2:0:0:0:
295,64,78920,6,0,L|293:181,1,112.5,6|0,1:2|1:0,2:0:0:0:
269,208,79263,6,0,L|268:325,1,112.5,14|0,2:0|1:0,2:0:0:0:
239,349,79606,6,0,P|199:361|162:350,1,75,6|4,1:2|2:3,2:0:0:0:
139,337,79863,1,0,2:0:0:0:
139,337,79948,6,0,P|103:327|76:328,2,56.2500021457673,10|8|8,2:0|2:0|2:0,2:0:0:0:
54,260,80463,2,0,P|24:277|7:298,2,56.2500021457673,10|8|8,2:0|2:0|2:0,2:0:0:0:
95,194,80977,1,10,2:0:0:0:
95,194,81148,1,10,2:0:0:0:
95,194,81320,6,0,L|90:131,2,56.2500021457673,10|8|8,2:0|2:0|2:0,2:0:0:0:
168,126,81834,2,0,L|161:66,2,56.2500021457673,10|8|8,2:0|2:0|2:0,2:0:0:0:
238,179,82348,1,10,2:0:0:0:
238,179,82520,1,10,2:0:0:0:
238,179,82691,6,0,P|283:172|308:176,2,56.2500021457673,10|8|8,2:0|2:0|2:0,2:0:0:0:
276,247,83206,2,0,P|306:253|327:272,2,56.2500021457673,10|8|8,2:0|2:0|2:0,2:0:0:0:
198,244,83720,1,10,2:0:0:0:
198,244,83891,1,10,2:0:0:0:
198,244,84063,6,0,L|198:311,2,56.2500021457673,10|8|8,2:0|2:0|2:0,2:0:0:0:
121,301,84577,2,0,L|121:360,1,56.2500021457673,10|8,2:0|2:0,2:0:0:0:
38,258,84920,1,14,1:2:0:0:
81,181,85091,1,14,1:2:0:0:
22,74,85263,1,14,1:2:0:0:
