osu file format v14

[General]
AudioFilename: audio.ogg
AudioLeadIn: 0
PreviewTime: 46801
Countdown: 0
SampleSet: Soft
StackLeniency: 0.7
Mode: 3
LetterboxInBreaks: 0
SpecialStyle: 0
WidescreenStoryboard: 0

[Editor]
DistanceSpacing: 0.8
BeatDivisor: 4
GridSize: 8
TimelineZoom: 1.9

[Metadata]
Title:Kien Romance
TitleUnicode:奇縁ロマンス
Artist:nanawoakari
ArtistUnicode:ナナヲアカリ
Creator:arcwinolivirus
Version:Ancient Love
Source:江戸前エルフ
Tags:nanawo akari 七音茜璃 和ぬか wanuka 100回嘔吐 100outo hyakkai outo 十八番茶 niyoru mado otaku elf edomae erufu 江戶前精靈 anime opening folk japanese pop jpop j-pop
BeatmapID:4118543
BeatmapSetID:1983142

[Difficulty]
HPDrainRate:7
CircleSize:4
OverallDifficulty:7
ApproachRate:5
SliderMultiplier:1.4
SliderTickRate:1

[Events]
//Background and Video events
Video,12,"kienVideo.avi"
0,0,"kienBG.jpg",0,0
//Break Periods
//Storyboard Layer 0 (Background)
//Storyboard Layer 1 (Fail)
//Storyboard Layer 2 (Pass)
//Storyboard Layer 3 (Foreground)
//Storyboard Layer 4 (Overlay)
//Storyboard Sound Samples

[TimingPoints]
1073,582.52427184466,4,2,1,70,1,0
47674,-100,4,2,1,70,0,1
66315,-100,4,2,1,70,0,0
117577,-100,4,2,1,70,0,1
136218,-100,4,2,1,70,0,0
180490,-100,4,2,1,70,0,1
198548,-100,4,2,1,70,0,0
201461,-100,4,2,1,70,0,1
218937,-100,4,2,1,70,0,0

[HitObjects]
320,192,490,128,0,781:0:0:0:0:
192,192,781,128,0,1073:0:0:0:0:
64,192,1073,128,0,1364:0:0:0:0:
448,192,1073,128,0,1364:0:0:0:0:
320,192,1073,1,2,0:0:0:0:
192,192,1364,128,0,1655:0:0:0:0:
448,192,1558,128,0,1655:0:0:0:0:
320,192,1558,128,0,1655:0:0:0:0:
64,192,1655,1,8,0:0:0:0:
448,192,1849,1,0,0:0:0:0:
320,192,1946,128,0,2238:0:0:0:0:
192,192,1946,1,0,0:0:0:0:
64,192,2140,1,0,0:0:0:0:
448,192,2238,128,0,2529:0:0:0:0:
192,192,2238,128,2,2529:0:0:0:0:
320,192,2529,128,0,2820:0:0:0:0:
64,192,2723,128,0,2820:0:0:0:0:
192,192,2723,128,0,2820:0:0:0:0:
448,192,2820,1,8,0:0:0:0:
192,192,3014,1,0,0:0:0:0:
448,192,3111,1,0,0:0:0:0:
320,192,3208,1,0,0:0:0:0:
64,192,3306,1,0,0:0:0:0:
192,192,3306,1,0,0:0:0:0:
320,192,3403,128,0,3694:0:0:0:0:
448,192,3403,128,2,3694:0:0:0:0:
192,192,3694,1,0,0:0:0:0:
448,192,3839,1,0,0:0:0:0:
64,192,3985,128,0,4276:0:0:0:0:
192,192,3985,128,0,4131:0:0:0:0:
320,192,3985,1,8,0:0:0:0:
192,192,4276,1,0,0:0:0:0:
448,192,4276,128,0,4568:0:0:0:0:
320,192,4276,128,0,4422:0:0:0:0:
64,192,4568,128,0,4859:0:0:0:0:
192,192,4568,128,0,4859:0:0:0:0:
320,192,4568,1,2,0:0:0:0:
448,192,4859,128,0,5150:0:0:0:0:
320,192,5053,128,0,5150:0:0:0:0:
64,192,5150,128,8,5441:0:0:0:0:
192,192,5150,1,0,0:0:0:0:
320,192,5441,128,0,5733:0:0:0:0:
192,192,5733,1,0,0:0:0:0:
64,192,5733,128,0,6024:0:0:0:0:
448,192,5733,128,2,6024:0:0:0:0:
320,192,6024,128,0,6315:0:0:0:0:
64,192,6218,128,0,6315:0:0:0:0:
192,192,6218,128,0,6315:0:0:0:0:
448,192,6315,1,8,0:0:0:0:
64,192,6509,1,0,0:0:0:0:
320,192,6606,1,0,0:0:0:0:
192,192,6606,128,0,6898:0:0:0:0:
448,192,6801,1,0,0:0:0:0:
320,192,6898,128,0,7189:0:0:0:0:
64,192,6898,128,2,7189:0:0:0:0:
192,192,7189,1,0,0:0:0:0:
448,192,7286,1,0,0:0:0:0:
64,192,7383,1,0,0:0:0:0:
192,192,7480,1,0,0:0:0:0:
320,192,7480,128,8,7869:0:0:0:0:
448,192,7674,128,0,8063:0:0:0:0:
192,192,7869,128,0,8257:0:0:0:0:
320,192,8063,128,0,8451:0:0:0:0:
64,192,8063,1,2,0:0:0:0:
64,192,8257,128,0,8645:0:0:0:0:
448,192,8451,128,0,8839:0:0:0:0:
192,192,8645,128,0,9034:0:0:0:0:
320,192,8645,1,2,0:0:0:0:
320,192,8839,128,0,9228:0:0:0:0:
64,192,9034,128,0,9325:0:0:0:0:
192,192,9228,128,0,9422:0:0:0:0:
448,192,9228,128,2,9422:0:0:0:0:
320,192,9325,128,0,9519:0:0:0:0:
64,192,9422,128,0,9616:0:0:0:0:
192,192,9519,128,0,9713:0:0:0:0:
448,192,9616,128,0,9810:0:0:0:0:
320,192,9713,128,0,9907:0:0:0:0:
192,192,9810,128,0,10296:0:0:0:0:
64,192,9810,128,8,10102:0:0:0:0:
320,192,10102,128,0,10296:0:0:0:0:
448,192,10102,128,8,10296:0:0:0:0:
320,192,10393,1,0,0:0:0:0:
64,192,10393,1,0,0:0:0:0:
448,192,10393,128,4,10684:0:0:0:0:
192,192,10393,128,2,10684:0:0:0:0:
320,192,10684,128,0,10975:0:0:0:0:
64,192,10684,1,0,0:0:0:0:
192,192,10781,1,0,0:0:0:0:
448,192,10878,1,0,0:0:0:0:
64,192,10975,128,0,11170:0:0:0:0:
192,192,10975,128,8,11267:0:0:0:0:
320,192,11267,128,0,11558:0:0:0:0:
448,192,11267,128,0,11461:0:0:0:0:
64,192,11267,128,0,11461:0:0:0:0:
64,192,11558,128,0,11849:0:0:0:0:
192,192,11558,1,0,0:0:0:0:
448,192,11558,1,2,0:0:0:0:
320,192,11752,128,0,11946:0:0:0:0:
448,192,11849,128,0,12140:0:0:0:0:
192,192,11849,1,0,0:0:0:0:
64,192,12043,128,0,12238:0:0:0:0:
320,192,12140,1,0,0:0:0:0:
192,192,12140,128,8,12432:0:0:0:0:
320,192,12432,128,0,12723:0:0:0:0:
448,192,12432,128,0,12626:0:0:0:0:
448,192,12723,128,0,13014:0:0:0:0:
64,192,12723,128,0,13014:0:0:0:0:
192,192,12723,128,2,12917:0:0:0:0:
192,192,13014,128,0,13208:0:0:0:0:
320,192,13014,128,0,13208:0:0:0:0:
448,192,13208,1,0,0:0:0:0:
192,192,13306,128,0,13742:0:0:0:0:
320,192,13306,1,0,0:0:0:0:
64,192,13306,128,8,13597:0:0:0:0:
448,192,13597,128,0,13742:0:0:0:0:
320,192,13597,128,0,13742:0:0:0:0:
64,192,13888,128,0,14373:0:0:0:0:
320,192,13888,128,0,14373:0:0:0:0:
192,192,13888,128,0,14276:0:0:0:0:
448,192,13888,128,2,14082:0:0:0:0:
448,192,14179,128,0,14373:0:0:0:0:
192,192,14373,1,0,0:0:0:0:
448,192,14471,1,0,0:0:0:0:
320,192,14471,1,0,0:0:0:0:
64,192,14471,1,8,0:0:0:0:
448,192,14665,1,0,0:0:0:0:
64,192,14665,1,0,0:0:0:0:
192,192,14762,128,0,14956:0:0:0:0:
320,192,14762,128,0,14956:0:0:0:0:
64,192,15053,1,0,0:0:0:0:
320,192,15053,1,0,0:0:0:0:
448,192,15053,128,0,15344:0:0:0:0:
192,192,15053,128,2,15344:0:0:0:0:
320,192,15344,128,0,15636:0:0:0:0:
64,192,15344,1,0,0:0:0:0:
192,192,15441,1,0,0:0:0:0:
448,192,15539,1,0,0:0:0:0:
64,192,15636,128,0,15830:0:0:0:0:
192,192,15636,128,8,15927:0:0:0:0:
320,192,15927,128,0,16218:0:0:0:0:
64,192,15927,128,0,16024:0:0:0:0:
448,192,15927,128,0,16121:0:0:0:0:
64,192,16218,128,0,16509:0:0:0:0:
192,192,16218,1,0,0:0:0:0:
448,192,16218,1,2,0:0:0:0:
320,192,16412,128,0,16606:0:0:0:0:
448,192,16509,128,0,16801:0:0:0:0:
192,192,16509,1,0,0:0:0:0:
64,192,16704,128,0,16898:0:0:0:0:
192,192,16801,128,0,17092:0:0:0:0:
320,192,16801,1,8,0:0:0:0:
448,192,17092,128,0,17383:0:0:0:0:
320,192,17092,128,0,17286:0:0:0:0:
320,192,17383,128,0,17529:0:0:0:0:
192,192,17383,128,0,17529:0:0:0:0:
64,192,17383,128,2,17529:0:0:0:0:
192,192,17674,128,0,17820:0:0:0:0:
320,192,17674,128,0,18111:0:0:0:0:
448,192,17674,128,0,17820:0:0:0:0:
192,192,17966,128,0,18403:0:0:0:0:
64,192,17966,128,2,18111:0:0:0:0:
448,192,17966,128,8,18111:0:0:0:0:
320,192,18257,128,0,18403:0:0:0:0:
64,192,18257,128,0,18403:0:0:0:0:
64,192,18548,128,0,18742:0:0:0:0:
192,192,18548,128,0,18839:0:0:0:0:
320,192,18548,128,0,18937:0:0:0:0:
448,192,18548,128,0,19034:0:0:0:0:
64,192,18839,1,0,0:0:0:0:
192,192,18937,1,0,0:0:0:0:
320,192,19034,1,0,0:0:0:0:
448,192,19131,1,0,0:0:0:0:
64,192,19131,1,2,0:0:0:0:
192,192,19131,1,8,0:0:0:0:
448,192,19325,1,0,0:0:0:0:
64,192,19422,128,0,19616:0:0:0:0:
192,192,19422,128,0,19616:0:0:0:0:
320,192,19422,128,0,19616:0:0:0:0:
448,192,19713,128,0,20150:0:0:0:0:
64,192,19713,128,0,20150:0:0:0:0:
320,192,19713,128,4,20005:0:0:0:0:
192,192,19713,128,2,20005:0:0:0:0:
192,192,20150,128,0,20441:0:0:0:0:
320,192,20296,1,0,0:0:0:0:
448,192,20296,128,8,20441:0:0:0:0:
64,192,20441,128,0,20781:0:0:0:0:
320,192,20587,128,0,20781:0:0:0:0:
192,192,20587,1,0,0:0:0:0:
192,192,20781,1,0,0:0:0:0:
320,192,20878,128,0,21072:0:0:0:0:
448,192,20878,128,2,21364:0:0:0:0:
64,192,21072,1,0,0:0:0:0:
192,192,21170,128,0,21364:0:0:0:0:
320,192,21170,1,0,0:0:0:0:
64,192,21364,1,0,0:0:0:0:
320,192,21461,1,0,0:0:0:0:
448,192,21461,128,0,21752:0:0:0:0:
192,192,21461,1,8,0:0:0:0:
192,192,21752,128,0,22043:0:0:0:0:
64,192,21752,1,0,0:0:0:0:
448,192,22043,1,0,0:0:0:0:
320,192,22043,128,0,22335:0:0:0:0:
64,192,22043,128,2,22335:0:0:0:0:
192,192,22335,1,0,0:0:0:0:
448,192,22529,128,0,22820:0:0:0:0:
64,192,22626,1,0,0:0:0:0:
192,192,22626,1,0,0:0:0:0:
320,192,22626,128,8,22917:0:0:0:0:
64,192,22917,128,0,23208:0:0:0:0:
192,192,22917,128,0,23111:0:0:0:0:
448,192,23208,128,0,23500:0:0:0:0:
192,192,23208,1,0,0:0:0:0:
320,192,23208,128,2,23500:0:0:0:0:
192,192,23500,1,0,0:0:0:0:
320,192,23694,1,0,0:0:0:0:
192,192,23791,1,0,0:0:0:0:
64,192,23791,128,0,24082:0:0:0:0:
448,192,23791,1,8,0:0:0:0:
448,192,23985,1,0,0:0:0:0:
320,192,24082,1,0,0:0:0:0:
192,192,24082,128,0,24373:0:0:0:0:
320,192,24276,128,0,24471:0:0:0:0:
448,192,24373,128,0,24859:0:0:0:0:
64,192,24373,128,2,24859:0:0:0:0:
192,192,24665,1,0,0:0:0:0:
320,192,24859,128,0,25053:0:0:0:0:
64,192,24956,128,0,25441:0:0:0:0:
192,192,24956,1,0,0:0:0:0:
448,192,24956,128,8,25441:0:0:0:0:
320,192,25247,1,0,0:0:0:0:
192,192,25441,128,0,25733:0:0:0:0:
320,192,25539,1,0,0:0:0:0:
448,192,25539,128,2,25733:0:0:0:0:
64,192,25733,128,0,26024:0:0:0:0:
448,192,25830,1,0,0:0:0:0:
320,192,25830,128,0,26024:0:0:0:0:
192,192,25927,1,0,0:0:0:0:
448,192,26024,128,0,26315:0:0:0:0:
64,192,26121,1,0,0:0:0:0:
320,192,26121,128,0,26315:0:0:0:0:
192,192,26121,1,8,0:0:0:0:
192,192,26315,128,0,26606:0:0:0:0:
448,192,26412,1,0,0:0:0:0:
64,192,26412,128,0,26606:0:0:0:0:
320,192,26606,128,0,26995:0:0:0:0:
192,192,26704,1,0,0:0:0:0:
448,192,26704,128,0,27577:0:0:0:0:
64,192,26704,128,2,27189:0:0:0:0:
192,192,26995,1,0,0:0:0:0:
320,192,27189,1,0,0:0:0:0:
64,192,27286,1,0,0:0:0:0:
192,192,27286,1,8,0:0:0:0:
320,192,27577,128,0,27772:0:0:0:0:
192,192,27577,128,0,27772:0:0:0:0:
64,192,27772,128,0,28451:0:0:0:0:
320,192,27869,1,0,0:0:0:0:
448,192,27869,128,0,28354:0:0:0:0:
192,192,27869,1,2,0:0:0:0:
320,192,28063,1,0,0:0:0:0:
192,192,28160,1,0,0:0:0:0:
320,192,28451,128,0,28742:0:0:0:0:
192,192,28451,1,0,0:0:0:0:
448,192,28451,128,8,28937:0:0:0:0:
192,192,28742,128,0,29034:0:0:0:0:
64,192,28742,1,2,0:0:0:0:
320,192,29034,128,0,29471:0:0:0:0:
64,192,29034,128,0,29471:0:0:0:0:
448,192,29034,128,2,29471:0:0:0:0:
192,192,29471,128,0,29762:0:0:0:0:
320,192,29616,128,0,29762:0:0:0:0:
448,192,29616,1,8,0:0:0:0:
64,192,29762,128,0,30053:0:0:0:0:
192,192,29907,128,0,30053:0:0:0:0:
448,192,29907,1,0,0:0:0:0:
320,192,30053,128,0,30199:0:0:0:0:
448,192,30199,128,0,30684:0:0:0:0:
192,192,30199,128,2,30393:0:0:0:0:
64,192,30393,1,0,0:0:0:0:
192,192,30490,1,0,0:0:0:0:
320,192,30490,128,0,30684:0:0:0:0:
64,192,30684,1,0,0:0:0:0:
448,192,30781,128,0,31072:0:0:0:0:
192,192,30781,1,0,0:0:0:0:
320,192,30781,1,8,0:0:0:0:
64,192,31072,1,0,0:0:0:0:
320,192,31072,128,0,31364:0:0:0:0:
64,192,31364,128,0,31655:0:0:0:0:
192,192,31364,128,0,31655:0:0:0:0:
448,192,31364,128,2,31752:0:0:0:0:
320,192,31655,1,0,0:0:0:0:
448,192,31849,128,0,32043:0:0:0:0:
320,192,31946,1,0,0:0:0:0:
192,192,31946,1,0,0:0:0:0:
64,192,31946,128,8,32238:0:0:0:0:
192,192,32238,128,0,32432:0:0:0:0:
320,192,32238,128,0,32529:0:0:0:0:
192,192,32529,128,0,32820:0:0:0:0:
448,192,32529,128,0,32820:0:0:0:0:
64,192,32529,128,2,33014:0:0:0:0:
320,192,32820,1,0,0:0:0:0:
320,192,33014,1,0,0:0:0:0:
192,192,33111,1,0,0:0:0:0:
448,192,33111,1,0,0:0:0:0:
64,192,33111,128,8,33403:0:0:0:0:
448,192,33306,1,0,0:0:0:0:
192,192,33403,128,0,33694:0:0:0:0:
320,192,33403,128,2,33597:0:0:0:0:
448,192,33694,128,0,34179:0:0:0:0:
320,192,33694,128,0,34179:0:0:0:0:
64,192,33694,128,2,34082:0:0:0:0:
192,192,33985,1,0,0:0:0:0:
64,192,34179,128,0,34568:0:0:0:0:
192,192,34179,1,0,0:0:0:0:
320,192,34276,1,0,0:0:0:0:
448,192,34276,1,8,0:0:0:0:
448,192,34568,128,0,34859:0:0:0:0:
192,192,34568,1,0,0:0:0:0:
320,192,34859,128,0,35247:0:0:0:0:
64,192,34859,128,0,35344:0:0:0:0:
192,192,34859,128,2,35344:0:0:0:0:
448,192,35150,1,0,0:0:0:0:
320,192,35344,128,0,35733:0:0:0:0:
448,192,35344,1,0,0:0:0:0:
192,192,35441,1,0,0:0:0:0:
64,192,35441,1,8,0:0:0:0:
192,192,35733,128,0,36024:0:0:0:0:
448,192,35733,1,0,0:0:0:0:
448,192,36024,128,0,36509:0:0:0:0:
320,192,36024,128,0,36509:0:0:0:0:
64,192,36024,128,2,36898:0:0:0:0:
192,192,36315,1,0,0:0:0:0:
192,192,36509,1,0,0:0:0:0:
448,192,36606,1,0,0:0:0:0:
320,192,36606,1,8,0:0:0:0:
192,192,36752,1,0,0:0:0:0:
320,192,36898,128,0,37189:0:0:0:0:
448,192,37189,128,0,37480:0:0:0:0:
64,192,37189,1,0,0:0:0:0:
192,192,37189,1,2,0:0:0:0:
192,192,37383,128,0,37674:0:0:0:0:
64,192,37383,128,0,37674:0:0:0:0:
320,192,37480,128,0,37674:0:0:0:0:
448,192,37577,128,0,37674:0:0:0:0:
448,192,37772,128,0,37966:0:0:0:0:
192,192,37772,128,0,38063:0:0:0:0:
320,192,37772,128,0,37966:0:0:0:0:
64,192,37772,128,8,38257:0:0:0:0:
448,192,38063,128,0,38257:0:0:0:0:
320,192,38063,128,2,38257:0:0:0:0:
320,192,38354,1,0,0:0:0:0:
64,192,38354,128,0,38645:0:0:0:0:
448,192,38354,128,4,38548:0:0:0:0:
192,192,38354,128,2,38548:0:0:0:0:
320,192,38548,128,0,38742:0:0:0:0:
448,192,38645,128,0,38839:0:0:0:0:
192,192,38839,128,0,39034:0:0:0:0:
64,192,38937,128,0,39131:0:0:0:0:
320,192,38937,1,0,0:0:0:0:
448,192,38937,128,8,39228:0:0:0:0:
64,192,39228,128,0,39422:0:0:0:0:
320,192,39228,1,0,0:0:0:0:
192,192,39422,128,0,39616:0:0:0:0:
448,192,39519,1,0,0:0:0:0:
320,192,39519,128,2,39713:0:0:0:0:
448,192,39713,128,0,39907:0:0:0:0:
64,192,39713,1,0,0:0:0:0:
320,192,39810,128,0,40005:0:0:0:0:
192,192,39810,1,2,0:0:0:0:
64,192,39907,1,0,0:0:0:0:
448,192,40005,1,0,0:0:0:0:
192,192,40102,128,0,40296:0:0:0:0:
64,192,40102,128,8,40393:0:0:0:0:
320,192,40102,1,0,0:0:0:0:
448,192,40296,128,0,40490:0:0:0:0:
192,192,40393,1,0,0:0:0:0:
320,192,40393,128,2,40587:0:0:0:0:
64,192,40587,128,0,40781:0:0:0:0:
192,192,40684,128,0,40975:0:0:0:0:
448,192,40684,128,0,40878:0:0:0:0:
320,192,40684,1,2,0:0:0:0:
448,192,40975,128,0,41267:0:0:0:0:
64,192,40975,128,0,41170:0:0:0:0:
320,192,41267,128,0,41461:0:0:0:0:
64,192,41267,128,0,41558:0:0:0:0:
192,192,41267,1,8,0:0:0:0:
192,192,41558,128,0,41849:0:0:0:0:
320,192,41558,128,0,41752:0:0:0:0:
448,192,41849,128,0,42140:0:0:0:0:
320,192,41849,128,0,42043:0:0:0:0:
64,192,41849,1,2,0:0:0:0:
320,192,42140,128,0,42432:0:0:0:0:
192,192,42140,128,2,42335:0:0:0:0:
64,192,42335,1,0,0:0:0:0:
448,192,42432,128,2,42723:0:0:0:0:
192,192,42432,128,8,42626:0:0:0:0:
192,192,42723,128,0,43014:0:0:0:0:
320,192,42723,128,0,42917:0:0:0:0:
64,192,42723,1,2,0:0:0:0:
448,192,43014,128,0,43306:0:0:0:0:
64,192,43014,128,0,43208:0:0:0:0:
320,192,43014,128,2,43208:0:0:0:0:
192,192,43208,128,0,43403:0:0:0:0:
320,192,43306,128,0,43500:0:0:0:0:
448,192,43500,128,0,43694:0:0:0:0:
320,192,43597,128,0,43791:0:0:0:0:
192,192,43597,1,0,0:0:0:0:
64,192,43597,128,8,43888:0:0:0:0:
320,192,43888,128,0,44082:0:0:0:0:
192,192,43888,1,0,0:0:0:0:
64,192,44082,128,0,44276:0:0:0:0:
448,192,44179,1,2,0:0:0:0:
192,192,44179,128,0,44373:0:0:0:0:
448,192,44373,128,0,44568:0:0:0:0:
64,192,44373,1,0,0:0:0:0:
320,192,44471,128,0,44665:0:0:0:0:
192,192,44471,1,2,0:0:0:0:
64,192,44568,1,0,0:0:0:0:
448,192,44665,1,0,0:0:0:0:
192,192,44762,128,0,45053:0:0:0:0:
320,192,44762,1,0,0:0:0:0:
64,192,44762,128,8,44956:0:0:0:0:
320,192,44956,1,0,0:0:0:0:
64,192,45053,1,0,0:0:0:0:
448,192,45053,128,2,45344:0:0:0:0:
192,192,45247,1,0,0:0:0:0:
320,192,45344,128,2,45636:0:0:0:0:
64,192,45344,128,0,45490:0:0:0:0:
448,192,45490,128,0,45636:0:0:0:0:
64,192,45636,1,0,0:0:0:0:
192,192,45636,128,0,45781:0:0:0:0:
448,192,45781,128,0,45927:0:0:0:0:
320,192,45927,128,0,46121:0:0:0:0:
64,192,45927,128,0,46218:0:0:0:0:
192,192,45927,1,8,0:0:0:0:
192,192,46218,128,0,46412:0:0:0:0:
448,192,46218,128,0,46509:0:0:0:0:
320,192,46509,128,4,46704:0:0:0:0:
64,192,46509,128,0,46704:0:0:0:0:
192,192,46509,128,2,46704:0:0:0:0:
320,192,47092,128,0,47286:0:0:0:0:
64,192,47092,128,0,47286:0:0:0:0:
448,192,47092,128,8,47286:0:0:0:0:
64,192,47383,128,0,47577:0:0:0:0:
448,192,47383,128,0,47577:0:0:0:0:
192,192,47383,128,0,47577:0:0:0:0:
320,192,47674,128,0,47869:0:0:0:0:
448,192,47674,128,0,47869:0:0:0:0:
192,192,47674,128,4,48063:0:0:0:0:
64,192,47674,128,2,48160:0:0:0:0:
448,192,47966,1,0,0:0:0:0:
320,192,47966,1,0,0:0:0:0:
192,192,48160,1,0,0:0:0:0:
64,192,48257,1,0,0:0:0:0:
320,192,48257,128,0,48451:0:0:0:0:
448,192,48257,128,8,48354:0:0:0:0:
448,192,48451,1,0,0:0:0:0:
192,192,48451,128,0,48645:0:0:0:0:
320,192,48548,1,0,0:0:0:0:
64,192,48548,128,0,48645:0:0:0:0:
64,192,48742,1,0,0:0:0:0:
448,192,48742,128,0,49034:0:0:0:0:
192,192,48839,128,0,49422:0:0:0:0:
320,192,48839,128,2,49228:0:0:0:0:
64,192,49034,1,0,0:0:0:0:
448,192,49131,1,0,0:0:0:0:
320,192,49325,1,0,0:0:0:0:
448,192,49422,1,0,0:0:0:0:
64,192,49422,128,8,49616:0:0:0:0:
320,192,49616,1,0,0:0:0:0:
448,192,49616,1,0,0:0:0:0:
64,192,49713,1,0,0:0:0:0:
192,192,49713,128,0,49907:0:0:0:0:
64,192,49907,1,0,0:0:0:0:
448,192,49907,128,0,50199:0:0:0:0:
320,192,50005,128,0,50296:0:0:0:0:
192,192,50005,128,2,50296:0:0:0:0:
448,192,50296,1,0,0:0:0:0:
64,192,50296,128,0,50490:0:0:0:0:
192,192,50490,128,0,50684:0:0:0:0:
448,192,50587,128,0,50878:0:0:0:0:
64,192,50587,128,0,50878:0:0:0:0:
320,192,50587,128,8,50781:0:0:0:0:
192,192,50878,128,0,51072:0:0:0:0:
320,192,50878,128,0,51072:0:0:0:0:
448,192,51072,128,0,51267:0:0:0:0:
192,192,51170,128,0,51752:0:0:0:0:
64,192,51170,128,0,51364:0:0:0:0:
320,192,51170,128,2,51461:0:0:0:0:
64,192,51461,1,0,0:0:0:0:
448,192,51461,1,0,0:0:0:0:
448,192,51752,128,0,51946:0:0:0:0:
320,192,51752,128,8,51946:0:0:0:0:
64,192,51752,128,0,51946:0:0:0:0:
64,192,52043,128,0,52238:0:0:0:0:
192,192,52043,128,0,52238:0:0:0:0:
320,192,52043,128,0,52238:0:0:0:0:
192,192,52335,128,0,52529:0:0:0:0:
448,192,52335,128,0,52529:0:0:0:0:
320,192,52335,128,0,52723:0:0:0:0:
64,192,52335,128,2,52820:0:0:0:0:
448,192,52626,1,0,0:0:0:0:
192,192,52626,1,0,0:0:0:0:
320,192,52820,1,0,0:0:0:0:
192,192,52917,128,0,53111:0:0:0:0:
448,192,52917,128,0,53014:0:0:0:0:
64,192,52917,1,8,0:0:0:0:
448,192,53111,1,0,0:0:0:0:
320,192,53111,128,0,53306:0:0:0:0:
192,192,53208,1,0,0:0:0:0:
64,192,53208,128,0,53306:0:0:0:0:
64,192,53403,1,0,0:0:0:0:
448,192,53403,128,0,53694:0:0:0:0:
320,192,53500,128,0,53888:0:0:0:0:
192,192,53500,128,2,53888:0:0:0:0:
64,192,53694,1,0,0:0:0:0:
448,192,53791,1,0,0:0:0:0:
192,192,53985,1,0,0:0:0:0:
64,192,54082,1,0,0:0:0:0:
448,192,54082,128,0,54373:0:0:0:0:
320,192,54082,1,8,0:0:0:0:
192,192,54276,128,0,54568:0:0:0:0:
320,192,54276,1,0,0:0:0:0:
320,192,54471,128,0,54762:0:0:0:0:
64,192,54471,1,0,0:0:0:0:
64,192,54665,128,0,54956:0:0:0:0:
448,192,54665,1,0,0:0:0:0:
192,192,54665,128,2,54762:0:0:0:0:
320,192,54859,128,0,55150:0:0:0:0:
448,192,54859,1,0,0:0:0:0:
192,192,55053,128,0,55344:0:0:0:0:
64,192,55053,1,0,0:0:0:0:
448,192,55247,128,0,55539:0:0:0:0:
64,192,55247,1,2,0:0:0:0:
320,192,55247,128,8,55344:0:0:0:0:
64,192,55441,128,0,55733:0:0:0:0:
320,192,55441,1,0,0:0:0:0:
192,192,55636,128,0,55830:0:0:0:0:
448,192,55636,1,0,0:0:0:0:
64,192,55830,128,0,56121:0:0:0:0:
320,192,55830,128,0,56024:0:0:0:0:
448,192,55830,128,2,56121:0:0:0:0:
192,192,56121,1,0,0:0:0:0:
320,192,56121,128,2,56315:0:0:0:0:
64,192,56267,1,0,0:0:0:0:
320,192,56412,128,0,56606:0:0:0:0:
192,192,56412,128,8,56606:0:0:0:0:
448,192,56412,128,2,56606:0:0:0:0:
64,192,56704,128,0,56898:0:0:0:0:
192,192,56704,128,2,56898:0:0:0:0:
320,192,56704,128,8,56898:0:0:0:0:
192,192,56995,128,0,57189:0:0:0:0:
64,192,56995,128,0,57189:0:0:0:0:
320,192,56995,128,4,57383:0:0:0:0:
448,192,56995,128,2,57480:0:0:0:0:
64,192,57286,1,0,0:0:0:0:
192,192,57286,1,0,0:0:0:0:
320,192,57480,1,0,0:0:0:0:
448,192,57577,1,0,0:0:0:0:
192,192,57577,128,0,57772:0:0:0:0:
64,192,57577,128,8,57674:0:0:0:0:
64,192,57772,1,0,0:0:0:0:
320,192,57772,128,0,57966:0:0:0:0:
192,192,57869,1,0,0:0:0:0:
448,192,57869,128,0,57966:0:0:0:0:
448,192,58063,1,0,0:0:0:0:
64,192,58063,128,0,58354:0:0:0:0:
320,192,58160,128,0,58742:0:0:0:0:
192,192,58160,128,2,58548:0:0:0:0:
448,192,58354,1,0,0:0:0:0:
64,192,58451,1,0,0:0:0:0:
192,192,58645,1,0,0:0:0:0:
64,192,58742,1,0,0:0:0:0:
448,192,58742,128,8,58937:0:0:0:0:
192,192,58937,1,0,0:0:0:0:
64,192,58937,1,0,0:0:0:0:
448,192,59034,1,0,0:0:0:0:
320,192,59034,128,0,59228:0:0:0:0:
448,192,59228,1,0,0:0:0:0:
64,192,59228,128,0,59519:0:0:0:0:
192,192,59325,128,0,59616:0:0:0:0:
320,192,59325,128,2,59616:0:0:0:0:
64,192,59616,1,0,0:0:0:0:
448,192,59616,128,0,59810:0:0:0:0:
320,192,59810,128,0,60005:0:0:0:0:
448,192,59907,128,0,60199:0:0:0:0:
192,192,59907,128,0,60102:0:0:0:0:
64,192,59907,128,8,60199:0:0:0:0:
320,192,60199,128,0,60393:0:0:0:0:
192,192,60199,128,0,60393:0:0:0:0:
64,192,60393,128,0,60587:0:0:0:0:
320,192,60490,128,0,61072:0:0:0:0:
448,192,60490,128,0,60684:0:0:0:0:
192,192,60490,128,2,60781:0:0:0:0:
448,192,60781,1,0,0:0:0:0:
64,192,60781,1,0,0:0:0:0:
192,192,61072,128,0,61267:0:0:0:0:
64,192,61072,128,8,61267:0:0:0:0:
448,192,61072,128,0,61267:0:0:0:0:
320,192,61364,128,0,61558:0:0:0:0:
448,192,61364,128,0,61558:0:0:0:0:
192,192,61364,128,0,61558:0:0:0:0:
192,192,61655,128,0,62043:0:0:0:0:
320,192,61655,128,0,61849:0:0:0:0:
64,192,61655,128,0,61849:0:0:0:0:
448,192,61655,128,2,62140:0:0:0:0:
64,192,61946,1,0,0:0:0:0:
320,192,61946,1,0,0:0:0:0:
192,192,62140,1,0,0:0:0:0:
448,192,62238,1,0,0:0:0:0:
320,192,62238,128,0,62432:0:0:0:0:
64,192,62238,128,8,62335:0:0:0:0:
64,192,62432,1,0,0:0:0:0:
192,192,62432,128,0,62626:0:0:0:0:
320,192,62529,1,0,0:0:0:0:
448,192,62529,128,0,62626:0:0:0:0:
448,192,62723,1,0,0:0:0:0:
64,192,62723,128,0,63014:0:0:0:0:
192,192,62820,128,0,63208:0:0:0:0:
320,192,62820,128,2,63208:0:0:0:0:
448,192,63014,1,0,0:0:0:0:
64,192,63111,1,0,0:0:0:0:
320,192,63306,1,0,0:0:0:0:
64,192,63403,128,0,63694:0:0:0:0:
192,192,63403,1,0,0:0:0:0:
448,192,63403,1,8,0:0:0:0:
320,192,63597,128,0,63888:0:0:0:0:
192,192,63597,1,0,0:0:0:0:
192,192,63791,128,0,64082:0:0:0:0:
448,192,63791,1,0,0:0:0:0:
448,192,63985,128,0,64276:0:0:0:0:
320,192,63985,1,0,0:0:0:0:
64,192,63985,128,2,64082:0:0:0:0:
192,192,64179,128,0,64471:0:0:0:0:
64,192,64179,1,0,0:0:0:0:
320,192,64373,128,0,64665:0:0:0:0:
448,192,64373,1,0,0:0:0:0:
64,192,64568,128,0,64859:0:0:0:0:
192,192,64568,1,0,0:0:0:0:
448,192,64568,128,8,64665:0:0:0:0:
448,192,64762,128,0,65053:0:0:0:0:
192,192,64762,1,0,0:0:0:0:
320,192,64956,128,0,65150:0:0:0:0:
64,192,64956,1,0,0:0:0:0:
64,192,65150,128,0,65636:0:0:0:0:
448,192,65150,128,0,65636:0:0:0:0:
192,192,65150,128,2,65344:0:0:0:0:
192,192,65441,1,0,0:0:0:0:
320,192,65441,128,2,65636:0:0:0:0:
320,192,65733,128,0,66218:0:0:0:0:
192,192,65733,128,0,66218:0:0:0:0:
448,192,65733,1,0,0:0:0:0:
64,192,65733,128,8,65927:0:0:0:0:
64,192,66024,1,0,0:0:0:0:
448,192,66024,128,8,66218:0:0:0:0:
192,192,66315,1,0,0:0:0:0:
320,192,66315,1,2,0:0:0:0:
448,192,66315,1,0,0:0:0:0:
64,192,66315,128,4,66898:0:0:0:0:
320,192,66606,1,0,0:0:0:0:
192,192,66801,1,0,0:0:0:0:
448,192,66898,128,0,67189:0:0:0:0:
320,192,66898,1,8,0:0:0:0:
320,192,67480,128,0,67674:0:0:0:0:
448,192,67480,1,2,0:0:0:0:
192,192,67674,128,0,67869:0:0:0:0:
448,192,67772,1,0,0:0:0:0:
64,192,67869,128,0,68063:0:0:0:0:
448,192,67966,1,0,0:0:0:0:
192,192,68063,1,0,0:0:0:0:
320,192,68063,1,8,0:0:0:0:
192,192,68354,1,0,0:0:0:0:
320,192,68500,1,0,0:0:0:0:
448,192,68645,1,2,0:0:0:0:
64,192,68645,1,0,0:0:0:0:
192,192,68839,1,0,0:0:0:0:
448,192,68937,128,0,69228:0:0:0:0:
64,192,69228,128,0,69810:0:0:0:0:
320,192,69228,1,8,0:0:0:0:
320,192,69810,128,0,70005:0:0:0:0:
448,192,69810,1,2,0:0:0:0:
192,192,70005,128,0,70199:0:0:0:0:
64,192,70199,128,0,70393:0:0:0:0:
320,192,70393,1,0,0:0:0:0:
448,192,70393,1,8,0:0:0:0:
64,192,70975,128,0,71461:0:0:0:0:
448,192,70975,128,0,71461:0:0:0:0:
192,192,70975,128,0,71267:0:0:0:0:
320,192,70975,128,2,71267:0:0:0:0:
320,192,71461,128,0,71752:0:0:0:0:
192,192,71558,1,0,0:0:0:0:
64,192,71558,128,8,71752:0:0:0:0:
448,192,71752,128,0,72043:0:0:0:0:
192,192,71849,128,0,72043:0:0:0:0:
320,192,71849,1,0,0:0:0:0:
320,192,72043,1,0,0:0:0:0:
192,192,72140,128,0,72335:0:0:0:0:
64,192,72140,128,2,72626:0:0:0:0:
448,192,72335,1,0,0:0:0:0:
320,192,72432,128,0,72626:0:0:0:0:
192,192,72432,1,0,0:0:0:0:
448,192,72626,1,0,0:0:0:0:
192,192,72723,1,0,0:0:0:0:
64,192,72723,128,0,73014:0:0:0:0:
320,192,72723,1,8,0:0:0:0:
320,192,73014,128,0,73306:0:0:0:0:
448,192,73014,1,0,0:0:0:0:
64,192,73306,1,0,0:0:0:0:
192,192,73306,128,0,73597:0:0:0:0:
448,192,73306,128,2,73597:0:0:0:0:
320,192,73597,1,0,0:0:0:0:
64,192,73791,128,0,73985:0:0:0:0:
448,192,73888,1,0,0:0:0:0:
320,192,73888,1,0,0:0:0:0:
192,192,73888,128,8,74179:0:0:0:0:
320,192,74082,128,0,74276:0:0:0:0:
448,192,74179,128,0,74471:0:0:0:0:
64,192,74179,1,0,0:0:0:0:
64,192,74471,128,0,74762:0:0:0:0:
320,192,74471,1,0,0:0:0:0:
192,192,74471,128,2,74762:0:0:0:0:
448,192,74762,1,0,0:0:0:0:
320,192,74956,128,0,75150:0:0:0:0:
192,192,75053,1,0,0:0:0:0:
64,192,75053,1,0,0:0:0:0:
448,192,75053,128,8,75247:0:0:0:0:
192,192,75247,128,0,75441:0:0:0:0:
448,192,75344,1,0,0:0:0:0:
320,192,75344,128,0,75539:0:0:0:0:
64,192,75539,128,0,75733:0:0:0:0:
192,192,75636,128,0,76121:0:0:0:0:
448,192,75636,128,2,76121:0:0:0:0:
320,192,75927,1,0,0:0:0:0:
64,192,76121,128,0,76315:0:0:0:0:
448,192,76218,128,0,76704:0:0:0:0:
320,192,76218,1,0,0:0:0:0:
192,192,76218,128,8,76704:0:0:0:0:
64,192,76509,1,0,0:0:0:0:
320,192,76704,128,0,76995:0:0:0:0:
192,192,76801,1,0,0:0:0:0:
64,192,76801,128,2,76995:0:0:0:0:
448,192,76995,128,0,77286:0:0:0:0:
64,192,77092,1,0,0:0:0:0:
192,192,77092,128,0,77286:0:0:0:0:
320,192,77189,1,0,0:0:0:0:
64,192,77286,128,0,77577:0:0:0:0:
448,192,77383,1,0,0:0:0:0:
192,192,77383,128,0,77577:0:0:0:0:
320,192,77383,1,8,0:0:0:0:
320,192,77577,128,0,77869:0:0:0:0:
64,192,77674,1,0,0:0:0:0:
448,192,77674,128,0,77869:0:0:0:0:
192,192,77869,1,0,0:0:0:0:
448,192,77966,1,0,0:0:0:0:
64,192,77966,128,0,78839:0:0:0:0:
320,192,77966,128,2,78403:0:0:0:0:
448,192,78257,1,0,0:0:0:0:
192,192,78403,1,0,0:0:0:0:
448,192,78548,1,0,0:0:0:0:
320,192,78548,1,8,0:0:0:0:
192,192,78839,128,0,79034:0:0:0:0:
320,192,78839,128,0,79034:0:0:0:0:
448,192,79034,128,0,79713:0:0:0:0:
192,192,79131,1,0,0:0:0:0:
64,192,79131,128,2,79616:0:0:0:0:
320,192,79276,1,0,0:0:0:0:
192,192,79422,1,0,0:0:0:0:
192,192,79713,128,0,80005:0:0:0:0:
320,192,79713,1,0,0:0:0:0:
64,192,79713,128,8,80199:0:0:0:0:
320,192,80005,128,0,80296:0:0:0:0:
448,192,80005,1,2,0:0:0:0:
448,192,80296,128,0,80733:0:0:0:0:
64,192,80296,128,0,80733:0:0:0:0:
192,192,80296,128,2,80733:0:0:0:0:
320,192,80733,1,0,0:0:0:0:
192,192,80830,1,0,0:0:0:0:
320,192,81072,1,0,0:0:0:0:
448,192,81170,1,0,0:0:0:0:
192,192,81364,1,0,0:0:0:0:
320,192,81461,1,0,0:0:0:0:
64,192,81655,1,0,0:0:0:0:
192,192,81752,1,0,0:0:0:0:
320,192,81946,1,0,0:0:0:0:
448,192,82043,128,0,82529:0:0:0:0:
192,192,82043,128,0,82238:0:0:0:0:
64,192,82043,128,8,82238:0:0:0:0:
320,192,82238,128,0,82529:0:0:0:0:
64,192,82335,1,0,0:0:0:0:
192,192,82335,128,2,82529:0:0:0:0:
448,192,82626,128,0,82917:0:0:0:0:
320,192,82626,128,2,82917:0:0:0:0:
64,192,82626,128,4,83014:0:0:0:0:
192,192,82917,1,0,0:0:0:0:
64,192,83111,128,0,83306:0:0:0:0:
448,192,83208,128,0,83500:0:0:0:0:
192,192,83208,1,8,0:0:0:0:
320,192,83354,128,0,83500:0:0:0:0:
64,192,83500,128,0,83694:0:0:0:0:
192,192,83500,128,0,83791:0:0:0:0:
448,192,83791,128,0,84276:0:0:0:0:
320,192,83791,128,0,84082:0:0:0:0:
64,192,83791,128,2,84082:0:0:0:0:
192,192,84082,1,0,0:0:0:0:
64,192,84276,1,0,0:0:0:0:
448,192,84373,128,0,84665:0:0:0:0:
320,192,84373,1,0,0:0:0:0:
192,192,84373,1,8,0:0:0:0:
192,192,84568,1,0,0:0:0:0:
320,192,84665,128,0,84956:0:0:0:0:
64,192,84665,128,0,84859:0:0:0:0:
64,192,84956,128,0,85441:0:0:0:0:
192,192,84956,128,0,85441:0:0:0:0:
448,192,84956,128,2,85344:0:0:0:0:
320,192,85247,1,0,0:0:0:0:
320,192,85441,128,0,85830:0:0:0:0:
448,192,85441,1,0,0:0:0:0:
192,192,85539,1,0,0:0:0:0:
64,192,85539,1,8,0:0:0:0:
192,192,85830,128,0,86121:0:0:0:0:
448,192,85830,1,0,0:0:0:0:
448,192,86121,128,0,86606:0:0:0:0:
320,192,86121,128,0,86606:0:0:0:0:
64,192,86121,128,2,86509:0:0:0:0:
192,192,86412,1,0,0:0:0:0:
192,192,86606,128,0,86995:0:0:0:0:
64,192,86606,1,0,0:0:0:0:
320,192,86704,1,0,0:0:0:0:
448,192,86704,1,8,0:0:0:0:
320,192,86995,128,0,87286:0:0:0:0:
64,192,86995,1,2,0:0:0:0:
64,192,87286,128,0,87772:0:0:0:0:
192,192,87286,128,0,87772:0:0:0:0:
448,192,87286,128,2,87772:0:0:0:0:
320,192,87577,1,0,0:0:0:0:
64,192,87869,128,0,88160:0:0:0:0:
448,192,87869,1,0,0:0:0:0:
192,192,87869,128,8,88451:0:0:0:0:
320,192,88160,128,0,88451:0:0:0:0:
448,192,88160,1,0,0:0:0:0:
448,192,88451,128,0,88645:0:0:0:0:
64,192,88451,128,2,88645:0:0:0:0:
320,192,88548,128,0,88742:0:0:0:0:
192,192,88645,128,0,88839:0:0:0:0:
64,192,88742,128,0,88937:0:0:0:0:
448,192,88839,1,0,0:0:0:0:
192,192,88937,1,0,0:0:0:0:
320,192,89034,1,0,0:0:0:0:
64,192,89034,128,0,89228:0:0:0:0:
448,192,89034,128,8,89228:0:0:0:0:
192,192,89131,128,0,89325:0:0:0:0:
320,192,89228,128,0,89422:0:0:0:0:
64,192,89325,1,0,0:0:0:0:
448,192,89325,128,2,89519:0:0:0:0:
192,192,89616,1,0,0:0:0:0:
448,192,89616,128,2,91267:0:0:0:0:
64,192,89616,128,4,89907:0:0:0:0:
320,192,89810,1,0,0:0:0:0:
320,192,90102,1,2,0:0:0:0:
64,192,90199,128,0,90781:0:0:0:0:
192,192,90199,1,8,0:0:0:0:
320,192,90490,1,0,0:0:0:0:
320,192,90781,128,0,91072:0:0:0:0:
192,192,90781,1,2,0:0:0:0:
192,192,91072,128,0,91364:0:0:0:0:
64,192,91072,1,2,0:0:0:0:
64,192,91267,1,0,0:0:0:0:
448,192,91364,128,0,91655:0:0:0:0:
320,192,91364,1,8,0:0:0:0:
320,192,91655,128,0,91946:0:0:0:0:
192,192,91655,1,2,0:0:0:0:
192,192,91946,128,0,92238:0:0:0:0:
64,192,91946,1,0,0:0:0:0:
448,192,91946,1,2,0:0:0:0:
448,192,92238,128,0,92529:0:0:0:0:
64,192,92238,128,0,92432:0:0:0:0:
320,192,92383,1,0,0:0:0:0:
64,192,92529,128,0,92820:0:0:0:0:
192,192,92529,1,8,0:0:0:0:
320,192,92820,128,0,93111:0:0:0:0:
192,192,92820,1,0,0:0:0:0:
64,192,93111,128,0,93985:0:0:0:0:
448,192,93111,128,2,93403:0:0:0:0:
192,192,93403,1,2,0:0:0:0:
448,192,93694,1,0,0:0:0:0:
320,192,93694,1,8,0:0:0:0:
192,192,93985,1,0,0:0:0:0:
320,192,93985,128,2,94276:0:0:0:0:
448,192,94276,1,0,0:0:0:0:
64,192,94276,1,2,0:0:0:0:
448,192,94471,1,0,0:0:0:0:
192,192,94568,1,0,0:0:0:0:
448,192,94665,1,0,0:0:0:0:
320,192,94762,1,0,0:0:0:0:
448,192,94859,128,0,95441:0:0:0:0:
192,192,94859,1,0,0:0:0:0:
64,192,94859,1,8,0:0:0:0:
64,192,95053,1,0,0:0:0:0:
192,192,95150,1,0,0:0:0:0:
64,192,95247,1,0,0:0:0:0:
320,192,95344,1,0,0:0:0:0:
192,192,95441,128,0,95733:0:0:0:0:
64,192,95441,1,2,0:0:0:0:
320,192,95733,128,0,96024:0:0:0:0:
448,192,95733,1,2,0:0:0:0:
448,192,95927,1,2,0:0:0:0:
64,192,96024,128,0,96315:0:0:0:0:
192,192,96024,1,8,0:0:0:0:
192,192,96315,128,0,96606:0:0:0:0:
320,192,96315,1,2,0:0:0:0:
320,192,96606,128,0,96898:0:0:0:0:
448,192,96606,1,2,0:0:0:0:
64,192,96898,128,0,97189:0:0:0:0:
448,192,96898,128,0,97092:0:0:0:0:
192,192,97043,1,0,0:0:0:0:
448,192,97189,128,0,97480:0:0:0:0:
320,192,97189,1,8,0:0:0:0:
192,192,97480,128,0,97772:0:0:0:0:
320,192,97480,1,0,0:0:0:0:
64,192,97772,128,0,98063:0:0:0:0:
448,192,97772,128,2,98354:0:0:0:0:
320,192,98063,1,0,0:0:0:0:
192,192,98063,1,2,0:0:0:0:
64,192,98354,1,0,0:0:0:0:
192,192,98354,128,8,98548:0:0:0:0:
320,192,98645,128,0,98839:0:0:0:0:
192,192,98937,1,0,0:0:0:0:
64,192,98937,128,0,99228:0:0:0:0:
448,192,98937,128,2,99131:0:0:0:0:
320,192,98937,128,4,99131:0:0:0:0:
192,192,99131,128,0,99325:0:0:0:0:
320,192,99228,1,0,0:0:0:0:
320,192,99422,128,2,99616:0:0:0:0:
64,192,99519,128,0,99713:0:0:0:0:
192,192,99519,1,0,0:0:0:0:
448,192,99519,128,8,100102:0:0:0:0:
64,192,99810,128,0,100102:0:0:0:0:
192,192,99810,1,0,0:0:0:0:
320,192,100102,128,0,100296:0:0:0:0:
192,192,100102,128,2,100296:0:0:0:0:
448,192,100393,128,0,100587:0:0:0:0:
320,192,100393,1,0,0:0:0:0:
64,192,100393,128,0,100587:0:0:0:0:
192,192,100587,1,0,0:0:0:0:
320,192,100684,128,0,100878:0:0:0:0:
64,192,100684,128,8,100878:0:0:0:0:
448,192,100878,128,0,101072:0:0:0:0:
320,192,100975,1,0,0:0:0:0:
192,192,100975,128,0,101170:0:0:0:0:
64,192,101170,128,0,101364:0:0:0:0:
320,192,101267,128,0,101461:0:0:0:0:
448,192,101267,128,2,101558:0:0:0:0:
320,192,101558,128,0,101849:0:0:0:0:
192,192,101558,128,0,101752:0:0:0:0:
64,192,101849,128,0,102043:0:0:0:0:
448,192,101849,1,0,0:0:0:0:
192,192,101849,128,8,102140:0:0:0:0:
320,192,102140,128,0,102432:0:0:0:0:
448,192,102140,128,0,102335:0:0:0:0:
448,192,102432,128,0,103208:0:0:0:0:
192,192,102432,128,0,102626:0:0:0:0:
64,192,102432,128,2,102917:0:0:0:0:
320,192,102723,1,0,0:0:0:0:
192,192,102723,128,2,102917:0:0:0:0:
64,192,103014,1,0,0:0:0:0:
192,192,103014,128,0,103208:0:0:0:0:
320,192,103014,128,8,103208:0:0:0:0:
192,192,103306,128,0,103500:0:0:0:0:
448,192,103306,1,0,0:0:0:0:
320,192,103306,128,2,103500:0:0:0:0:
448,192,103597,128,0,103888:0:0:0:0:
64,192,103597,128,0,103791:0:0:0:0:
192,192,103597,128,2,103791:0:0:0:0:
320,192,103791,128,0,103985:0:0:0:0:
192,192,103888,1,0,0:0:0:0:
192,192,104082,128,0,104276:0:0:0:0:
448,192,104179,128,0,104373:0:0:0:0:
320,192,104179,1,0,0:0:0:0:
64,192,104179,128,8,104665:0:0:0:0:
448,192,104471,128,0,104762:0:0:0:0:
192,192,104471,1,0,0:0:0:0:
320,192,104616,128,0,104762:0:0:0:0:
192,192,104762,1,0,0:0:0:0:
64,192,104762,128,2,105053:0:0:0:0:
320,192,104907,128,0,105053:0:0:0:0:
448,192,105053,128,0,105344:0:0:0:0:
192,192,105053,1,0,0:0:0:0:
64,192,105247,1,0,0:0:0:0:
192,192,105344,128,0,105539:0:0:0:0:
320,192,105344,128,8,105539:0:0:0:0:
64,192,105539,128,0,105733:0:0:0:0:
192,192,105636,1,0,0:0:0:0:
320,192,105636,128,0,105830:0:0:0:0:
448,192,105830,1,0,0:0:0:0:
192,192,105927,128,0,106218:0:0:0:0:
64,192,105927,128,0,106121:0:0:0:0:
320,192,105927,1,2,0:0:0:0:
320,192,106218,128,0,106509:0:0:0:0:
448,192,106218,128,0,106412:0:0:0:0:
192,192,106509,128,0,106704:0:0:0:0:
64,192,106509,128,0,106801:0:0:0:0:
448,192,106509,1,8,0:0:0:0:
320,192,106801,128,0,106995:0:0:0:0:
192,192,106801,128,0,107092:0:0:0:0:
320,192,107092,128,0,107577:0:0:0:0:
64,192,107092,128,0,107674:0:0:0:0:
448,192,107092,128,2,107286:0:0:0:0:
192,192,107383,1,2,0:0:0:0:
448,192,107383,128,0,107577:0:0:0:0:
320,192,107674,128,0,107869:0:0:0:0:
192,192,107674,128,0,107869:0:0:0:0:
448,192,107674,128,8,107869:0:0:0:0:
64,192,107966,128,0,108160:0:0:0:0:
192,192,107966,128,0,108160:0:0:0:0:
320,192,107966,128,2,108160:0:0:0:0:
64,192,108257,128,0,108451:0:0:0:0:
192,192,108257,128,0,108451:0:0:0:0:
320,192,108257,1,2,0:0:0:0:
448,192,108257,128,4,108548:0:0:0:0:
320,192,108451,128,0,108645:0:0:0:0:
64,192,108548,1,0,0:0:0:0:
64,192,108742,128,0,108937:0:0:0:0:
192,192,108839,128,0,109325:0:0:0:0:
320,192,108839,1,0,0:0:0:0:
448,192,108839,128,8,109034:0:0:0:0:
320,192,109131,1,0,0:0:0:0:
448,192,109131,128,0,109325:0:0:0:0:
64,192,109325,128,0,109519:0:0:0:0:
320,192,109422,1,0,0:0:0:0:
192,192,109422,128,2,109616:0:0:0:0:
320,192,109616,128,0,109810:0:0:0:0:
448,192,109713,128,0,109907:0:0:0:0:
192,192,109713,128,0,110005:0:0:0:0:
448,192,110005,128,0,110199:0:0:0:0:
64,192,110005,128,0,110199:0:0:0:0:
320,192,110005,1,8,0:0:0:0:
192,192,110199,128,0,110393:0:0:0:0:
320,192,110296,128,0,110490:0:0:0:0:
64,192,110296,1,0,0:0:0:0:
448,192,110490,1,0,0:0:0:0:
64,192,110587,128,0,110878:0:0:0:0:
192,192,110587,128,0,110781:0:0:0:0:
320,192,110587,1,2,0:0:0:0:
448,192,110878,128,0,111072:0:0:0:0:
192,192,110878,128,0,111170:0:0:0:0:
64,192,111170,1,0,0:0:0:0:
448,192,111170,128,0,111364:0:0:0:0:
320,192,111170,128,8,111461:0:0:0:0:
448,192,111461,128,0,111752:0:0:0:0:
64,192,111461,128,0,111655:0:0:0:0:
64,192,111752,1,0,0:0:0:0:
320,192,111752,128,0,112238:0:0:0:0:
192,192,111752,128,2,112043:0:0:0:0:
448,192,112043,1,0,0:0:0:0:
64,192,112043,128,0,112335:0:0:0:0:
192,192,112335,128,0,112529:0:0:0:0:
448,192,112335,128,0,112529:0:0:0:0:
320,192,112335,1,8,0:0:0:0:
192,192,112626,1,0,0:0:0:0:
320,192,112626,128,0,112820:0:0:0:0:
64,192,112626,128,2,112820:0:0:0:0:
320,192,112917,128,0,113111:0:0:0:0:
448,192,112917,128,0,113111:0:0:0:0:
64,192,112917,128,2,113208:0:0:0:0:
192,192,113111,128,0,113306:0:0:0:0:
448,192,113208,1,0,0:0:0:0:
448,192,113403,128,0,113597:0:0:0:0:
320,192,113500,128,0,113937:0:0:0:0:
192,192,113500,1,0,0:0:0:0:
64,192,113500,128,8,113694:0:0:0:0:
192,192,113791,1,0,0:0:0:0:
64,192,113791,128,0,114082:0:0:0:0:
448,192,113937,128,0,114082:0:0:0:0:
192,192,114082,128,0,114373:0:0:0:0:
320,192,114082,1,2,0:0:0:0:
64,192,114228,128,0,114373:0:0:0:0:
448,192,114373,1,0,0:0:0:0:
320,192,114373,128,0,114665:0:0:0:0:
64,192,114665,128,0,114859:0:0:0:0:
448,192,114665,128,0,114859:0:0:0:0:
192,192,114665,1,8,0:0:0:0:
320,192,114859,128,0,115053:0:0:0:0:
192,192,114956,128,0,115150:0:0:0:0:
448,192,114956,1,0,0:0:0:0:
64,192,115150,128,0,115344:0:0:0:0:
320,192,115247,128,0,115441:0:0:0:0:
192,192,115247,1,2,0:0:0:0:
448,192,115441,1,0,0:0:0:0:
192,192,115539,128,0,115733:0:0:0:0:
64,192,115539,1,0,0:0:0:0:
448,192,115636,1,0,0:0:0:0:
64,192,115733,128,0,115927:0:0:0:0:
320,192,115830,128,0,116024:0:0:0:0:
192,192,115830,1,0,0:0:0:0:
448,192,115830,128,8,116121:0:0:0:0:
192,192,116121,128,0,116412:0:0:0:0:
64,192,116121,128,0,116315:0:0:0:0:
448,192,116412,128,0,116606:0:0:0:0:
320,192,116412,128,0,116606:0:0:0:0:
64,192,116412,128,2,116606:0:0:0:0:
448,192,116995,128,0,117189:0:0:0:0:
320,192,116995,128,0,117189:0:0:0:0:
64,192,116995,128,8,117189:0:0:0:0:
64,192,117286,128,0,117480:0:0:0:0:
192,192,117286,128,0,117480:0:0:0:0:
448,192,117286,128,0,117480:0:0:0:0:
192,192,117577,128,0,117772:0:0:0:0:
64,192,117577,128,0,117772:0:0:0:0:
320,192,117577,128,4,117966:0:0:0:0:
448,192,117577,128,2,118063:0:0:0:0:
64,192,117869,1,0,0:0:0:0:
192,192,117869,1,0,0:0:0:0:
320,192,118063,1,0,0:0:0:0:
448,192,118160,1,0,0:0:0:0:
192,192,118160,128,0,118354:0:0:0:0:
64,192,118160,128,8,118257:0:0:0:0:
64,192,118354,1,0,0:0:0:0:
320,192,118354,128,0,118548:0:0:0:0:
192,192,118451,1,0,0:0:0:0:
448,192,118451,128,0,118548:0:0:0:0:
448,192,118645,1,0,0:0:0:0:
64,192,118645,128,0,118937:0:0:0:0:
320,192,118742,128,0,119325:0:0:0:0:
192,192,118742,128,2,119131:0:0:0:0:
448,192,118937,1,0,0:0:0:0:
64,192,119034,1,0,0:0:0:0:
192,192,119228,1,0,0:0:0:0:
64,192,119325,1,0,0:0:0:0:
448,192,119325,128,8,119519:0:0:0:0:
192,192,119519,1,0,0:0:0:0:
64,192,119519,1,0,0:0:0:0:
448,192,119616,1,0,0:0:0:0:
320,192,119616,128,0,119810:0:0:0:0:
448,192,119810,1,0,0:0:0:0:
64,192,119810,128,0,120102:0:0:0:0:
192,192,119907,128,0,120199:0:0:0:0:
320,192,119907,128,2,120199:0:0:0:0:
64,192,120199,1,0,0:0:0:0:
448,192,120199,128,0,120393:0:0:0:0:
320,192,120393,128,0,120587:0:0:0:0:
192,192,120490,128,0,120781:0:0:0:0:
448,192,120490,128,0,120781:0:0:0:0:
64,192,120490,128,8,120684:0:0:0:0:
320,192,120781,128,0,120975:0:0:0:0:
64,192,120781,128,0,120975:0:0:0:0:
192,192,120975,128,0,121170:0:0:0:0:
320,192,121072,128,0,121655:0:0:0:0:
448,192,121072,128,0,121267:0:0:0:0:
64,192,121072,128,2,121364:0:0:0:0:
448,192,121364,1,0,0:0:0:0:
192,192,121364,1,0,0:0:0:0:
192,192,121655,128,0,121849:0:0:0:0:
64,192,121655,128,8,121849:0:0:0:0:
448,192,121655,128,0,121849:0:0:0:0:
448,192,121946,128,0,122140:0:0:0:0:
320,192,121946,128,0,122140:0:0:0:0:
192,192,121946,128,0,122140:0:0:0:0:
320,192,122238,128,0,122432:0:0:0:0:
64,192,122238,128,0,122432:0:0:0:0:
192,192,122238,128,0,122626:0:0:0:0:
448,192,122238,128,2,122723:0:0:0:0:
64,192,122529,1,0,0:0:0:0:
320,192,122529,1,0,0:0:0:0:
192,192,122723,1,0,0:0:0:0:
448,192,122820,1,0,0:0:0:0:
320,192,122820,128,0,123014:0:0:0:0:
64,192,122820,128,8,122917:0:0:0:0:
64,192,123014,1,0,0:0:0:0:
192,192,123014,128,0,123208:0:0:0:0:
320,192,123111,1,0,0:0:0:0:
448,192,123111,128,0,123208:0:0:0:0:
448,192,123306,1,0,0:0:0:0:
64,192,123306,128,0,123597:0:0:0:0:
192,192,123403,128,0,123791:0:0:0:0:
320,192,123403,128,2,123791:0:0:0:0:
448,192,123597,1,0,0:0:0:0:
64,192,123694,1,0,0:0:0:0:
320,192,123888,1,0,0:0:0:0:
448,192,123985,1,0,0:0:0:0:
64,192,123985,128,8,124276:0:0:0:0:
320,192,124179,128,0,124471:0:0:0:0:
192,192,124179,1,0,0:0:0:0:
192,192,124373,128,0,124665:0:0:0:0:
448,192,124373,1,0,0:0:0:0:
448,192,124568,128,0,124859:0:0:0:0:
64,192,124568,1,0,0:0:0:0:
320,192,124568,128,2,124665:0:0:0:0:
192,192,124762,128,0,125053:0:0:0:0:
64,192,124762,1,0,0:0:0:0:
320,192,124956,128,0,125247:0:0:0:0:
448,192,124956,1,0,0:0:0:0:
192,192,125150,128,0,125247:0:0:0:0:
64,192,125150,128,8,125441:0:0:0:0:
448,192,125150,1,2,0:0:0:0:
448,192,125344,128,0,125636:0:0:0:0:
192,192,125344,1,0,0:0:0:0:
320,192,125539,128,0,125733:0:0:0:0:
64,192,125539,1,0,0:0:0:0:
64,192,125733,128,0,126024:0:0:0:0:
448,192,125733,128,0,126024:0:0:0:0:
192,192,125733,128,2,125927:0:0:0:0:
320,192,126024,1,0,0:0:0:0:
192,192,126024,128,2,126218:0:0:0:0:
448,192,126170,1,0,0:0:0:0:
192,192,126315,128,0,126509:0:0:0:0:
320,192,126315,128,2,126509:0:0:0:0:
64,192,126315,128,8,126509:0:0:0:0:
448,192,126606,128,0,126801:0:0:0:0:
320,192,126606,128,2,126801:0:0:0:0:
192,192,126606,128,8,126801:0:0:0:0:
448,192,126898,128,0,127092:0:0:0:0:
320,192,126898,128,0,127092:0:0:0:0:
64,192,126898,128,4,127383:0:0:0:0:
192,192,126898,128,2,127286:0:0:0:0:
448,192,127189,1,0,0:0:0:0:
320,192,127189,1,0,0:0:0:0:
192,192,127383,1,0,0:0:0:0:
64,192,127480,1,0,0:0:0:0:
320,192,127480,128,0,127674:0:0:0:0:
448,192,127480,128,8,127577:0:0:0:0:
448,192,127674,1,0,0:0:0:0:
192,192,127674,128,0,127869:0:0:0:0:
320,192,127772,1,0,0:0:0:0:
64,192,127772,128,0,127869:0:0:0:0:
64,192,127966,1,0,0:0:0:0:
448,192,127966,128,0,128257:0:0:0:0:
192,192,128063,128,0,128645:0:0:0:0:
320,192,128063,128,2,128451:0:0:0:0:
64,192,128257,1,0,0:0:0:0:
448,192,128354,1,0,0:0:0:0:
320,192,128548,1,0,0:0:0:0:
448,192,128645,1,0,0:0:0:0:
64,192,128645,128,8,128839:0:0:0:0:
320,192,128839,1,0,0:0:0:0:
448,192,128839,1,0,0:0:0:0:
64,192,128937,1,0,0:0:0:0:
192,192,128937,128,0,129131:0:0:0:0:
64,192,129131,1,0,0:0:0:0:
448,192,129131,128,0,129422:0:0:0:0:
320,192,129228,128,0,129519:0:0:0:0:
192,192,129228,128,2,129519:0:0:0:0:
448,192,129519,1,0,0:0:0:0:
64,192,129519,128,0,129713:0:0:0:0:
192,192,129713,128,0,129907:0:0:0:0:
320,192,129810,128,0,130102:0:0:0:0:
64,192,129810,128,0,130102:0:0:0:0:
448,192,129810,128,8,130005:0:0:0:0:
448,192,130102,128,0,130296:0:0:0:0:
192,192,130102,128,0,130296:0:0:0:0:
320,192,130296,128,0,130490:0:0:0:0:
192,192,130393,128,0,130975:0:0:0:0:
64,192,130393,128,0,130587:0:0:0:0:
448,192,130393,128,2,130684:0:0:0:0:
64,192,130684,1,0,0:0:0:0:
320,192,130684,1,0,0:0:0:0:
320,192,130975,128,0,131170:0:0:0:0:
64,192,130975,1,0,0:0:0:0:
448,192,130975,128,8,131170:0:0:0:0:
64,192,131267,128,0,131461:0:0:0:0:
192,192,131267,128,0,131461:0:0:0:0:
320,192,131267,1,0,0:0:0:0:
448,192,131558,128,0,131752:0:0:0:0:
192,192,131558,128,0,131752:0:0:0:0:
64,192,131558,128,0,132043:0:0:0:0:
320,192,131558,128,2,131946:0:0:0:0:
448,192,131849,1,0,0:0:0:0:
192,192,131849,1,0,0:0:0:0:
320,192,132043,1,0,0:0:0:0:
64,192,132140,1,0,0:0:0:0:
192,192,132140,128,0,132335:0:0:0:0:
448,192,132140,128,8,132238:0:0:0:0:
448,192,132335,1,0,0:0:0:0:
320,192,132335,128,0,132529:0:0:0:0:
192,192,132432,1,0,0:0:0:0:
64,192,132432,128,0,132529:0:0:0:0:
64,192,132626,1,0,0:0:0:0:
448,192,132626,128,0,132917:0:0:0:0:
320,192,132723,128,0,133111:0:0:0:0:
192,192,132723,128,2,133111:0:0:0:0:
64,192,132917,1,0,0:0:0:0:
448,192,133014,1,0,0:0:0:0:
192,192,133208,1,0,0:0:0:0:
64,192,133306,1,0,0:0:0:0:
448,192,133306,128,8,133597:0:0:0:0:
192,192,133500,128,0,133791:0:0:0:0:
320,192,133500,1,0,0:0:0:0:
320,192,133694,128,0,133985:0:0:0:0:
64,192,133694,1,0,0:0:0:0:
64,192,133888,128,0,134179:0:0:0:0:
192,192,133888,1,0,0:0:0:0:
448,192,133888,128,2,133985:0:0:0:0:
320,192,134082,128,0,134373:0:0:0:0:
448,192,134082,1,0,0:0:0:0:
192,192,134276,128,0,134568:0:0:0:0:
64,192,134276,1,0,0:0:0:0:
448,192,134471,128,0,134762:0:0:0:0:
320,192,134471,1,8,0:0:0:0:
64,192,134471,128,2,134568:0:0:0:0:
64,192,134665,128,0,134956:0:0:0:0:
320,192,134665,1,0,0:0:0:0:
192,192,134859,128,0,135053:0:0:0:0:
448,192,134859,1,0,0:0:0:0:
448,192,135053,128,0,135539:0:0:0:0:
64,192,135053,128,8,135539:0:0:0:0:
320,192,135053,128,2,135247:0:0:0:0:
320,192,135344,1,0,0:0:0:0:
192,192,135344,128,2,135539:0:0:0:0:
192,192,135636,128,0,136121:0:0:0:0:
320,192,135636,128,0,136121:0:0:0:0:
64,192,135636,1,8,0:0:0:0:
448,192,135636,128,2,135830:0:0:0:0:
448,192,135927,1,0,0:0:0:0:
64,192,135927,128,2,136121:0:0:0:0:
320,192,136218,128,0,136801:0:0:0:0:
448,192,136218,128,0,136704:0:0:0:0:
64,192,136218,128,2,136412:0:0:0:0:
192,192,136412,128,0,136801:0:0:0:0:
64,192,136801,1,0,0:0:0:0:
448,192,136801,1,8,0:0:0:0:
192,192,137092,1,0,0:0:0:0:
448,192,137383,1,0,0:0:0:0:
64,192,137383,1,2,0:0:0:0:
192,192,137674,1,0,0:0:0:0:
320,192,137772,1,0,0:0:0:0:
64,192,137869,1,0,0:0:0:0:
320,192,137966,1,0,0:0:0:0:
448,192,137966,1,8,0:0:0:0:
192,192,138257,1,0,0:0:0:0:
320,192,138548,1,0,0:0:0:0:
192,192,138548,1,0,0:0:0:0:
64,192,138548,128,2,139034:0:0:0:0:
448,192,138742,128,0,139131:0:0:0:0:
64,192,139131,1,0,0:0:0:0:
320,192,139131,1,8,0:0:0:0:
192,192,139422,1,0,0:0:0:0:
448,192,139713,1,0,0:0:0:0:
64,192,139713,1,2,0:0:0:0:
320,192,139762,1,0,0:0:0:0:
192,192,139810,1,0,0:0:0:0:
64,192,139859,1,0,0:0:0:0:
448,192,139907,1,0,0:0:0:0:
320,192,139956,1,0,0:0:0:0:
192,192,140053,1,0,0:0:0:0:
64,192,140199,1,0,0:0:0:0:
192,192,140247,1,0,0:0:0:0:
320,192,140296,1,0,0:0:0:0:
448,192,140296,1,8,0:0:0:0:
192,192,140587,1,0,0:0:0:0:
320,192,140587,1,2,0:0:0:0:
192,192,140878,1,0,0:0:0:0:
64,192,140878,1,4,0:0:0:0:
448,192,140878,128,2,141364:0:0:0:0:
320,192,141072,1,0,0:0:0:0:
64,192,141170,128,0,141461:0:0:0:0:
192,192,141170,1,0,0:0:0:0:
192,192,141461,128,0,141946:0:0:0:0:
448,192,141461,128,8,141752:0:0:0:0:
64,192,141752,1,0,0:0:0:0:
320,192,141946,128,0,142140:0:0:0:0:
448,192,142043,128,0,142335:0:0:0:0:
64,192,142043,1,2,0:0:0:0:
192,192,142335,128,0,142529:0:0:0:0:
320,192,142335,1,2,0:0:0:0:
64,192,142529,128,0,143208:0:0:0:0:
448,192,142626,128,0,143208:0:0:0:0:
320,192,142626,1,8,0:0:0:0:
320,192,142917,1,0,0:0:0:0:
192,192,142917,1,2,0:0:0:0:
320,192,143208,128,0,143500:0:0:0:0:
192,192,143208,128,2,143500:0:0:0:0:
64,192,143500,128,0,143791:0:0:0:0:
448,192,143500,1,0,0:0:0:0:
192,192,143791,1,0,0:0:0:0:
320,192,143791,128,8,144082:0:0:0:0:
448,192,144082,1,0,0:0:0:0:
64,192,144082,1,0,0:0:0:0:
192,192,144228,1,0,0:0:0:0:
448,192,144373,128,0,144665:0:0:0:0:
320,192,144373,1,2,0:0:0:0:
64,192,144665,1,0,0:0:0:0:
320,192,144665,128,2,144810:0:0:0:0:
192,192,144810,128,0,145539:0:0:0:0:
448,192,144956,128,0,145539:0:0:0:0:
64,192,144956,1,8,0:0:0:0:
320,192,145247,1,0,0:0:0:0:
64,192,145247,1,2,0:0:0:0:
64,192,145539,128,0,145830:0:0:0:0:
320,192,145539,1,2,0:0:0:0:
448,192,145830,128,0,146121:0:0:0:0:
192,192,145830,1,0,0:0:0:0:
64,192,146121,128,0,146412:0:0:0:0:
320,192,146121,128,8,146558:0:0:0:0:
448,192,146412,1,0,0:0:0:0:
192,192,146558,128,0,146704:0:0:0:0:
64,192,146704,128,0,146995:0:0:0:0:
448,192,146704,1,2,0:0:0:0:
320,192,146995,128,0,147189:0:0:0:0:
192,192,146995,1,2,0:0:0:0:
448,192,147189,128,0,147869:0:0:0:0:
64,192,147286,128,0,147869:0:0:0:0:
192,192,147286,1,8,0:0:0:0:
320,192,147577,1,0,0:0:0:0:
192,192,147577,1,2,0:0:0:0:
192,192,147869,128,0,148160:0:0:0:0:
320,192,147869,128,2,148160:0:0:0:0:
448,192,148160,128,0,148451:0:0:0:0:
64,192,148160,1,0,0:0:0:0:
192,192,148451,128,0,148937:0:0:0:0:
64,192,148451,1,8,0:0:0:0:
448,192,148742,1,0,0:0:0:0:
320,192,148937,1,0,0:0:0:0:
64,192,149034,128,0,149325:0:0:0:0:
448,192,149034,1,2,0:0:0:0:
320,192,149325,1,0,0:0:0:0:
192,192,149325,128,2,149616:0:0:0:0:
448,192,149422,1,0,0:0:0:0:
64,192,149519,1,0,0:0:0:0:
320,192,149616,128,0,149907:0:0:0:0:
448,192,149616,1,8,0:0:0:0:
192,192,149907,1,0,0:0:0:0:
64,192,149907,1,0,0:0:0:0:
448,192,149907,128,2,150199:0:0:0:0:
320,192,150199,1,0,0:0:0:0:
64,192,150199,128,4,150490:0:0:0:0:
192,192,150199,1,2,0:0:0:0:
192,192,150393,1,0,0:0:0:0:
448,192,150490,128,0,150781:0:0:0:0:
320,192,150490,1,0,0:0:0:0:
64,192,150781,128,0,151072:0:0:0:0:
320,192,150781,128,0,151267:0:0:0:0:
192,192,150781,1,8,0:0:0:0:
448,192,151072,1,0,0:0:0:0:
192,192,151267,128,0,151461:0:0:0:0:
64,192,151364,128,0,151655:0:0:0:0:
448,192,151364,1,2,0:0:0:0:
320,192,151655,128,0,151849:0:0:0:0:
192,192,151655,1,0,0:0:0:0:
448,192,151849,128,0,152529:0:0:0:0:
64,192,151946,128,0,152238:0:0:0:0:
192,192,151946,1,0,0:0:0:0:
320,192,151946,1,8,0:0:0:0:
192,192,152238,1,0,0:0:0:0:
320,192,152238,128,0,152432:0:0:0:0:
64,192,152432,1,0,0:0:0:0:
192,192,152529,128,0,152820:0:0:0:0:
320,192,152529,128,2,152820:0:0:0:0:
448,192,152820,128,0,153111:0:0:0:0:
64,192,152820,1,0,0:0:0:0:
192,192,153111,128,0,153548:0:0:0:0:
320,192,153111,1,8,0:0:0:0:
64,192,153111,128,0,153548:0:0:0:0:
448,192,153403,1,0,0:0:0:0:
320,192,153548,1,0,0:0:0:0:
64,192,153694,128,0,153985:0:0:0:0:
192,192,153694,1,2,0:0:0:0:
448,192,153888,128,0,154082:0:0:0:0:
192,192,153985,128,0,154179:0:0:0:0:
320,192,153985,1,0,0:0:0:0:
320,192,154179,128,0,154859:0:0:0:0:
64,192,154276,128,8,154859:0:0:0:0:
448,192,154276,1,0,0:0:0:0:
192,192,154568,1,0,0:0:0:0:
448,192,154568,1,0,0:0:0:0:
448,192,154859,128,0,155150:0:0:0:0:
192,192,154859,1,2,0:0:0:0:
64,192,155150,128,0,155441:0:0:0:0:
192,192,155150,1,0,0:0:0:0:
192,192,155441,128,0,155927:0:0:0:0:
320,192,155441,1,0,0:0:0:0:
448,192,155441,128,8,155733:0:0:0:0:
64,192,155733,1,0,0:0:0:0:
320,192,155927,128,0,156121:0:0:0:0:
448,192,156024,128,0,156315:0:0:0:0:
64,192,156024,1,0,0:0:0:0:
192,192,156024,1,2,0:0:0:0:
192,192,156315,128,0,156509:0:0:0:0:
320,192,156315,1,0,0:0:0:0:
64,192,156509,128,0,157189:0:0:0:0:
192,192,156606,1,0,0:0:0:0:
448,192,156606,128,0,157189:0:0:0:0:
320,192,156606,1,8,0:0:0:0:
320,192,156898,1,0,0:0:0:0:
192,192,156898,128,0,157092:0:0:0:0:
320,192,157189,128,0,157480:0:0:0:0:
192,192,157189,128,2,157480:0:0:0:0:
64,192,157480,128,0,158063:0:0:0:0:
448,192,157480,1,0,0:0:0:0:
192,192,157772,1,0,0:0:0:0:
320,192,157772,128,0,158354:0:0:0:0:
448,192,157772,1,8,0:0:0:0:
192,192,158063,128,0,158257:0:0:0:0:
448,192,158063,1,0,0:0:0:0:
448,192,158354,128,0,158645:0:0:0:0:
64,192,158354,1,0,0:0:0:0:
192,192,158354,1,2,0:0:0:0:
320,192,158548,128,0,158839:0:0:0:0:
64,192,158548,1,0,0:0:0:0:
192,192,158742,128,0,159034:0:0:0:0:
448,192,158742,1,0,0:0:0:0:
64,192,158937,128,0,159228:0:0:0:0:
320,192,158937,1,0,0:0:0:0:
448,192,158937,1,8,0:0:0:0:
320,192,159131,128,0,159422:0:0:0:0:
192,192,159131,1,0,0:0:0:0:
448,192,159325,128,0,160005:0:0:0:0:
64,192,159325,1,0,0:0:0:0:
192,192,159519,1,0,0:0:0:0:
320,192,159519,128,0,160005:0:0:0:0:
64,192,159519,128,2,160005:0:0:0:0:
192,192,159810,1,0,0:0:0:0:
192,192,160005,1,0,0:0:0:0:
448,192,160102,128,0,160393:0:0:0:0:
320,192,160102,1,0,0:0:0:0:
64,192,160102,1,8,0:0:0:0:
320,192,160393,128,0,160684:0:0:0:0:
192,192,160393,1,0,0:0:0:0:
64,192,160684,128,0,160878:0:0:0:0:
192,192,160684,1,2,0:0:0:0:
448,192,160878,128,0,161072:0:0:0:0:
320,192,160975,128,0,161170:0:0:0:0:
64,192,160975,1,0,0:0:0:0:
192,192,161170,128,0,161364:0:0:0:0:
320,192,161267,128,0,161461:0:0:0:0:
448,192,161267,1,0,0:0:0:0:
64,192,161267,1,8,0:0:0:0:
64,192,161558,128,0,161849:0:0:0:0:
192,192,161558,1,0,0:0:0:0:
192,192,161752,1,0,0:0:0:0:
448,192,161849,1,0,0:0:0:0:
320,192,161849,128,2,162043:0:0:0:0:
64,192,162043,1,0,0:0:0:0:
192,192,162140,128,0,162335:0:0:0:0:
320,192,162432,1,0,0:0:0:0:
64,192,162432,1,0,0:0:0:0:
448,192,162432,128,8,162626:0:0:0:0:
192,192,162626,1,0,0:0:0:0:
320,192,162723,128,0,162917:0:0:0:0:
192,192,163014,1,0,0:0:0:0:
64,192,163014,128,2,163208:0:0:0:0:
320,192,163208,1,0,0:0:0:0:
192,192,163306,128,0,163500:0:0:0:0:
448,192,163500,1,0,0:0:0:0:
320,192,163597,128,0,163888:0:0:0:0:
64,192,163597,1,0,0:0:0:0:
192,192,163597,1,8,0:0:0:0:
192,192,163888,128,0,164179:0:0:0:0:
448,192,163888,1,0,0:0:0:0:
448,192,164179,128,0,164471:0:0:0:0:
320,192,164179,1,0,0:0:0:0:
64,192,164179,1,2,0:0:0:0:
192,192,164471,128,0,164762:0:0:0:0:
320,192,164471,1,0,0:0:0:0:
64,192,164665,1,0,0:0:0:0:
320,192,164762,1,0,0:0:0:0:
448,192,164762,128,8,165053:0:0:0:0:
64,192,164859,128,0,165053:0:0:0:0:
192,192,164956,128,0,165150:0:0:0:0:
320,192,165053,128,0,165344:0:0:0:0:
64,192,165344,128,0,165830:0:0:0:0:
448,192,165344,1,2,0:0:0:0:
448,192,165539,128,0,165733:0:0:0:0:
320,192,165636,128,0,165830:0:0:0:0:
192,192,165636,1,0,0:0:0:0:
192,192,165830,128,0,166024:0:0:0:0:
448,192,165927,1,0,0:0:0:0:
64,192,165927,1,0,0:0:0:0:
320,192,165927,128,8,166121:0:0:0:0:
64,192,166218,128,0,166509:0:0:0:0:
192,192,166218,1,0,0:0:0:0:
320,192,166509,1,0,0:0:0:0:
448,192,166509,128,2,166995:0:0:0:0:
192,192,166606,1,0,0:0:0:0:
320,192,166704,1,0,0:0:0:0:
64,192,166801,1,0,0:0:0:0:
320,192,167092,1,0,0:0:0:0:
448,192,167092,1,0,0:0:0:0:
64,192,167092,1,8,0:0:0:0:
320,192,167286,1,0,0:0:0:0:
320,192,167480,128,0,167674:0:0:0:0:
192,192,167674,1,0,0:0:0:0:
64,192,167674,1,2,0:0:0:0:
192,192,167869,1,0,0:0:0:0:
320,192,167966,1,0,0:0:0:0:
192,192,168063,128,0,168257:0:0:0:0:
448,192,168257,1,0,0:0:0:0:
64,192,168257,1,0,0:0:0:0:
320,192,168257,128,8,168548:0:0:0:0:
192,192,168548,128,0,168839:0:0:0:0:
64,192,168548,1,0,0:0:0:0:
320,192,168839,1,4,0:0:0:0:
448,192,168839,128,2,169131:0:0:0:0:
64,192,168839,128,0,169131:0:0:0:0:
192,192,169131,128,0,169422:0:0:0:0:
320,192,169131,1,0,0:0:0:0:
64,192,169325,1,0,0:0:0:0:
320,192,169422,1,0,0:0:0:0:
448,192,169422,128,8,169713:0:0:0:0:
64,192,169519,128,0,169713:0:0:0:0:
192,192,169616,128,0,169810:0:0:0:0:
320,192,169713,128,0,170005:0:0:0:0:
64,192,170005,128,0,170490:0:0:0:0:
448,192,170005,1,2,0:0:0:0:
448,192,170199,128,0,170393:0:0:0:0:
320,192,170296,128,0,170490:0:0:0:0:
192,192,170296,1,0,0:0:0:0:
192,192,170490,128,0,170684:0:0:0:0:
320,192,170587,128,0,170781:0:0:0:0:
448,192,170587,1,0,0:0:0:0:
64,192,170587,1,8,0:0:0:0:
64,192,170878,128,0,171170:0:0:0:0:
192,192,170878,1,0,0:0:0:0:
320,192,171170,1,0,0:0:0:0:
448,192,171170,128,2,172335:0:0:0:0:
192,192,171170,1,0,0:0:0:0:
64,192,171461,1,0,0:0:0:0:
192,192,171558,1,0,0:0:0:0:
320,192,171655,1,0,0:0:0:0:
64,192,171752,1,0,0:0:0:0:
192,192,171752,1,8,0:0:0:0:
320,192,172043,1,0,0:0:0:0:
64,192,172140,1,0,0:0:0:0:
192,192,172238,1,0,0:0:0:0:
64,192,172335,1,0,0:0:0:0:
320,192,172335,128,2,172723:0:0:0:0:
192,192,172480,128,0,172820:0:0:0:0:
448,192,172626,1,0,0:0:0:0:
64,192,172626,128,0,172820:0:0:0:0:
320,192,172820,1,0,0:0:0:0:
448,192,172917,128,0,173208:0:0:0:0:
64,192,172917,1,8,0:0:0:0:
64,192,173208,128,0,173500:0:0:0:0:
320,192,173208,1,0,0:0:0:0:
448,192,173500,128,0,173791:0:0:0:0:
320,192,173500,128,2,173791:0:0:0:0:
192,192,173500,1,0,0:0:0:0:
192,192,173791,128,0,173985:0:0:0:0:
64,192,173791,1,0,0:0:0:0:
320,192,173985,128,0,174179:0:0:0:0:
448,192,174082,128,0,174276:0:0:0:0:
64,192,174082,1,8,0:0:0:0:
192,192,174179,128,0,174373:0:0:0:0:
64,192,174276,128,0,174471:0:0:0:0:
320,192,174373,128,0,174665:0:0:0:0:
448,192,174373,128,0,174568:0:0:0:0:
192,192,174665,128,0,174859:0:0:0:0:
64,192,174665,128,2,175150:0:0:0:0:
448,192,174859,128,0,175053:0:0:0:0:
320,192,174956,128,0,175150:0:0:0:0:
192,192,175150,128,0,175344:0:0:0:0:
448,192,175247,128,0,175830:0:0:0:0:
320,192,175247,1,0,0:0:0:0:
64,192,175247,128,8,175539:0:0:0:0:
320,192,175539,128,0,175830:0:0:0:0:
192,192,175539,1,0,0:0:0:0:
192,192,175830,128,2,176121:0:0:0:0:
64,192,175830,128,0,176121:0:0:0:0:
448,192,176412,128,2,176704:0:0:0:0:
192,192,176412,128,0,176704:0:0:0:0:
320,192,176995,128,0,177286:0:0:0:0:
448,192,176995,128,2,177286:0:0:0:0:
64,192,177577,128,0,180393:0:0:0:0:
192,192,177577,128,0,179616:0:0:0:0:
320,192,177577,128,2,179422:0:0:0:0:
448,192,177577,128,0,179228:0:0:0:0:
448,192,179325,1,0,0:0:0:0:
320,192,179519,1,0,0:0:0:0:
192,192,179713,1,0,0:0:0:0:
320,192,179907,128,0,180102:0:0:0:0:
192,192,179907,128,0,180102:0:0:0:0:
448,192,180199,128,0,180393:0:0:0:0:
320,192,180199,128,0,180393:0:0:0:0:
192,192,180490,128,0,180684:0:0:0:0:
320,192,180490,128,0,180684:0:0:0:0:
448,192,180490,128,2,180878:0:0:0:0:
64,192,180490,128,4,180975:0:0:0:0:
320,192,180781,1,0,0:0:0:0:
192,192,180781,1,0,0:0:0:0:
448,192,180975,1,0,0:0:0:0:
64,192,181072,1,0,0:0:0:0:
320,192,181072,128,0,181267:0:0:0:0:
192,192,181072,128,8,181170:0:0:0:0:
448,192,181267,1,0,0:0:0:0:
192,192,181267,128,0,181461:0:0:0:0:
320,192,181364,1,0,0:0:0:0:
64,192,181364,128,0,181461:0:0:0:0:
64,192,181558,1,0,0:0:0:0:
448,192,181558,128,0,181849:0:0:0:0:
192,192,181655,128,0,182238:0:0:0:0:
320,192,181655,128,2,182043:0:0:0:0:
64,192,181849,1,0,0:0:0:0:
448,192,181946,1,0,0:0:0:0:
320,192,182140,1,0,0:0:0:0:
448,192,182238,1,0,0:0:0:0:
64,192,182238,128,8,182432:0:0:0:0:
448,192,182432,1,0,0:0:0:0:
320,192,182432,128,0,182626:0:0:0:0:
64,192,182529,1,0,0:0:0:0:
192,192,182529,128,0,182723:0:0:0:0:
64,192,182723,1,0,0:0:0:0:
448,192,182723,128,0,183014:0:0:0:0:
320,192,182820,128,0,183111:0:0:0:0:
192,192,182820,128,2,183111:0:0:0:0:
64,192,183111,1,0,0:0:0:0:
448,192,183111,128,0,183306:0:0:0:0:
64,192,183306,128,0,183500:0:0:0:0:
320,192,183403,128,0,183694:0:0:0:0:
192,192,183403,128,0,183694:0:0:0:0:
448,192,183403,128,8,183597:0:0:0:0:
448,192,183694,128,0,183888:0:0:0:0:
64,192,183694,128,0,183888:0:0:0:0:
320,192,183888,128,0,184082:0:0:0:0:
192,192,183985,128,0,184471:0:0:0:0:
64,192,183985,128,0,184179:0:0:0:0:
448,192,183985,128,2,184276:0:0:0:0:
64,192,184276,1,0,0:0:0:0:
320,192,184276,1,0,0:0:0:0:
64,192,184471,1,0,0:0:0:0:
448,192,184568,128,0,184762:0:0:0:0:
320,192,184568,128,0,184762:0:0:0:0:
192,192,184568,1,8,0:0:0:0:
64,192,184859,128,0,185053:0:0:0:0:
192,192,184859,128,0,185053:0:0:0:0:
320,192,184859,1,0,0:0:0:0:
64,192,185150,128,0,185344:0:0:0:0:
320,192,185150,128,0,185344:0:0:0:0:
448,192,185150,128,0,185539:0:0:0:0:
192,192,185150,128,2,185636:0:0:0:0:
320,192,185441,1,0,0:0:0:0:
64,192,185441,1,0,0:0:0:0:
320,192,185636,1,0,0:0:0:0:
64,192,185733,1,0,0:0:0:0:
192,192,185733,128,0,185927:0:0:0:0:
448,192,185733,128,8,185830:0:0:0:0:
448,192,185927,1,0,0:0:0:0:
320,192,185927,128,0,186121:0:0:0:0:
192,192,186024,1,0,0:0:0:0:
64,192,186024,128,0,186121:0:0:0:0:
64,192,186218,1,0,0:0:0:0:
448,192,186218,128,0,186509:0:0:0:0:
320,192,186315,128,0,186704:0:0:0:0:
192,192,186315,128,2,186704:0:0:0:0:
64,192,186509,1,0,0:0:0:0:
448,192,186606,1,0,0:0:0:0:
192,192,186801,1,0,0:0:0:0:
64,192,186898,1,0,0:0:0:0:
448,192,186898,128,0,187189:0:0:0:0:
320,192,186898,128,8,186995:0:0:0:0:
192,192,187092,128,0,187383:0:0:0:0:
320,192,187092,1,0,0:0:0:0:
320,192,187286,128,0,187577:0:0:0:0:
64,192,187286,1,0,0:0:0:0:
448,192,187480,1,0,0:0:0:0:
192,192,187480,128,0,187577:0:0:0:0:
64,192,187480,128,2,187772:0:0:0:0:
320,192,187674,128,0,187966:0:0:0:0:
448,192,187674,1,0,0:0:0:0:
192,192,187869,128,0,188160:0:0:0:0:
64,192,187869,1,0,0:0:0:0:
448,192,188063,128,0,188354:0:0:0:0:
64,192,188063,1,0,0:0:0:0:
320,192,188063,128,8,188160:0:0:0:0:
64,192,188257,128,0,188548:0:0:0:0:
320,192,188257,1,0,0:0:0:0:
192,192,188451,128,0,188645:0:0:0:0:
448,192,188451,1,0,0:0:0:0:
448,192,188645,128,0,188937:0:0:0:0:
64,192,188645,128,0,188937:0:0:0:0:
320,192,188645,128,2,188839:0:0:0:0:
192,192,188937,1,0,0:0:0:0:
320,192,188937,128,2,189131:0:0:0:0:
64,192,189082,1,0,0:0:0:0:
320,192,189228,128,0,189422:0:0:0:0:
192,192,189228,128,2,189422:0:0:0:0:
448,192,189228,128,8,189422:0:0:0:0:
64,192,189519,128,0,189713:0:0:0:0:
192,192,189519,128,8,189713:0:0:0:0:
320,192,189519,128,2,189713:0:0:0:0:
192,192,189810,128,0,190005:0:0:0:0:
64,192,189810,128,0,190005:0:0:0:0:
320,192,189810,128,2,190199:0:0:0:0:
448,192,189810,128,4,190296:0:0:0:0:
64,192,190102,1,0,0:0:0:0:
192,192,190102,1,0,0:0:0:0:
320,192,190296,1,0,0:0:0:0:
448,192,190393,1,0,0:0:0:0:
192,192,190393,128,0,190587:0:0:0:0:
64,192,190393,128,8,190490:0:0:0:0:
64,192,190587,1,0,0:0:0:0:
320,192,190587,128,0,190781:0:0:0:0:
192,192,190684,1,0,0:0:0:0:
448,192,190684,128,0,190781:0:0:0:0:
448,192,190878,1,0,0:0:0:0:
64,192,190878,128,0,191170:0:0:0:0:
320,192,190975,128,0,191558:0:0:0:0:
192,192,190975,128,2,191364:0:0:0:0:
448,192,191170,1,0,0:0:0:0:
64,192,191267,1,0,0:0:0:0:
192,192,191461,1,0,0:0:0:0:
64,192,191558,1,0,0:0:0:0:
448,192,191558,128,8,191752:0:0:0:0:
192,192,191752,1,0,0:0:0:0:
64,192,191752,1,0,0:0:0:0:
448,192,191849,1,0,0:0:0:0:
320,192,191849,128,0,192043:0:0:0:0:
448,192,192043,1,0,0:0:0:0:
64,192,192043,128,0,192335:0:0:0:0:
192,192,192140,128,0,192432:0:0:0:0:
320,192,192140,128,2,192432:0:0:0:0:
448,192,192432,1,0,0:0:0:0:
64,192,192432,128,0,192626:0:0:0:0:
448,192,192626,128,0,192820:0:0:0:0:
192,192,192723,128,0,193014:0:0:0:0:
320,192,192723,128,0,193014:0:0:0:0:
64,192,192723,128,8,192917:0:0:0:0:
448,192,193014,128,0,193208:0:0:0:0:
64,192,193014,128,0,193208:0:0:0:0:
192,192,193208,128,0,193403:0:0:0:0:
320,192,193306,128,0,193791:0:0:0:0:
448,192,193306,128,0,193500:0:0:0:0:
64,192,193306,128,2,193597:0:0:0:0:
448,192,193597,1,0,0:0:0:0:
192,192,193597,1,0,0:0:0:0:
448,192,193791,1,0,0:0:0:0:
192,192,193888,128,0,194082:0:0:0:0:
320,192,193888,1,0,0:0:0:0:
64,192,193888,128,8,194082:0:0:0:0:
448,192,194179,128,0,194373:0:0:0:0:
320,192,194179,128,0,194373:0:0:0:0:
192,192,194179,1,0,0:0:0:0:
320,192,194471,128,0,194665:0:0:0:0:
64,192,194471,128,0,194665:0:0:0:0:
192,192,194471,128,0,194859:0:0:0:0:
448,192,194471,128,2,194956:0:0:0:0:
64,192,194762,1,0,0:0:0:0:
320,192,194762,1,0,0:0:0:0:
192,192,194956,1,0,0:0:0:0:
448,192,195053,1,0,0:0:0:0:
320,192,195053,128,0,195247:0:0:0:0:
64,192,195053,128,8,195150:0:0:0:0:
64,192,195247,1,0,0:0:0:0:
192,192,195247,128,0,195441:0:0:0:0:
320,192,195344,1,0,0:0:0:0:
448,192,195344,128,0,195441:0:0:0:0:
448,192,195539,1,0,0:0:0:0:
64,192,195539,128,0,195830:0:0:0:0:
192,192,195636,128,0,196024:0:0:0:0:
320,192,195636,128,2,196024:0:0:0:0:
448,192,195830,1,0,0:0:0:0:
64,192,195927,1,0,0:0:0:0:
320,192,196121,1,0,0:0:0:0:
64,192,196218,128,0,196509:0:0:0:0:
192,192,196218,1,0,0:0:0:0:
448,192,196218,1,8,0:0:0:0:
320,192,196412,128,0,196704:0:0:0:0:
192,192,196412,1,0,0:0:0:0:
192,192,196606,128,0,196898:0:0:0:0:
448,192,196606,1,0,0:0:0:0:
448,192,196801,128,0,197092:0:0:0:0:
320,192,196801,1,0,0:0:0:0:
64,192,196801,128,2,196898:0:0:0:0:
192,192,196995,128,0,197286:0:0:0:0:
64,192,196995,1,0,0:0:0:0:
320,192,197189,128,0,197480:0:0:0:0:
448,192,197189,1,0,0:0:0:0:
64,192,197383,128,0,197674:0:0:0:0:
192,192,197383,1,8,0:0:0:0:
448,192,197383,128,2,197480:0:0:0:0:
448,192,197577,128,0,197869:0:0:0:0:
192,192,197577,1,0,0:0:0:0:
320,192,197772,128,0,197966:0:0:0:0:
64,192,197772,1,0,0:0:0:0:
64,192,197966,128,0,198451:0:0:0:0:
448,192,197966,128,0,198451:0:0:0:0:
192,192,197966,128,2,198160:0:0:0:0:
192,192,198257,5,0,0:0:0:0:
320,192,198257,128,2,198451:0:0:0:0:
320,192,198548,128,0,199034:0:0:0:0:
192,192,198548,128,0,199034:0:0:0:0:
448,192,198548,1,2,0:0:0:0:
64,192,198548,128,8,198742:0:0:0:0:
64,192,198839,1,8,0:0:0:0:
448,192,198839,128,2,199034:0:0:0:0:
448,192,199131,1,0,0:0:0:0:
320,192,199131,1,0,0:0:0:0:
64,192,199131,128,2,199325:0:0:0:0:
192,192,199228,128,0,199422:0:0:0:0:
448,192,199325,128,0,199519:0:0:0:0:
320,192,199422,128,0,199616:0:0:0:0:
64,192,199519,1,0,0:0:0:0:
192,192,199616,1,0,0:0:0:0:
320,192,199713,128,0,200005:0:0:0:0:
448,192,199713,128,8,199907:0:0:0:0:
192,192,199810,128,0,200102:0:0:0:0:
64,192,199907,128,0,200199:0:0:0:0:
448,192,200005,128,0,200296:0:0:0:0:
320,192,200102,128,0,200393:0:0:0:0:
192,192,200199,128,0,200587:0:0:0:0:
64,192,200296,128,2,200490:0:0:0:0:
448,192,200393,128,0,200781:0:0:0:0:
320,192,200490,128,0,200684:0:0:0:0:
64,192,200587,128,2,200781:0:0:0:0:
192,192,200684,128,0,200878:0:0:0:0:
320,192,200781,128,0,200975:0:0:0:0:
64,192,200878,1,0,0:0:0:0:
448,192,200878,128,8,201072:0:0:0:0:
192,192,200975,1,0,0:0:0:0:
320,192,201072,1,0,0:0:0:0:
448,192,201170,1,0,0:0:0:0:
64,192,201170,1,2,0:0:0:0:
64,192,201461,128,0,201655:0:0:0:0:
320,192,201461,128,2,201558:0:0:0:0:
448,192,201461,128,4,201655:0:0:0:0:
192,192,201558,128,0,201752:0:0:0:0:
320,192,201655,128,0,201849:0:0:0:0:
64,192,201752,1,0,0:0:0:0:
448,192,201752,128,0,201946:0:0:0:0:
192,192,201849,1,0,0:0:0:0:
320,192,201946,1,0,0:0:0:0:
192,192,202043,128,0,202140:0:0:0:0:
64,192,202043,128,0,202238:0:0:0:0:
448,192,202043,128,8,202238:0:0:0:0:
320,192,202140,128,0,202335:0:0:0:0:
192,192,202238,128,0,202432:0:0:0:0:
64,192,202335,128,0,202529:0:0:0:0:
448,192,202335,1,0,0:0:0:0:
320,192,202432,1,0,0:0:0:0:
192,192,202529,1,0,0:0:0:0:
64,192,202626,1,0,0:0:0:0:
320,192,202626,128,0,202917:0:0:0:0:
448,192,202626,128,2,202723:0:0:0:0:
448,192,202820,1,0,0:0:0:0:
64,192,202820,128,0,203111:0:0:0:0:
192,192,202820,128,0,202917:0:0:0:0:
448,192,203014,1,0,0:0:0:0:
320,192,203014,128,0,203306:0:0:0:0:
192,192,203014,128,0,203208:0:0:0:0:
64,192,203208,128,0,203403:0:0:0:0:
448,192,203208,128,8,203403:0:0:0:0:
192,192,203306,1,0,0:0:0:0:
320,192,203403,1,0,0:0:0:0:
448,192,203500,1,0,0:0:0:0:
64,192,203500,1,0,0:0:0:0:
192,192,203694,1,0,0:0:0:0:
64,192,203694,1,0,0:0:0:0:
320,192,203791,1,0,0:0:0:0:
448,192,203791,1,2,0:0:0:0:
320,192,203985,1,0,0:0:0:0:
64,192,204082,128,0,204179:0:0:0:0:
192,192,204082,128,0,204276:0:0:0:0:
448,192,204179,128,0,204276:0:0:0:0:
320,192,204276,1,0,0:0:0:0:
448,192,204373,128,0,204568:0:0:0:0:
192,192,204373,128,0,204471:0:0:0:0:
64,192,204373,128,8,204568:0:0:0:0:
320,192,204471,128,0,204665:0:0:0:0:
192,192,204568,128,0,204762:0:0:0:0:
64,192,204665,128,0,204859:0:0:0:0:
448,192,204665,1,0,0:0:0:0:
320,192,204762,1,0,0:0:0:0:
192,192,204859,1,0,0:0:0:0:
64,192,204956,1,0,0:0:0:0:
320,192,204956,128,0,205247:0:0:0:0:
448,192,204956,128,2,205053:0:0:0:0:
448,192,205150,1,0,0:0:0:0:
192,192,205150,128,0,205539:0:0:0:0:
64,192,205150,128,0,205247:0:0:0:0:
448,192,205344,128,0,205441:0:0:0:0:
64,192,205344,1,0,0:0:0:0:
320,192,205344,128,0,205636:0:0:0:0:
64,192,205539,128,0,205733:0:0:0:0:
448,192,205539,128,8,205733:0:0:0:0:
192,192,205636,1,0,0:0:0:0:
320,192,205733,1,0,0:0:0:0:
448,192,205830,1,0,0:0:0:0:
64,192,205830,1,0,0:0:0:0:
64,192,206121,128,0,206315:0:0:0:0:
320,192,206121,128,0,206218:0:0:0:0:
448,192,206121,128,2,206315:0:0:0:0:
192,192,206218,128,0,206412:0:0:0:0:
320,192,206315,128,0,206509:0:0:0:0:
64,192,206412,1,0,0:0:0:0:
448,192,206412,128,0,206606:0:0:0:0:
192,192,206509,1,0,0:0:0:0:
320,192,206606,1,0,0:0:0:0:
64,192,206704,128,0,206898:0:0:0:0:
448,192,206704,128,0,206898:0:0:0:0:
192,192,206704,128,8,206801:0:0:0:0:
320,192,206801,128,0,206995:0:0:0:0:
192,192,206898,128,0,207092:0:0:0:0:
64,192,206995,128,0,207189:0:0:0:0:
448,192,206995,1,0,0:0:0:0:
320,192,207092,1,0,0:0:0:0:
192,192,207189,1,0,0:0:0:0:
64,192,207286,1,0,0:0:0:0:
320,192,207286,128,0,207577:0:0:0:0:
448,192,207286,128,2,207383:0:0:0:0:
192,192,207480,128,0,207869:0:0:0:0:
448,192,207480,1,0,0:0:0:0:
64,192,207480,128,0,207577:0:0:0:0:
64,192,207674,1,0,0:0:0:0:
320,192,207674,128,0,207966:0:0:0:0:
448,192,207674,128,0,207772:0:0:0:0:
64,192,207869,128,0,208063:0:0:0:0:
448,192,207869,128,8,208063:0:0:0:0:
192,192,207966,1,0,0:0:0:0:
320,192,208063,1,0,0:0:0:0:
448,192,208160,1,0,0:0:0:0:
64,192,208160,1,0,0:0:0:0:
192,192,208354,1,0,0:0:0:0:
64,192,208451,128,0,208742:0:0:0:0:
320,192,208451,128,0,208548:0:0:0:0:
448,192,208451,128,2,208742:0:0:0:0:
192,192,208645,1,0,0:0:0:0:
320,192,208645,128,0,208937:0:0:0:0:
64,192,208839,1,0,0:0:0:0:
192,192,208839,128,0,209131:0:0:0:0:
64,192,209034,128,0,209131:0:0:0:0:
448,192,209034,128,2,209422:0:0:0:0:
320,192,209034,128,8,209325:0:0:0:0:
192,192,209228,1,0,0:0:0:0:
64,192,209228,128,0,209519:0:0:0:0:
320,192,209422,1,0,0:0:0:0:
192,192,209422,128,0,209810:0:0:0:0:
448,192,209616,128,2,210102:0:0:0:0:
64,192,209616,128,0,210199:0:0:0:0:
320,192,209616,128,0,209810:0:0:0:0:
320,192,209907,128,0,210102:0:0:0:0:
192,192,209907,1,0,0:0:0:0:
320,192,210199,1,0,0:0:0:0:
448,192,210199,128,2,210393:0:0:0:0:
192,192,210199,128,8,210393:0:0:0:0:
448,192,210490,128,0,210684:0:0:0:0:
64,192,210490,128,2,210684:0:0:0:0:
320,192,210490,1,8,0:0:0:0:
192,192,210781,128,0,210878:0:0:0:0:
448,192,210781,128,2,210975:0:0:0:0:
64,192,210781,128,4,210975:0:0:0:0:
320,192,210878,128,0,211072:0:0:0:0:
192,192,210975,128,0,211170:0:0:0:0:
64,192,211072,1,0,0:0:0:0:
448,192,211072,128,0,211267:0:0:0:0:
320,192,211170,1,0,0:0:0:0:
192,192,211267,1,0,0:0:0:0:
448,192,211364,128,0,211558:0:0:0:0:
320,192,211364,128,0,211461:0:0:0:0:
64,192,211364,128,8,211558:0:0:0:0:
192,192,211461,128,0,211655:0:0:0:0:
320,192,211558,128,0,211752:0:0:0:0:
64,192,211655,128,0,211849:0:0:0:0:
448,192,211655,1,0,0:0:0:0:
192,192,211752,1,0,0:0:0:0:
320,192,211849,1,0,0:0:0:0:
448,192,211946,1,0,0:0:0:0:
192,192,211946,128,0,212238:0:0:0:0:
64,192,211946,128,2,212043:0:0:0:0:
64,192,212140,1,0,0:0:0:0:
448,192,212140,128,0,212432:0:0:0:0:
320,192,212140,128,0,212238:0:0:0:0:
64,192,212335,128,0,212432:0:0:0:0:
192,192,212335,128,0,212626:0:0:0:0:
320,192,212335,128,0,212529:0:0:0:0:
64,192,212529,128,0,212723:0:0:0:0:
448,192,212529,128,8,212723:0:0:0:0:
320,192,212626,1,0,0:0:0:0:
192,192,212723,1,0,0:0:0:0:
448,192,212820,1,0,0:0:0:0:
64,192,212820,1,0,0:0:0:0:
320,192,213014,1,0,0:0:0:0:
192,192,213111,1,0,0:0:0:0:
64,192,213111,1,2,0:0:0:0:
192,192,213306,1,0,0:0:0:0:
64,192,213403,128,0,213500:0:0:0:0:
448,192,213403,128,0,213597:0:0:0:0:
320,192,213500,128,0,213597:0:0:0:0:
192,192,213597,1,0,0:0:0:0:
448,192,213694,128,0,213888:0:0:0:0:
320,192,213694,128,0,213791:0:0:0:0:
64,192,213694,128,8,213888:0:0:0:0:
192,192,213791,128,0,213985:0:0:0:0:
320,192,213888,128,0,214082:0:0:0:0:
64,192,213985,128,0,214179:0:0:0:0:
448,192,213985,1,0,0:0:0:0:
192,192,214082,1,0,0:0:0:0:
320,192,214179,1,0,0:0:0:0:
64,192,214276,1,0,0:0:0:0:
448,192,214276,128,0,214373:0:0:0:0:
192,192,214276,128,2,214568:0:0:0:0:
448,192,214471,128,0,214762:0:0:0:0:
64,192,214471,128,0,214568:0:0:0:0:
320,192,214471,1,0,0:0:0:0:
320,192,214665,128,0,214956:0:0:0:0:
64,192,214665,1,0,0:0:0:0:
192,192,214665,128,0,214762:0:0:0:0:
448,192,214859,1,0,0:0:0:0:
64,192,214859,128,0,215344:0:0:0:0:
192,192,214859,128,8,215150:0:0:0:0:
448,192,215053,1,0,0:0:0:0:
320,192,215053,1,0,0:0:0:0:
448,192,215247,1,0,0:0:0:0:
192,192,215247,1,0,0:0:0:0:
448,192,215441,128,0,215636:0:0:0:0:
64,192,215441,128,0,215636:0:0:0:0:
192,192,215441,128,2,215539:0:0:0:0:
320,192,215539,128,0,215733:0:0:0:0:
192,192,215636,128,0,215830:0:0:0:0:
64,192,215733,1,0,0:0:0:0:
448,192,215733,128,0,215927:0:0:0:0:
320,192,215830,1,0,0:0:0:0:
192,192,215927,1,0,0:0:0:0:
448,192,216024,128,0,216218:0:0:0:0:
320,192,216024,128,0,216121:0:0:0:0:
64,192,216024,128,8,216218:0:0:0:0:
192,192,216121,128,0,216315:0:0:0:0:
320,192,216218,128,0,216412:0:0:0:0:
64,192,216315,128,0,216509:0:0:0:0:
448,192,216315,1,0,0:0:0:0:
192,192,216412,1,0,0:0:0:0:
320,192,216509,1,0,0:0:0:0:
192,192,216606,128,0,216898:0:0:0:0:
448,192,216606,128,0,216704:0:0:0:0:
64,192,216606,1,2,0:0:0:0:
448,192,216801,1,0,0:0:0:0:
320,192,216801,128,0,217189:0:0:0:0:
64,192,216801,128,0,216898:0:0:0:0:
64,192,216995,1,0,0:0:0:0:
192,192,216995,128,0,217286:0:0:0:0:
448,192,216995,128,0,217092:0:0:0:0:
64,192,217189,128,0,217383:0:0:0:0:
448,192,217189,128,8,217383:0:0:0:0:
320,192,217286,1,0,0:0:0:0:
192,192,217383,1,0,0:0:0:0:
448,192,217480,1,0,0:0:0:0:
64,192,217480,1,0,0:0:0:0:
320,192,217674,1,0,0:0:0:0:
64,192,217772,128,0,218063:0:0:0:0:
192,192,217772,128,0,217869:0:0:0:0:
448,192,217772,128,2,218063:0:0:0:0:
320,192,217966,1,0,0:0:0:0:
192,192,217966,128,0,218257:0:0:0:0:
64,192,218160,1,0,0:0:0:0:
320,192,218160,128,0,218451:0:0:0:0:
448,192,218354,128,0,218742:0:0:0:0:
192,192,218354,128,2,218645:0:0:0:0:
64,192,218354,128,8,218451:0:0:0:0:
320,192,218548,1,0,0:0:0:0:
64,192,218548,128,0,218839:0:0:0:0:
192,192,218742,1,0,0:0:0:0:
320,192,218742,128,0,219422:0:0:0:0:
192,192,218937,128,0,219422:0:0:0:0:
448,192,218937,128,0,219422:0:0:0:0:
64,192,218937,128,2,219422:0:0:0:0:
448,192,219519,128,0,220393:0:0:0:0:
64,192,220102,128,0,220393:0:0:0:0:
