osu file format v14

[General]
AudioFilename: audio.mp3
AudioLeadIn: 0
PreviewTime: 20538
Countdown: 0
SampleSet: Normal
StackLeniency: 0.7
Mode: 1
LetterboxInBreaks: 0
WidescreenStoryboard: 0

[Editor]
Bookmarks: 21966,43539,86685,116348,137921,159494,186460,226909,270055,291628
DistanceSpacing: 0.8
BeatDivisor: 4
GridSize: 32
TimelineZoom: 2.1

[Metadata]
Title:Raika (DJ Shimamura Remix)
TitleUnicode:雷火 (DJ Shimamura Remix)
Artist:Nanawo Akari
ArtistUnicode:ナナヲアカリ
Creator:ICECAKE
Version:Inner Oni
Source:平穏世代の韋駄天達
Tags:heion sedai no idaten tachi TAKU INOUE てにをは tenioha Kou Like a 雷火 Japanese electronic J-pop J pop hard core happy hardcore anime 井上拓 jpop ナナヲアカリ「雷火」REMIXコンテスト remix contest jcore j-core
BeatmapID:4072979
BeatmapSetID:1964344

[Difficulty]
HPDrainRate:5
CircleSize:4
OverallDifficulty:6.5
ApproachRate:5
SliderMultiplier:1.4
SliderTickRate:1

[Events]
//Background and Video events
0,0,"nanaow.jpg",0,105
//Break Periods
2,192053,199417
//Storyboard Layer 0 (Background)
//Storyboard Layer 1 (Fail)
//Storyboard Layer 2 (Pass)
//Storyboard Layer 3 (Foreground)
//Storyboard Layer 4 (Overlay)
//Storyboard Sound Samples

[TimingPoints]
393,337.078651685393,4,1,0,70,1,0
393,-111.111111111111,4,1,0,70,0,0
10504,-108.699158145986,4,1,0,72,0,0
10588,-107.53374389738,4,1,0,73,0,0
10672,-106.379620568831,4,1,0,74,0,0
10757,-105.263157894737,4,1,0,75,0,0
10841,-104.16988655683,4,1,0,76,0,0
10925,-103.099091381895,4,1,0,77,0,0
11009,-102.037726708451,4,1,0,78,0,0
11094,-101.010101010101,4,1,0,79,0,0
11178,-100,4,1,0,80,0,0
16740,-98.762267467409,4,1,0,80,0,0
16824,-98.158392779153,4,1,0,80,0,0
16908,-97.561857907683,4,1,0,80,0,0
17077,-96.383389321707,4,1,0,80,0,0
17245,-95.239776820397,4,1,0,80,0,0
17330,-94.671440606571,4,1,0,80,0,0
17414,-94.116415410385,4,1,0,80,0,0
17582,-93.025662251656,4,1,0,80,0,0
17751,-91.953631094443,4,1,0,80,0,0
17919,-90.912155329333,4,1,0,80,0,0
18088,-89.888014931342,4,1,0,80,0,0
18172,-89.387511600159,4,1,0,80,0,0
18257,-88.886691714455,4,1,0,80,0,0
18425,-87.913162526892,4,1,0,80,0,0
18594,-86.955119938096,4,1,0,80,0,0
18678,-86.486659825552,4,1,0,80,0,0
18762,-86.023220209237,4,1,0,80,0,0
18931,-85.10571158094,4,1,0,80,0,0
19268,-80,4,1,0,15,0,0
20533,-80,4,1,0,70,0,0
20616,-76.9230769230769,4,1,0,70,0,0
20953,-80,4,1,0,70,0,0
21290,-83.3333333333333,4,1,0,70,0,0
21627,-86.9565217391304,4,1,0,70,0,0
21966,-90.9090909090909,4,1,0,100,0,1
42526,-95.2380952380952,4,1,0,100,0,1
42863,-100,4,1,0,100,0,1
43200,-105.263157894737,4,1,0,100,0,1
43539,-111.111111111111,4,1,0,70,0,0
52976,-108.695652173913,4,1,0,70,0,0
53144,-107.52688172043,4,1,0,70,0,0
53313,-106.382978723404,4,1,0,70,0,0
53481,-105.263157894737,4,1,0,70,0,0
53650,-104.166666666667,4,1,0,70,0,0
53818,-103.092783505155,4,1,0,70,0,0
53987,-100,4,1,0,70,0,0
54324,-90.9090909090909,4,1,0,70,0,0
54661,-103.092783505155,4,1,0,70,0,0
54830,-104.166666666667,4,1,0,70,0,0
54998,-105.263157894737,4,1,0,70,0,0
63762,-104.166666666667,4,1,0,70,0,0
63931,-103.092783505155,4,1,0,70,0,0
64099,-102.040816326531,4,1,0,70,0,0
64268,-101.010101010101,4,1,0,70,0,0
64436,-100,4,1,0,72,0,0
64521,-100,4,1,0,73,0,0
64605,-100,4,1,0,74,0,0
64689,-100,4,1,0,75,0,0
64774,-100,4,1,0,76,0,0
64858,-100,4,1,0,77,0,0
64942,-100,4,1,0,78,0,0
65026,-100,4,1,0,79,0,0
65111,-100,4,1,0,80,0,0
75391,-98.0392156862745,4,1,0,80,0,0
75476,-97.0873786407767,4,1,0,80,0,0
75560,-96.1538461538461,4,1,0,80,0,0
75644,-95.2380952380952,4,1,0,80,0,0
75729,-94.3396226415094,4,1,0,80,0,0
75897,-93.4579439252336,4,1,0,70,0,0
75981,-92.5925925925926,4,1,0,70,0,0
76066,-90.9090909090909,4,1,0,70,0,0
79942,-96.1538461538461,4,1,0,70,0,0
80279,-97.0873786407767,4,1,0,70,0,0
80616,-98.0392156862745,4,1,0,70,0,0
80953,-99.009900990099,4,1,0,70,0,0
81290,-100,4,1,0,70,0,0
81459,-99.007356720166,4,1,0,70,0,0
81627,-98.039928460297,4,1,0,70,0,0
81796,-97.085631182594,4,1,0,70,0,0
81965,-96.149732620321,4,1,0,70,0,0
82133,-95.237086317217,4,1,0,70,0,0
82302,-94.336322807214,4,1,0,70,0,0
82470,-93.457620070691,4,1,0,70,0,0
82639,-92.590049573612,4,1,0,70,0,0
82807,-91.743431347203,4,1,0,70,0,0
82976,-90.907252356106,4,1,0,70,0,0
83144,-90.090992904959,4,1,0,70,0,0
83313,-89.284531959691,4,1,0,70,0,0
83481,-88.497027129901,4,1,0,70,0,0
83650,-87.718727639368,4,1,0,70,0,0
83818,-86.95848433651,4,1,0,70,0,0
83987,-86.206896551724,4,1,0,70,0,0
85335,-86.206896551724,4,1,0,40,0,0
85672,-80,4,1,0,50,0,0
86009,-86.9565217391304,4,1,0,60,0,0
86347,-95.2380952380952,4,1,0,70,0,0
86684,-105.263157894737,4,1,0,80,0,0
96122,-125,4,1,0,80,0,0
96459,-117.64705882353,4,1,0,80,0,0
96796,-111.111111111111,4,1,0,80,0,0
97133,-105.263157894737,4,1,0,80,0,0
97470,-100,4,1,0,80,0,0
108257,-100,4,1,0,80,0,0
108762,-103.221690590112,4,1,0,80,0,0
109268,-106.664908695366,4,1,0,80,0,0
109436,-107.859476034931,4,1,0,80,0,0
109774,-110.345768260247,4,1,0,80,0,0
110279,-114.281678203136,4,1,0,80,0,0
110616,-117.068229505824,4,1,0,80,0,0
110785,-118.5174333431,4,1,0,80,0,0
110953,-119.994067042421,4,1,0,80,0,0
111459,-124.672522730775,4,1,0,80,0,0
111965,-129.730596536241,4,1,0,80,0,0
112302,-117.647058823529,4,1,0,5,0,0
113650,-71.4285714285714,4,1,0,5,0,0
114998,-55.5555555555556,4,1,0,5,0,0
116348,337.078651685393,4,1,0,70,1,0
116348,-111.111111111111,4,1,0,70,0,0
126122,-108.695652173913,4,1,0,70,0,0
126459,-106.382978723404,4,1,0,70,0,0
126796,-104.166666666667,4,1,0,70,0,0
126965,-102.040816326531,4,1,0,70,0,0
127133,-100,4,1,0,80,0,0
132526,-100,4,1,0,80,0,0
132695,-99.17132489948,4,1,0,80,0,0
132779,-98.764527785917,4,1,0,80,0,0
132863,-98.361054372143,4,1,0,80,0,0
133032,-97.559210843664,4,1,0,80,0,0
133200,-96.774965309345,4,1,0,80,0,0
133369,-95.998670970192,4,1,0,80,0,0
133453,-95.61743570348,4,1,0,80,0,0
133538,-95.234731835947,4,1,0,80,0,0
133706,-94.487269329596,4,1,0,80,0,0
133875,-93.747102994345,4,1,0,80,0,0
134043,-93.022721000828,4,1,0,80,0,0
134127,-92.664711811601,4,1,0,80,0,0
134212,-92.305234813564,4,1,0,80,0,0
134380,-91.602880565243,4,1,0,80,0,0
134549,-90.907047824524,4,1,0,80,0,0
134717,-90.225731620271,4,1,0,80,0,0
134802,-89.884894004711,4,1,0,80,0,0
134886,-89.55058667257,4,1,0,80,0,0
135054,-88.889377224981,4,1,0,80,0,0
135223,-88.234010993805,4,1,0,80,0,0
135307,-87.911849082848,4,1,0,80,0,0
135391,-87.59203118233,4,1,0,80,0,0
135476,-87.270765911543,4,1,0,80,0,0
135560,-86.955587084569,4,1,0,80,0,0
135644,-86.642676605406,4,1,0,80,0,0
135729,-86.3283250811,4,1,0,80,0,0
135813,-86.0199047295,4,1,0,80,0,0
135897,-85.713680284794,4,1,0,80,0,0
135981,-85.409628378378,4,1,0,80,0,0
136066,-85.104144750684,4,1,0,80,0,0
136150,-84.804394314227,4,1,0,80,0,0
136234,-84.506748004847,4,1,0,80,0,0
136318,-84.211183744847,4,1,0,80,0,0
136403,-83.914197991868,4,1,0,80,0,0
136487,-83.62275696684,4,1,0,80,0,0
136571,-83.333333333333,4,1,0,80,0,0
136908,-76.9230769230769,4,1,0,80,0,0
137077,-80,4,1,0,80,0,0
137245,-83.3333333333333,4,1,0,80,0,0
137583,-86.9565217391304,4,1,0,80,0,0
137921,-90.9090909090909,4,1,0,100,0,1
158313,-91.743119266055,4,1,0,100,0,1
158397,-92.5925925925926,4,1,0,100,0,1
158481,-93.4579439252336,4,1,0,100,0,1
158650,-95.2380952380952,4,1,0,100,0,1
158818,-97.0873786407767,4,1,0,100,0,1
158987,-99.009900990099,4,1,0,100,0,1
159071,-100,4,1,0,100,0,1
159156,-101.010101010101,4,1,0,100,0,1
159494,-105.263157894737,4,1,0,70,0,0
160841,-106.382978723404,4,1,0,65,0,0
162189,-107.52688172043,4,1,0,60,0,0
163200,-108.695652173913,4,1,0,55,0,0
163538,-111.111111111111,4,1,0,50,0,0
163875,-109.89010989011,4,1,0,50,0,0
164380,-108.695652173913,4,1,0,50,0,0
165054,-107.52688172043,4,1,0,50,0,0
165560,-97.0873786407767,4,1,0,50,0,0
165729,-99.009900990099,4,1,0,50,0,0
165897,-101.010101010101,4,1,0,50,0,0
166066,-103.092783505155,4,1,0,50,0,0
166234,-105.263157894737,4,1,0,70,0,0
174324,-111.111111111111,4,1,0,70,0,0
174661,-108.108108108108,4,1,0,70,0,0
174830,-106.66244658965,4,1,0,70,0,0
174998,-105.263157894737,4,1,0,70,0,0
175083,-104.569079202544,4,1,0,70,0,0
175167,-103.892100192678,4,1,0,70,0,0
175251,-103.223830308599,4,1,0,70,0,0
175335,-102.564102564103,4,1,0,70,0,0
175420,-101.905049894164,4,1,0,70,0,0
175504,-101.262019230769,4,1,0,70,0,0
175588,-100.627052851597,4,1,0,70,0,0
175672,-100,4,1,0,80,0,0
186459,-90.9090909090909,4,1,0,80,0,0
186627,-93.4579439252336,4,1,0,80,0,0
186796,-96.1538461538461,4,1,0,80,0,0
186965,-99.009900990099,4,1,0,80,0,0
187133,-86.9565217391304,4,1,0,80,0,0
187302,-89.2857142857143,4,1,0,80,0,0
187470,-91.743119266055,4,1,0,80,0,0
187639,-94.3396226415094,4,1,0,80,0,0
187807,-83.3333333333333,4,1,0,80,0,0
187976,-85.4700854700855,4,1,0,80,0,0
188144,-87.719298245614,4,1,0,80,0,0
188313,-90.0900900900901,4,1,0,80,0,0
188481,-80,4,1,0,80,0,0
188650,-81.9672131147541,4,1,0,80,0,0
188818,-84.0336134453781,4,1,0,80,0,0
188987,-86.2068965517241,4,1,0,80,0,0
189156,-86.95652173913,4,1,0,80,0,0
189324,-86.209101839298,4,1,0,80,0,0
189493,-85.470085470085,4,1,0,80,0,0
189661,-84.747893876525,4,1,0,80,0,0
189830,-84.033613445378,4,1,0,80,0,0
189998,-83.335394050298,4,1,0,80,0,0
190167,-82.644628099174,4,1,0,80,0,0
190335,-81.969206820227,4,1,0,80,0,0
190504,-81.30081300813,4,1,0,80,0,0
190588,-81.965219506263,4,1,0,80,0,0
190672,-82.64057480566,4,1,0,80,0,0
190757,-83.335394050298,4,1,0,80,0,0
190841,-84.033613445378,4,1,0,80,0,0
190925,-84.743631654387,4,1,0,80,0,0
191009,-85.465750297989,4,1,0,80,0,0
191094,-86.209101839298,4,1,0,80,0,0
191178,-86.95652173913,4,1,0,80,0,0
191262,-87.717015018611,4,1,0,80,0,0
191347,-88.500223220148,4,1,0,80,0,0
191431,-89.288079908857,4,1,0,80,0,0
191515,-90.09009009009,4,1,0,80,0,0
191599,-90.906638612392,4,1,0,80,0,0
191684,-91.748114671531,4,1,0,80,0,0
191768,-92.595136694601,4,1,0,80,0,0
191852,-93.457943925234,4,1,0,80,0,0
191936,-142.857142857143,4,1,0,50,0,0
200616,-142.857142857143,4,1,0,60,0,0
201290,-133.333333333333,4,1,0,60,0,0
201965,-125,4,1,0,60,0,0
202639,-117.647058823529,4,1,0,60,0,0
212414,-116.279069767442,4,1,0,60,0,0
212583,-114.942528735632,4,1,0,60,0,0
212751,-113.636363636364,4,1,0,60,0,0
213088,-112.359550561798,4,1,0,60,0,0
213425,-111.111111111111,4,1,0,70,0,0
213762,-109.965951026566,4,1,0,70,0,0
213931,-109.40051317938,4,1,0,70,0,0
214099,-108.844155188941,4,1,0,70,0,0
214268,-108.290165843473,4,1,0,70,0,0
214436,-107.745015781693,4,1,0,70,0,0
214774,-106.66468901414,4,1,0,70,0,0
214942,-106.13574197611,4,1,0,70,0,0
215111,-105.608913169051,4,1,0,70,0,0
215279,-105.090359978567,4,1,0,70,0,0
215448,-104.573832790445,4,1,0,70,0,0
215616,-104.065370070232,4,1,0,70,0,0
215785,-103.558845271354,4,1,0,70,0,0
216122,-102.563371175386,4,1,0,70,0,0
216290,-102.074225477394,4,1,0,70,0,0
216459,-101.586853133682,4,1,0,70,0,0
216627,-101.106955731144,4,1,0,70,0,0
216796,-100.628754804284,4,1,0,70,0,0
216965,-100.155056033722,4,1,0,70,0,0
217133,-99.688559889841,4,1,0,70,0,0
217302,-99.223651047703,4,1,0,70,0,0
217639,-98.309409888357,4,1,0,70,0,0
217807,-97.859909824093,4,1,0,70,0,0
217976,-97.411862447623,4,1,0,70,0,0
218144,-96.970514203524,4,1,0,70,0,0
218481,-96.097139446419,4,1,0,70,0,0
218650,-95.665052590504,4,1,0,70,0,0
218818,-95.239356536173,4,1,0,80,0,0
218987,-94.814932011356,4,1,0,80,0,0
219156,-94.394273513249,4,1,0,80,0,0
219324,-93.979787419411,4,1,0,80,0,0
219493,-93.566490584368,4,1,0,80,0,0
219661,-93.159226537468,4,1,0,80,0,0
219830,-92.753099795353,4,1,0,80,0,0
219998,-92.352870670023,4,1,0,80,0,0
220167,-91.953729040398,4,1,0,80,0,0
220335,-91.560354120513,4,1,0,80,0,0
220504,-91.168018931711,4,1,0,80,0,0
220672,-90.781323638322,4,1,0,80,0,0
220841,-90.39562226077,4,1,0,80,0,0
221009,-90.015437893771,4,1,0,80,0,0
221178,-89.636203486729,4,1,0,80,0,0
221347,-89.260151097651,4,1,0,80,0,0
221515,-88.889438250393,4,1,0,80,0,0
221599,-88.70523415978,4,1,0,80,0,0
221684,-88.519612670277,4,1,0,80,0,0
221768,-88.336936582809,4,1,0,80,0,0
221852,-88.155012912294,4,1,0,80,0,0
221936,-87.973837019639,4,1,0,80,0,0
222021,-87.791260753148,4,1,0,80,0,0
222105,-87.611575416453,4,1,0,80,0,0
222189,-87.432624113475,4,1,0,80,0,0
222274,-87.252285044083,4,1,0,80,0,0
222358,-87.074796984227,4,1,0,80,0,0
222442,-86.898029548713,4,1,0,80,0,0
222526,-86.721978357693,4,1,0,80,0,0
222611,-86.544555964731,4,1,0,80,0,0
222695,-86.369932662359,4,1,0,80,0,0
222779,-86.196012625355,4,1,0,80,0,0
222863,-86.022791613834,4,1,0,80,0,0
222948,-85.848215706873,4,1,0,80,0,0
223032,-85.676388359385,4,1,0,80,0,0
223116,-85.505247471385,4,1,0,80,0,0
223200,-85.334788937409,4,1,0,80,0,0
223285,-85.162991560282,4,1,0,80,0,0
223369,-84.993893550802,4,1,0,80,0,0
223453,-84.825465726171,4,1,0,80,0,0
223538,-84.655710944735,4,1,0,80,0,0
223622,-84.488619452669,4,1,0,80,0,0
223706,-84.322186263934,4,1,0,80,0,0
223790,-84.156407495826,4,1,0,80,0,0
223875,-83.989317387276,4,1,0,80,0,0
223959,-83.824843610366,4,1,0,80,0,0
224043,-83.661012742657,4,1,0,80,0,0
224127,-83.497821021914,4,1,0,80,0,0
224212,-83.333333333333,4,1,0,80,0,0
224380,-82.6446280991736,4,1,0,80,0,0
225560,-100,4,1,0,80,0,0
225897,-74.0740740740741,4,1,0,90,0,0
226234,-80,4,1,0,90,0,0
226571,-86.9565217391304,4,1,0,90,0,0
226909,337.078651685393,4,1,0,100,1,1
226909,-90.9090909090909,4,1,0,100,0,1
236347,-90.9090909090909,4,1,0,100,0,0
237695,-90.9090909090909,4,1,0,100,0,1
247133,-90.9090909090909,4,1,0,100,0,0
248482,-90.9090909090909,4,1,0,100,0,1
258930,-92.5925925925926,4,1,0,100,0,1
259099,-94.3396226415094,4,1,0,100,0,1
259183,-95.2380952380952,4,1,0,100,0,1
259268,-96.1538461538461,4,1,0,100,0,0
264323,-97.0873786407767,4,1,0,100,0,0
264492,-98.0392156862745,4,1,0,100,0,0
264576,-99.009900990099,4,1,0,100,0,0
264660,-100,4,1,0,100,0,0
264829,-99.17132489948,4,1,0,100,0,0
264997,-98.361054372143,4,1,0,100,0,0
265166,-97.559210843664,4,1,0,100,0,0
265334,-96.774965309345,4,1,0,100,0,0
265503,-95.998670970192,4,1,0,100,0,0
265672,-95.239216424939,4,1,0,100,0,0
265840,-94.487269329596,4,1,0,100,0,0
266009,-93.751448569972,4,1,0,100,0,0
266177,-93.022721000828,4,1,0,100,0,0
266346,-92.305234813564,4,1,0,100,0,0
266514,-91.602880565243,4,1,0,100,0,0
266683,-90.907047824524,4,1,0,100,0,0
266851,-90.225731620271,4,1,0,100,0,0
267020,-89.55058667257,4,1,0,100,0,0
267188,-88.889377224981,4,1,0,100,0,0
267357,-88.234010993805,4,1,0,100,0,0
267441,-87.911849082848,4,1,0,100,0,0
267525,-87.59203118233,4,1,0,100,0,0
267610,-87.270765911543,4,1,0,100,0,0
267694,-86.955587084569,4,1,0,100,0,0
267778,-86.642676605406,4,1,0,100,0,0
267863,-86.332010073846,4,1,0,100,0,0
267947,-86.0199047295,4,1,0,100,0,0
268031,-85.713680284794,4,1,0,100,0,0
268115,-85.409628378378,4,1,0,100,0,0
268200,-85.107725972059,4,1,0,100,0,0
268284,-84.804394314227,4,1,0,100,0,0
268368,-84.506748004847,4,1,0,100,0,0
268452,-84.211183744847,4,1,0,100,0,0
268537,-83.914197991868,4,1,0,100,0,0
268621,-83.62275696684,4,1,0,100,0,0
268705,-83.333333333333,4,1,0,80,0,0
269042,-76.9230769230769,4,1,0,80,0,0
269211,-80,4,1,0,80,0,0
269379,-83.3333333333333,4,1,0,80,0,0
269716,-86.9565217391304,4,1,0,80,0,0
270055,-90.9090909090909,4,1,0,100,0,1
290615,-93.4579439252336,4,1,0,100,0,1
290952,-96.1538461538461,4,1,0,100,0,1
291290,-99.009900990099,4,1,0,100,0,1
291628,-105.263157894737,4,1,0,60,0,0
301402,-107.52688172043,4,1,0,60,0,0
301739,-108.695652173913,4,1,0,60,0,0
302076,-109.89010989011,4,1,0,60,0,0
302413,-111.111111111111,4,1,0,50,0,0
302750,-112.411852572342,4,1,0,49,0,0
303087,-113.743409490334,4,1,0,48,0,0
303424,-115.106890050866,4,1,0,48,0,0
303761,-116.503456221198,4,1,0,47,0,0
304099,-117.938625264232,4,1,0,46,0,0
304436,-119.405188000443,4,1,0,45,0,0
304773,-120.908683305933,4,1,0,44,0,0
305110,-122.450524085216,4,1,0,43,0,0
305447,-124.032196243772,4,1,0,42,0,0
305784,-125.655263464451,4,1,0,42,0,0
306121,-127.321372363865,4,1,0,41,0,0
306458,-129.032258064516,4,1,0,40,0,0
306795,-130.789750222294,4,1,0,39,0,0
307132,-132.59577955337,4,1,0,38,0,0
307469,-134.452384909423,4,1,0,38,0,0
307638,-135.403154943721,4,1,0,37,0,0
307806,-136.361720955712,4,1,0,37,0,0
308143,-138.326066512781,4,1,0,36,0,0
308481,-140.353920888272,4,1,0,35,0,0
308818,-142.43584664818,4,1,0,34,0,0
309155,-144.580466446251,4,1,0,33,0,0
309492,-146.790655477432,4,1,0,32,0,0
309829,-149.069467477428,4,1,0,32,0,0
310166,-151.420148799775,4,1,0,31,0,0
310503,-153.846153846154,4,1,0,30,0,0

[HitObjects]
256,192,393,5,4,0:0:0:0:
256,192,730,1,2,0:0:0:0:
256,192,1067,1,0,0:0:0:0:
256,192,1235,1,0,0:0:0:0:
256,192,1404,1,2,0:0:0:0:
256,192,1741,1,0,0:0:0:0:
256,192,2078,1,2,0:0:0:0:
256,192,2415,1,0,0:0:0:0:
256,192,2584,1,0,0:0:0:0:
256,192,2752,1,2,0:0:0:0:
256,192,3089,1,0,0:0:0:0:
256,192,3426,1,2,0:0:0:0:
256,192,3763,1,0,0:0:0:0:
256,192,3932,1,0,0:0:0:0:
256,192,4100,1,2,0:0:0:0:
256,192,4437,1,0,0:0:0:0:
256,192,4775,1,2,0:0:0:0:
256,192,5112,1,0,0:0:0:0:
256,192,5280,1,0,0:0:0:0:
256,192,5449,1,2,0:0:0:0:
256,192,5786,1,4,0:0:0:0:
256,192,6123,1,2,0:0:0:0:
256,192,6460,1,0,0:0:0:0:
256,192,6628,1,0,0:0:0:0:
256,192,6797,1,2,0:0:0:0:
256,192,7134,1,0,0:0:0:0:
256,192,7471,1,2,0:0:0:0:
256,192,7808,1,0,0:0:0:0:
256,192,7977,1,0,0:0:0:0:
256,192,8145,1,2,0:0:0:0:
256,192,8482,1,0,0:0:0:0:
256,192,8819,1,2,0:0:0:0:
256,192,9157,1,0,0:0:0:0:
256,192,9325,1,0,0:0:0:0:
256,192,9494,1,2,0:0:0:0:
256,192,10505,1,2,0:0:0:0:
256,192,10589,1,2,0:0:0:0:
256,192,10673,1,2,0:0:0:0:
256,192,10758,1,2,0:0:0:0:
256,192,10842,1,0,0:0:0:0:
256,192,10926,1,0,0:0:0:0:
256,192,11010,1,0,0:0:0:0:
256,192,11095,1,0,0:0:0:0:
256,192,11179,1,6,0:0:0:0:
256,192,11516,1,2,0:0:0:0:
256,192,11685,1,0,0:0:0:0:
256,192,11853,1,0,0:0:0:0:
256,192,12022,1,2,0:0:0:0:
256,192,12190,1,0,0:0:0:0:
256,192,12359,1,0,0:0:0:0:
256,192,12527,1,2,0:0:0:0:
256,192,12696,1,0,0:0:0:0:
256,192,12864,1,2,0:0:0:0:
256,192,13033,1,0,0:0:0:0:
256,192,13201,1,0,0:0:0:0:
256,192,13370,1,2,0:0:0:0:
256,192,13539,1,0,0:0:0:0:
256,192,13707,1,0,0:0:0:0:
256,192,13876,1,2,0:0:0:0:
256,192,14044,1,0,0:0:0:0:
256,192,14213,1,2,0:0:0:0:
256,192,14381,1,0,0:0:0:0:
256,192,14550,1,0,0:0:0:0:
256,192,14718,1,2,0:0:0:0:
256,192,14887,1,0,0:0:0:0:
256,192,15055,1,0,0:0:0:0:
256,192,15224,1,2,0:0:0:0:
256,192,15392,1,2,0:0:0:0:
256,192,15477,1,2,0:0:0:0:
256,192,15561,1,0,0:0:0:0:
256,192,15645,1,2,0:0:0:0:
256,192,15730,1,2,0:0:0:0:
256,192,15898,1,0,0:0:0:0:
256,192,15982,1,2,0:0:0:0:
256,192,16067,1,0,0:0:0:0:
256,192,16151,1,2,0:0:0:0:
256,192,16235,1,2,0:0:0:0:
256,192,16404,1,2,0:0:0:0:
256,192,16488,1,2,0:0:0:0:
256,192,16572,1,4,0:0:0:0:
256,192,16741,1,0,0:0:0:0:
256,192,16825,1,0,0:0:0:0:
256,192,16909,1,2,0:0:0:0:
256,192,17078,1,2,0:0:0:0:
256,192,17246,1,0,0:0:0:0:
256,192,17331,1,2,0:0:0:0:
256,192,17415,1,2,0:0:0:0:
256,192,17583,1,2,0:0:0:0:
256,192,17752,1,0,0:0:0:0:
256,192,17920,1,2,0:0:0:0:
256,192,18089,1,0,0:0:0:0:
256,192,18173,1,2,0:0:0:0:
256,192,18258,1,0,0:0:0:0:
256,192,18426,1,0,0:0:0:0:
256,192,18595,1,2,0:0:0:0:
256,192,18679,1,0,0:0:0:0:
256,192,18763,1,2,0:0:0:0:
256,192,18932,1,2,0:0:0:0:
256,192,19269,1,0,0:0:0:0:
256,192,20617,1,2,0:0:0:0:
256,192,20954,1,0,0:0:0:0:
256,192,21291,1,2,0:0:0:0:
256,192,21628,1,0,0:0:0:0:
256,192,21966,5,4,0:0:0:0:
256,192,22134,1,0,0:0:0:0:
256,192,22218,1,0,0:0:0:0:
256,192,22303,1,2,0:0:0:0:
256,192,22387,1,0,0:0:0:0:
256,192,22471,1,2,0:0:0:0:
256,192,22555,1,2,0:0:0:0:
256,192,22640,1,0,0:0:0:0:
256,192,22808,1,0,0:0:0:0:
256,192,22892,1,2,0:0:0:0:
256,192,22977,1,0,0:0:0:0:
256,192,23145,1,0,0:0:0:0:
256,192,23230,1,0,0:0:0:0:
256,192,23314,1,2,0:0:0:0:
256,192,23398,1,0,0:0:0:0:
256,192,23482,1,2,0:0:0:0:
256,192,23567,1,2,0:0:0:0:
256,192,23651,1,0,0:0:0:0:
256,192,23735,1,2,0:0:0:0:
256,192,23819,1,0,0:0:0:0:
256,192,23904,1,0,0:0:0:0:
256,192,23988,1,2,0:0:0:0:
256,192,24157,1,0,0:0:0:0:
256,192,24241,1,0,0:0:0:0:
256,192,24325,1,0,0:0:0:0:
256,192,24494,1,2,0:0:0:0:
256,192,24578,1,2,0:0:0:0:
256,192,24662,1,0,0:0:0:0:
256,192,24746,1,0,0:0:0:0:
256,192,24831,1,0,0:0:0:0:
256,192,24915,1,0,0:0:0:0:
256,192,24999,1,2,0:0:0:0:
256,192,25168,1,2,0:0:0:0:
256,192,25252,1,0,0:0:0:0:
256,192,25336,1,2,0:0:0:0:
256,192,25505,1,0,0:0:0:0:
256,192,25589,1,0,0:0:0:0:
256,192,25673,1,2,0:0:0:0:
256,192,25758,1,0,0:0:0:0:
256,192,25842,1,2,0:0:0:0:
256,192,26010,1,0,0:0:0:0:
256,192,26179,1,2,0:0:0:0:
256,192,26263,1,0,0:0:0:0:
256,192,26348,1,2,0:0:0:0:
256,192,26432,1,2,0:0:0:0:
256,192,26516,1,0,0:0:0:0:
256,192,26600,1,0,0:0:0:0:
256,192,26685,1,2,0:0:0:0:
256,192,26769,1,2,0:0:0:0:
256,192,26853,1,0,0:0:0:0:
256,192,26937,1,2,0:0:0:0:
256,192,27022,1,0,0:0:0:0:
256,192,27190,1,2,0:0:0:0:
256,192,27275,1,0,0:0:0:0:
256,192,27359,1,0,0:0:0:0:
256,192,27527,1,0,0:0:0:0:
256,192,27612,1,0,0:0:0:0:
256,192,27696,1,2,0:0:0:0:
256,192,27780,1,0,0:0:0:0:
256,192,27864,1,2,0:0:0:0:
256,192,27949,1,2,0:0:0:0:
256,192,28033,1,0,0:0:0:0:
256,192,28201,1,2,0:0:0:0:
256,192,28286,1,0,0:0:0:0:
256,192,28370,1,2,0:0:0:0:
256,192,28539,1,0,0:0:0:0:
256,192,28623,1,0,0:0:0:0:
256,192,28707,1,2,0:0:0:0:
256,192,28791,1,2,0:0:0:0:
256,192,28876,1,0,0:0:0:0:
256,192,28960,1,2,0:0:0:0:
256,192,29044,1,0,0:0:0:0:
256,192,29128,1,0,0:0:0:0:
256,192,29213,1,2,0:0:0:0:
256,192,29297,1,2,0:0:0:0:
256,192,29381,1,0,0:0:0:0:
256,192,29550,1,0,0:0:0:0:
256,192,29634,1,0,0:0:0:0:
256,192,29718,1,0,0:0:0:0:
256,192,29887,1,2,0:0:0:0:
256,192,29971,1,0,0:0:0:0:
256,192,30055,1,2,0:0:0:0:
256,192,30140,1,2,0:0:0:0:
256,192,30224,1,0,0:0:0:0:
256,192,30308,1,2,0:0:0:0:
256,192,30392,1,0,0:0:0:0:
256,192,30477,1,0,0:0:0:0:
256,192,30561,1,2,0:0:0:0:
256,192,30645,1,0,0:0:0:0:
256,192,30730,1,2,0:0:0:0:
256,192,30898,1,2,0:0:0:0:
256,192,30982,1,2,0:0:0:0:
256,192,31067,1,2,0:0:0:0:
256,192,31151,1,2,0:0:0:0:
256,192,31235,1,0,0:0:0:0:
256,192,31319,1,0,0:0:0:0:
256,192,31404,1,2,0:0:0:0:
256,192,31572,1,2,0:0:0:0:
256,192,31741,1,2,0:0:0:0:
256,192,31909,1,0,0:0:0:0:
256,192,32078,1,2,0:0:0:0:
256,192,32246,1,2,0:0:0:0:
256,192,32415,1,4,0:0:0:0:
256,192,32584,1,4,0:0:0:0:
256,192,32752,1,6,0:0:0:0:
256,192,32921,1,0,0:0:0:0:
256,192,33005,1,0,0:0:0:0:
256,192,33090,1,2,0:0:0:0:
256,192,33173,1,0,0:0:0:0:
256,192,33258,1,2,0:0:0:0:
256,192,33342,1,2,0:0:0:0:
256,192,33427,1,0,0:0:0:0:
256,192,33595,1,2,0:0:0:0:
256,192,33679,1,2,0:0:0:0:
256,192,33764,1,0,0:0:0:0:
256,192,33932,1,0,0:0:0:0:
256,192,34017,1,0,0:0:0:0:
256,192,34101,1,2,0:0:0:0:
256,192,34185,1,2,0:0:0:0:
256,192,34269,1,0,0:0:0:0:
256,192,34354,1,2,0:0:0:0:
256,192,34438,1,0,0:0:0:0:
256,192,34522,1,0,0:0:0:0:
256,192,34606,1,2,0:0:0:0:
256,192,34690,1,2,0:0:0:0:
256,192,34775,1,0,0:0:0:0:
256,192,34944,1,0,0:0:0:0:
256,192,35028,1,0,0:0:0:0:
256,192,35112,1,2,0:0:0:0:
256,192,35280,1,0,0:0:0:0:
256,192,35449,1,2,0:0:0:0:
256,192,35533,1,0,0:0:0:0:
256,192,35617,1,2,0:0:0:0:
256,192,35701,1,2,0:0:0:0:
256,192,35786,1,0,0:0:0:0:
256,192,35870,1,2,0:0:0:0:
256,192,35954,1,0,0:0:0:0:
256,192,36039,1,0,0:0:0:0:
256,192,36123,1,2,0:0:0:0:
256,192,36292,1,0,0:0:0:0:
256,192,36376,1,0,0:0:0:0:
256,192,36460,1,2,0:0:0:0:
256,192,36545,1,0,0:0:0:0:
256,192,36628,1,0,0:0:0:0:
256,192,36797,1,0,0:0:0:0:
256,192,36966,1,2,0:0:0:0:
256,192,37050,1,2,0:0:0:0:
256,192,37135,1,0,0:0:0:0:
256,192,37218,1,2,0:0:0:0:
256,192,37303,1,0,0:0:0:0:
256,192,37387,1,0,0:0:0:0:
256,192,37472,1,2,0:0:0:0:
256,192,37556,1,2,0:0:0:0:
256,192,37640,1,0,0:0:0:0:
256,192,37724,1,2,0:0:0:0:
256,192,37809,1,0,0:0:0:0:
256,192,37977,1,2,0:0:0:0:
256,192,38146,1,0,0:0:0:0:
256,192,38230,1,0,0:0:0:0:
256,192,38314,1,0,0:0:0:0:
256,192,38398,1,2,0:0:0:0:
256,192,38482,1,0,0:0:0:0:
256,192,38651,1,2,0:0:0:0:
256,192,38735,1,2,0:0:0:0:
256,192,38819,1,0,0:0:0:0:
256,192,38988,1,0,0:0:0:0:
256,192,39072,1,2,0:0:0:0:
256,192,39157,1,0,0:0:0:0:
256,192,39241,1,0,0:0:0:0:
256,192,39325,1,2,0:0:0:0:
256,192,39409,1,2,0:0:0:0:
256,192,39494,1,0,0:0:0:0:
256,192,39662,1,2,0:0:0:0:
256,192,39746,1,0,0:0:0:0:
256,192,39831,1,0,0:0:0:0:
256,192,39999,1,2,0:0:0:0:
256,192,40168,1,0,0:0:0:0:
256,192,40252,1,0,0:0:0:0:
256,192,40336,1,2,0:0:0:0:
256,192,40421,1,0,0:0:0:0:
256,192,40505,1,0,0:0:0:0:
256,192,40673,1,2,0:0:0:0:
256,192,40842,1,0,0:0:0:0:
256,192,40926,1,2,0:0:0:0:
256,192,41010,1,0,0:0:0:0:
256,192,41095,1,0,0:0:0:0:
256,192,41179,1,2,0:0:0:0:
256,192,41263,1,0,0:0:0:0:
256,192,41348,1,2,0:0:0:0:
256,192,41432,1,2,0:0:0:0:
256,192,41516,1,0,0:0:0:0:
256,192,41600,1,0,0:0:0:0:
256,192,41685,1,2,0:0:0:0:
256,192,41769,1,2,0:0:0:0:
256,192,41853,1,0,0:0:0:0:
256,192,41937,1,2,0:0:0:0:
256,192,42022,1,0,0:0:0:0:
256,192,42106,1,0,0:0:0:0:
256,192,42190,1,2,0:0:0:0:
256,192,42527,1,0,0:0:0:0:
256,192,42864,1,2,0:0:0:0:
256,192,43201,1,0,0:0:0:0:
256,192,43539,1,4,0:0:0:0:
256,192,43876,1,0,0:0:0:0:
256,192,44044,1,2,0:0:0:0:
256,192,44381,1,2,0:0:0:0:
256,192,44550,1,0,0:0:0:0:
256,192,44718,1,2,0:0:0:0:
256,192,45055,1,2,0:0:0:0:
256,192,45224,1,0,0:0:0:0:
256,192,45392,1,2,0:0:0:0:
256,192,45561,1,2,0:0:0:0:
256,192,45730,1,2,0:0:0:0:
256,192,45898,1,0,0:0:0:0:
256,192,46067,1,2,0:0:0:0:
256,192,46235,1,0,0:0:0:0:
256,192,46572,1,0,0:0:0:0:
256,192,46741,1,2,0:0:0:0:
256,192,47078,1,2,0:0:0:0:
256,192,47246,1,0,0:0:0:0:
256,192,47415,1,2,0:0:0:0:
256,192,47752,1,2,0:0:0:0:
256,192,47921,1,0,0:0:0:0:
256,192,48089,1,2,0:0:0:0:
256,192,48258,1,2,0:0:0:0:
256,192,48426,1,2,0:0:0:0:
256,192,48595,1,0,0:0:0:0:
256,192,48763,1,2,0:0:0:0:
256,192,48932,1,0,0:0:0:0:
256,192,49269,1,0,0:0:0:0:
256,192,49437,1,2,0:0:0:0:
256,192,49774,1,2,0:0:0:0:
256,192,49943,1,0,0:0:0:0:
256,192,50111,1,2,0:0:0:0:
256,192,50448,1,2,0:0:0:0:
256,192,50617,1,0,0:0:0:0:
256,192,50785,1,2,0:0:0:0:
256,192,50954,1,2,0:0:0:0:
256,192,51123,1,2,0:0:0:0:
256,192,51291,1,0,0:0:0:0:
256,192,51460,1,2,0:0:0:0:
256,192,51628,1,0,0:0:0:0:
256,192,51965,1,0,0:0:0:0:
256,192,52134,1,2,0:0:0:0:
256,192,52471,1,2,0:0:0:0:
256,192,52639,1,0,0:0:0:0:
256,192,52808,1,2,0:0:0:0:
256,192,53145,1,2,0:0:0:0:
256,192,53314,1,0,0:0:0:0:
256,192,53482,1,2,0:0:0:0:
256,192,53651,1,2,0:0:0:0:
256,192,53819,1,2,0:0:0:0:
256,192,53988,1,0,0:0:0:0:
256,192,54325,1,4,0:0:0:0:
256,192,54662,1,0,0:0:0:0:
256,192,54831,1,2,0:0:0:0:
256,192,54999,1,0,0:0:0:0:
256,192,55168,1,0,0:0:0:0:
256,192,55336,1,2,0:0:0:0:
256,192,55673,1,2,0:0:0:0:
256,192,55842,1,0,0:0:0:0:
256,192,56010,1,2,0:0:0:0:
256,192,56179,1,2,0:0:0:0:
256,192,56348,1,2,0:0:0:0:
256,192,56516,1,0,0:0:0:0:
256,192,56853,1,2,0:0:0:0:
256,192,57022,1,2,0:0:0:0:
256,192,57190,1,0,0:0:0:0:
256,192,57359,1,2,0:0:0:0:
256,192,57527,1,2,0:0:0:0:
256,192,57696,1,0,0:0:0:0:
256,192,57864,1,2,0:0:0:0:
256,192,58033,1,0,0:0:0:0:
256,192,58370,1,2,0:0:0:0:
256,192,58539,1,0,0:0:0:0:
256,192,58707,1,2,0:0:0:0:
256,192,58876,1,0,0:0:0:0:
256,192,59044,1,0,0:0:0:0:
256,192,59213,1,2,0:0:0:0:
256,192,59381,1,2,0:0:0:0:
256,192,59718,1,4,0:0:0:0:
256,192,60055,1,0,0:0:0:0:
256,192,60224,1,2,0:0:0:0:
256,192,60392,1,2,0:0:0:0:
256,192,60561,1,0,0:0:0:0:
256,192,60730,1,2,0:0:0:0:
256,192,61067,1,2,0:0:0:0:
256,192,61235,1,0,0:0:0:0:
256,192,61404,1,2,0:0:0:0:
256,192,61572,1,0,0:0:0:0:
256,192,61741,1,2,0:0:0:0:
256,192,61909,1,2,0:0:0:0:
256,192,62078,1,0,0:0:0:0:
256,192,62246,1,2,0:0:0:0:
256,192,62415,1,0,0:0:0:0:
256,192,62752,1,0,0:0:0:0:
256,192,62921,1,2,0:0:0:0:
256,192,63089,1,2,0:0:0:0:
256,192,63258,1,2,0:0:0:0:
256,192,63426,1,0,0:0:0:0:
256,192,63595,1,2,0:0:0:0:
256,192,63763,1,0,0:0:0:0:
256,192,63932,1,0,0:0:0:0:
256,192,64100,1,2,0:0:0:0:
256,192,64269,1,0,0:0:0:0:
256,192,64437,1,2,0:0:0:0:
256,192,64522,1,2,0:0:0:0:
256,192,64606,1,2,0:0:0:0:
256,192,64690,1,2,0:0:0:0:
256,192,64775,1,0,0:0:0:0:
256,192,64859,1,0,0:0:0:0:
256,192,64943,1,0,0:0:0:0:
256,192,65027,1,0,0:0:0:0:
256,192,65112,1,6,0:0:0:0:
256,192,65280,1,2,0:0:0:0:
256,192,65364,1,2,0:0:0:0:
256,192,65449,1,0,0:0:0:0:
256,192,65617,1,0,0:0:0:0:
256,192,65701,1,0,0:0:0:0:
256,192,65786,1,2,0:0:0:0:
256,192,65954,1,2,0:0:0:0:
256,192,66123,1,0,0:0:0:0:
256,192,66291,1,2,0:0:0:0:
256,192,66460,1,0,0:0:0:0:
256,192,66628,1,0,0:0:0:0:
256,192,66797,1,2,0:0:0:0:
256,192,66966,1,2,0:0:0:0:
256,192,67050,1,2,0:0:0:0:
256,192,67134,1,0,0:0:0:0:
256,192,67303,1,0,0:0:0:0:
256,192,67471,1,2,0:0:0:0:
256,192,67640,1,2,0:0:0:0:
256,192,67808,1,0,0:0:0:0:
256,192,67977,1,0,0:0:0:0:
256,192,68145,1,2,0:0:0:0:
256,192,68314,1,0,0:0:0:0:
256,192,68398,1,2,0:0:0:0:
256,192,68482,1,0,0:0:0:0:
256,192,68651,1,2,0:0:0:0:
256,192,68819,1,0,0:0:0:0:
256,192,68988,1,0,0:0:0:0:
256,192,69157,1,2,0:0:0:0:
256,192,69325,1,2,0:0:0:0:
256,192,69409,1,2,0:0:0:0:
256,192,69494,1,0,0:0:0:0:
256,192,69578,1,2,0:0:0:0:
256,192,69662,1,2,0:0:0:0:
256,192,69831,1,0,0:0:0:0:
256,192,69915,1,2,0:0:0:0:
256,192,69999,1,0,0:0:0:0:
256,192,70084,1,2,0:0:0:0:
256,192,70168,1,2,0:0:0:0:
256,192,70336,1,2,0:0:0:0:
256,192,70421,1,2,0:0:0:0:
256,192,70505,1,4,0:0:0:0:
256,192,70673,1,0,0:0:0:0:
256,192,70842,1,2,0:0:0:0:
256,192,71010,1,2,0:0:0:0:
256,192,71179,1,0,0:0:0:0:
256,192,71348,1,2,0:0:0:0:
256,192,71432,1,0,0:0:0:0:
256,192,71516,1,0,0:0:0:0:
256,192,71685,1,2,0:0:0:0:
256,192,71853,1,2,0:0:0:0:
256,192,72022,1,0,0:0:0:0:
256,192,72190,1,2,0:0:0:0:
256,192,72359,1,0,0:0:0:0:
256,192,72527,1,0,0:0:0:0:
256,192,72612,1,0,0:0:0:0:
256,192,72696,1,2,0:0:0:0:
256,192,72864,1,0,0:0:0:0:
256,192,73033,1,2,0:0:0:0:
256,192,73201,1,0,0:0:0:0:
256,192,73370,1,2,0:0:0:0:
256,192,73454,1,0,0:0:0:0:
256,192,73539,1,2,0:0:0:0:
256,192,73707,1,2,0:0:0:0:
256,192,73876,1,0,0:0:0:0:
256,192,74044,1,2,0:0:0:0:
256,192,74128,1,2,0:0:0:0:
256,192,74213,1,0,0:0:0:0:
256,192,74381,1,2,0:0:0:0:
256,192,74550,1,0,0:0:0:0:
256,192,74718,1,0,0:0:0:0:
256,192,74887,1,2,0:0:0:0:
256,192,75055,1,2,0:0:0:0:
256,192,75224,1,0,0:0:0:0:
256,192,75392,1,2,0:0:0:0:
256,192,75477,1,2,0:0:0:0:
256,192,75561,1,2,0:0:0:0:
256,192,75645,1,0,0:0:0:0:
256,192,75730,1,2,0:0:0:0:
256,192,75898,1,4,0:0:0:0:
256,192,75982,12,0,79606,0:0:0:0:
256,192,79943,5,2,0:0:0:0:
256,192,80280,1,0,0:0:0:0:
256,192,80617,1,2,0:0:0:0:
256,192,80954,1,0,0:0:0:0:
256,192,81291,1,0,0:0:0:0:
256,192,81460,1,0,0:0:0:0:
256,192,81628,1,0,0:0:0:0:
256,192,81797,1,0,0:0:0:0:
256,192,81966,1,2,0:0:0:0:
256,192,82134,1,2,0:0:0:0:
256,192,82303,1,2,0:0:0:0:
256,192,82471,1,2,0:0:0:0:
256,192,82640,1,0,0:0:0:0:
256,192,82808,1,0,0:0:0:0:
256,192,82977,1,2,0:0:0:0:
256,192,83145,1,2,0:0:0:0:
256,192,83314,1,0,0:0:0:0:
256,192,83482,1,2,0:0:0:0:
256,192,83651,1,0,0:0:0:0:
256,192,83819,1,2,0:0:0:0:
256,192,83988,1,0,0:0:0:0:
256,192,84072,1,0,0:0:0:0:
256,192,84157,1,2,0:0:0:0:
256,192,84241,1,2,0:0:0:0:
256,192,84325,1,0,0:0:0:0:
256,192,84409,1,2,0:0:0:0:
256,192,84494,1,0,0:0:0:0:
256,192,84578,1,0,0:0:0:0:
256,192,84662,1,2,0:0:0:0:
256,192,84746,1,0,0:0:0:0:
256,192,84831,1,2,0:0:0:0:
256,192,84915,1,2,0:0:0:0:
256,192,84999,1,0,0:0:0:0:
256,192,85084,1,0,0:0:0:0:
256,192,85168,1,2,0:0:0:0:
256,192,85252,1,2,0:0:0:0:
256,192,85336,1,0,0:0:0:0:
256,192,85673,1,0,0:0:0:0:
256,192,86010,1,0,0:0:0:0:
256,192,86348,1,2,0:0:0:0:
256,192,86685,1,4,0:0:0:0:
256,192,87022,1,0,0:0:0:0:
256,192,87190,1,2,0:0:0:0:
256,192,87359,1,2,0:0:0:0:
256,192,87527,1,0,0:0:0:0:
256,192,87696,1,2,0:0:0:0:
256,192,88033,1,0,0:0:0:0:
256,192,88201,1,2,0:0:0:0:
256,192,88539,1,2,0:0:0:0:
256,192,88707,1,2,0:0:0:0:
256,192,88876,1,0,0:0:0:0:
256,192,89044,1,2,0:0:0:0:
256,192,89381,1,0,0:0:0:0:
256,192,89550,1,2,0:0:0:0:
256,192,89718,1,2,0:0:0:0:
256,192,89887,1,0,0:0:0:0:
256,192,90055,1,2,0:0:0:0:
256,192,90224,1,0,0:0:0:0:
256,192,90392,1,0,0:0:0:0:
256,192,90561,1,2,0:0:0:0:
256,192,90898,1,0,0:0:0:0:
256,192,91067,1,2,0:0:0:0:
256,192,91235,1,0,0:0:0:0:
256,192,91404,1,2,0:0:0:0:
256,192,91572,1,2,0:0:0:0:
256,192,91741,1,0,0:0:0:0:
256,192,92078,1,0,0:0:0:0:
256,192,92246,1,2,0:0:0:0:
256,192,92415,1,0,0:0:0:0:
256,192,92584,1,0,0:0:0:0:
256,192,92752,1,2,0:0:0:0:
256,192,92921,1,2,0:0:0:0:
256,192,93089,1,0,0:0:0:0:
256,192,93258,1,0,0:0:0:0:
256,192,93426,1,2,0:0:0:0:
256,192,93763,1,0,0:0:0:0:
256,192,93932,1,0,0:0:0:0:
256,192,94100,1,2,0:0:0:0:
256,192,94269,1,0,0:0:0:0:
256,192,94437,1,2,0:0:0:0:
256,192,95112,1,2,0:0:0:0:
256,192,95280,1,0,0:0:0:0:
256,192,96460,1,0,0:0:0:0:
256,192,96797,1,0,0:0:0:0:
256,192,97134,1,2,0:0:0:0:
256,192,97471,1,4,0:0:0:0:
256,192,97808,1,2,0:0:0:0:
256,192,97977,1,2,0:0:0:0:
256,192,98145,1,0,0:0:0:0:
256,192,98314,1,0,0:0:0:0:
256,192,98482,1,2,0:0:0:0:
256,192,98651,1,2,0:0:0:0:
256,192,98735,1,0,0:0:0:0:
256,192,98819,1,0,0:0:0:0:
256,192,98988,1,0,0:0:0:0:
256,192,99157,1,2,0:0:0:0:
256,192,99325,1,2,0:0:0:0:
256,192,99494,1,0,0:0:0:0:
256,192,99662,1,0,0:0:0:0:
256,192,99831,1,2,0:0:0:0:
256,192,99999,1,2,0:0:0:0:
256,192,100084,1,2,0:0:0:0:
256,192,100168,1,0,0:0:0:0:
256,192,100336,1,0,0:0:0:0:
256,192,100505,1,2,0:0:0:0:
256,192,100673,1,2,0:0:0:0:
256,192,100842,1,0,0:0:0:0:
256,192,101010,1,0,0:0:0:0:
256,192,101179,1,2,0:0:0:0:
256,192,101348,1,2,0:0:0:0:
256,192,101432,1,0,0:0:0:0:
256,192,101516,1,2,0:0:0:0:
256,192,101685,1,0,0:0:0:0:
256,192,101853,1,2,0:0:0:0:
256,192,102022,1,2,0:0:0:0:
256,192,102190,1,0,0:0:0:0:
256,192,102359,1,0,0:0:0:0:
256,192,102527,1,2,0:0:0:0:
256,192,102696,1,0,0:0:0:0:
256,192,102780,1,0,0:0:0:0:
256,192,102864,1,2,0:0:0:0:
256,192,103033,1,0,0:0:0:0:
256,192,103201,1,2,0:0:0:0:
256,192,103370,1,2,0:0:0:0:
256,192,103539,1,0,0:0:0:0:
256,192,103707,1,0,0:0:0:0:
256,192,103876,1,2,0:0:0:0:
256,192,104044,1,2,0:0:0:0:
256,192,104128,1,0,0:0:0:0:
256,192,104213,1,2,0:0:0:0:
256,192,104381,1,0,0:0:0:0:
256,192,104550,1,2,0:0:0:0:
256,192,104718,1,2,0:0:0:0:
256,192,104887,1,0,0:0:0:0:
256,192,105055,1,0,0:0:0:0:
256,192,105224,1,2,0:0:0:0:
256,192,105392,1,0,0:0:0:0:
256,192,105477,1,2,0:0:0:0:
256,192,105561,1,2,0:0:0:0:
256,192,105730,1,0,0:0:0:0:
256,192,105898,1,2,0:0:0:0:
256,192,106067,1,2,0:0:0:0:
256,192,106235,1,0,0:0:0:0:
256,192,106404,1,0,0:0:0:0:
256,192,106572,1,2,0:0:0:0:
256,192,106741,1,0,0:0:0:0:
256,192,106825,1,2,0:0:0:0:
256,192,106909,1,0,0:0:0:0:
256,192,107078,1,0,0:0:0:0:
256,192,107246,1,2,0:0:0:0:
256,192,107415,1,2,0:0:0:0:
256,192,107584,1,0,0:0:0:0:
256,192,107752,1,0,0:0:0:0:
256,192,107921,1,2,0:0:0:0:
256,192,108089,1,0,0:0:0:0:
256,192,108258,1,2,0:0:0:0:
256,192,108763,1,2,0:0:0:0:
256,192,109269,1,2,0:0:0:0:
256,192,109437,1,0,0:0:0:0:
256,192,109775,1,2,0:0:0:0:
256,192,110280,1,2,0:0:0:0:
256,192,110617,1,0,0:0:0:0:
256,192,110786,1,0,0:0:0:0:
256,192,110954,1,2,0:0:0:0:
256,192,111460,1,2,0:0:0:0:
256,192,111966,1,2,0:0:0:0:
256,192,112303,12,0,114999,0:0:0:0:
256,192,116348,5,4,0:0:0:0:
256,192,116685,1,2,0:0:0:0:
256,192,117022,1,0,0:0:0:0:
256,192,117190,1,0,0:0:0:0:
256,192,117527,1,2,0:0:0:0:
256,192,117864,1,0,0:0:0:0:
256,192,118033,1,2,0:0:0:0:
256,192,118201,1,2,0:0:0:0:
256,192,118539,1,2,0:0:0:0:
256,192,118876,1,0,0:0:0:0:
256,192,119213,1,0,0:0:0:0:
256,192,119381,1,2,0:0:0:0:
256,192,119718,1,2,0:0:0:0:
256,192,119887,1,0,0:0:0:0:
256,192,120224,1,0,0:0:0:0:
256,192,120392,1,2,0:0:0:0:
256,192,120730,1,0,0:0:0:0:
256,192,121067,1,2,0:0:0:0:
256,192,121404,1,0,0:0:0:0:
256,192,121741,1,4,0:0:0:0:
256,192,121909,1,0,0:0:0:0:
256,192,122078,1,2,0:0:0:0:
256,192,122415,1,2,0:0:0:0:
256,192,122584,1,0,0:0:0:0:
256,192,122921,1,2,0:0:0:0:
256,192,123258,1,0,0:0:0:0:
256,192,123426,1,2,0:0:0:0:
256,192,123595,1,0,0:0:0:0:
256,192,123763,1,0,0:0:0:0:
256,192,123932,1,2,0:0:0:0:
256,192,124100,1,0,0:0:0:0:
256,192,124269,1,2,0:0:0:0:
256,192,125280,1,0,0:0:0:0:
256,192,125617,1,2,0:0:0:0:
256,192,125786,1,2,0:0:0:0:
256,192,126123,1,0,0:0:0:0:
256,192,126460,1,2,0:0:0:0:
256,192,126797,1,0,0:0:0:0:
256,192,126966,1,2,0:0:0:0:
256,192,127134,1,4,0:0:0:0:
256,192,127303,1,0,0:0:0:0:
256,192,127387,1,0,0:0:0:0:
256,192,127471,1,2,0:0:0:0:
256,192,127640,1,0,0:0:0:0:
256,192,127808,1,0,0:0:0:0:
256,192,127892,1,2,0:0:0:0:
256,192,127977,1,0,0:0:0:0:
256,192,128145,1,0,0:0:0:0:
256,192,128314,1,2,0:0:0:0:
256,192,128482,1,0,0:0:0:0:
256,192,128651,1,2,0:0:0:0:
256,192,128735,1,0,0:0:0:0:
256,192,128819,1,0,0:0:0:0:
256,192,128988,1,0,0:0:0:0:
256,192,129157,1,2,0:0:0:0:
256,192,129241,1,2,0:0:0:0:
256,192,129325,1,0,0:0:0:0:
256,192,129494,1,0,0:0:0:0:
256,192,129662,1,2,0:0:0:0:
256,192,129831,1,0,0:0:0:0:
256,192,129999,1,0,0:0:0:0:
256,192,130084,1,0,0:0:0:0:
256,192,130168,1,2,0:0:0:0:
256,192,130336,1,0,0:0:0:0:
256,192,130505,1,2,0:0:0:0:
256,192,130589,1,2,0:0:0:0:
256,192,130673,1,0,0:0:0:0:
256,192,130842,1,0,0:0:0:0:
256,192,131010,1,0,0:0:0:0:
256,192,131179,1,2,0:0:0:0:
256,192,131348,1,0,0:0:0:0:
256,192,131432,1,2,0:0:0:0:
256,192,131516,1,0,0:0:0:0:
256,192,131685,1,2,0:0:0:0:
256,192,131853,1,2,0:0:0:0:
256,192,132022,1,0,0:0:0:0:
256,192,132106,1,0,0:0:0:0:
256,192,132190,1,0,0:0:0:0:
256,192,132359,1,2,0:0:0:0:
256,192,132527,1,0,0:0:0:0:
256,192,132696,1,0,0:0:0:0:
256,192,132780,1,2,0:0:0:0:
256,192,132864,1,0,0:0:0:0:
256,192,133033,1,0,0:0:0:0:
256,192,133201,1,2,0:0:0:0:
256,192,133370,1,2,0:0:0:0:
256,192,133454,1,0,0:0:0:0:
256,192,133539,1,2,0:0:0:0:
256,192,133707,1,2,0:0:0:0:
256,192,133876,1,0,0:0:0:0:
256,192,134044,1,0,0:0:0:0:
256,192,134128,1,0,0:0:0:0:
256,192,134213,1,2,0:0:0:0:
256,192,134381,1,2,0:0:0:0:
256,192,134550,1,0,0:0:0:0:
256,192,134718,1,2,0:0:0:0:
256,192,134803,1,2,0:0:0:0:
256,192,134887,1,0,0:0:0:0:
256,192,135055,1,2,0:0:0:0:
256,192,135224,1,0,0:0:0:0:
256,192,135308,1,2,0:0:0:0:
256,192,135392,1,0,0:0:0:0:
256,192,135477,1,0,0:0:0:0:
256,192,135561,1,2,0:0:0:0:
256,192,135645,1,0,0:0:0:0:
256,192,135730,1,2,0:0:0:0:
256,192,135814,1,0,0:0:0:0:
256,192,135898,1,2,0:0:0:0:
256,192,135982,1,2,0:0:0:0:
256,192,136067,1,0,0:0:0:0:
256,192,136151,1,0,0:0:0:0:
256,192,136235,1,2,0:0:0:0:
256,192,136319,1,0,0:0:0:0:
256,192,136404,1,2,0:0:0:0:
256,192,136488,1,2,0:0:0:0:
256,192,136572,1,0,0:0:0:0:
256,192,136909,1,0,0:0:0:0:
256,192,137078,1,0,0:0:0:0:
256,192,137246,1,2,0:0:0:0:
256,192,137584,1,6,0:0:0:0:
256,192,137921,1,4,0:0:0:0:
256,192,138089,1,0,0:0:0:0:
256,192,138173,1,0,0:0:0:0:
256,192,138258,1,2,0:0:0:0:
256,192,138426,1,2,0:0:0:0:
256,192,138510,1,0,0:0:0:0:
256,192,138595,1,0,0:0:0:0:
256,192,138679,1,2,0:0:0:0:
256,192,138763,1,0,0:0:0:0:
256,192,138932,1,0,0:0:0:0:
256,192,139100,1,2,0:0:0:0:
256,192,139185,1,0,0:0:0:0:
256,192,139269,1,2,0:0:0:0:
256,192,139437,1,2,0:0:0:0:
256,192,139522,1,2,0:0:0:0:
256,192,139606,1,0,0:0:0:0:
256,192,139690,1,0,0:0:0:0:
256,192,139775,1,2,0:0:0:0:
256,192,139943,1,0,0:0:0:0:
256,192,140112,1,2,0:0:0:0:
256,192,140196,1,0,0:0:0:0:
256,192,140280,1,0,0:0:0:0:
256,192,140449,1,2,0:0:0:0:
256,192,140617,1,0,0:0:0:0:
256,192,140786,1,0,0:0:0:0:
256,192,140870,1,0,0:0:0:0:
256,192,140954,1,2,0:0:0:0:
256,192,141123,1,0,0:0:0:0:
256,192,141207,1,0,0:0:0:0:
256,192,141291,1,2,0:0:0:0:
256,192,141376,1,0,0:0:0:0:
256,192,141460,1,2,0:0:0:0:
256,192,141628,1,0,0:0:0:0:
256,192,141797,1,2,0:0:0:0:
256,192,141881,1,2,0:0:0:0:
256,192,141966,1,0,0:0:0:0:
256,192,142134,1,2,0:0:0:0:
256,192,142303,1,0,0:0:0:0:
256,192,142471,1,2,0:0:0:0:
256,192,142555,1,2,0:0:0:0:
256,192,142640,1,0,0:0:0:0:
256,192,142724,1,0,0:0:0:0:
256,192,142808,1,2,0:0:0:0:
256,192,142977,1,0,0:0:0:0:
256,192,143145,1,2,0:0:0:0:
256,192,143314,1,0,0:0:0:0:
256,192,143482,1,0,0:0:0:0:
256,192,143567,1,0,0:0:0:0:
256,192,143651,1,2,0:0:0:0:
256,192,143819,1,2,0:0:0:0:
256,192,143904,1,0,0:0:0:0:
256,192,143988,1,2,0:0:0:0:
256,192,144072,1,0,0:0:0:0:
256,192,144157,1,0,0:0:0:0:
256,192,144325,1,0,0:0:0:0:
256,192,144494,1,2,0:0:0:0:
256,192,144578,1,2,0:0:0:0:
256,192,144662,1,2,0:0:0:0:
256,192,144831,1,0,0:0:0:0:
256,192,144999,1,2,0:0:0:0:
256,192,145084,1,2,0:0:0:0:
256,192,145168,1,0,0:0:0:0:
256,192,145336,1,0,0:0:0:0:
256,192,145421,1,0,0:0:0:0:
256,192,145505,1,2,0:0:0:0:
256,192,145589,1,0,0:0:0:0:
256,192,145673,1,0,0:0:0:0:
256,192,145842,1,2,0:0:0:0:
256,192,146010,1,0,0:0:0:0:
256,192,146179,1,2,0:0:0:0:
256,192,146263,1,0,0:0:0:0:
256,192,146348,1,0,0:0:0:0:
256,192,146516,1,2,0:0:0:0:
256,192,146685,1,0,0:0:0:0:
256,192,146853,1,2,0:0:0:0:
256,192,147022,1,0,0:0:0:0:
256,192,147106,1,2,0:0:0:0:
256,192,147190,1,0,0:0:0:0:
256,192,147359,1,2,0:0:0:0:
256,192,147527,1,2,0:0:0:0:
256,192,147696,1,2,0:0:0:0:
256,192,147864,1,0,0:0:0:0:
256,192,148033,1,2,0:0:0:0:
256,192,148201,1,2,0:0:0:0:
256,192,148370,1,4,0:0:0:0:
256,192,148539,1,4,0:0:0:0:
256,192,148707,1,6,0:0:0:0:
256,192,148875,1,0,0:0:0:0:
256,192,148959,1,0,0:0:0:0:
256,192,149044,1,2,0:0:0:0:
256,192,149212,1,2,0:0:0:0:
256,192,149296,1,0,0:0:0:0:
256,192,149381,1,2,0:0:0:0:
256,192,149465,1,2,0:0:0:0:
256,192,149549,1,0,0:0:0:0:
256,192,149718,1,0,0:0:0:0:
256,192,149886,1,2,0:0:0:0:
256,192,149971,1,0,0:0:0:0:
256,192,150055,1,2,0:0:0:0:
256,192,150223,1,2,0:0:0:0:
256,192,150308,1,2,0:0:0:0:
256,192,150392,1,0,0:0:0:0:
256,192,150476,1,0,0:0:0:0:
256,192,150561,1,2,0:0:0:0:
256,192,150729,1,0,0:0:0:0:
256,192,150898,1,2,0:0:0:0:
256,192,150982,1,2,0:0:0:0:
256,192,151066,1,0,0:0:0:0:
256,192,151235,1,2,0:0:0:0:
256,192,151403,1,0,0:0:0:0:
256,192,151572,1,0,0:0:0:0:
256,192,151656,1,0,0:0:0:0:
256,192,151740,1,2,0:0:0:0:
256,192,151909,1,0,0:0:0:0:
256,192,151993,1,0,0:0:0:0:
256,192,152077,1,2,0:0:0:0:
256,192,152162,1,0,0:0:0:0:
256,192,152246,1,2,0:0:0:0:
256,192,152414,1,0,0:0:0:0:
256,192,152583,1,2,0:0:0:0:
256,192,152667,1,2,0:0:0:0:
256,192,152752,1,0,0:0:0:0:
256,192,152836,1,2,0:0:0:0:
256,192,152920,1,2,0:0:0:0:
256,192,153089,1,0,0:0:0:0:
256,192,153257,1,2,0:0:0:0:
256,192,153341,1,2,0:0:0:0:
256,192,153426,1,0,0:0:0:0:
256,192,153594,1,2,0:0:0:0:
256,192,153763,1,0,0:0:0:0:
256,192,153931,1,2,0:0:0:0:
256,192,154100,1,0,0:0:0:0:
256,192,154185,1,2,0:0:0:0:
256,192,154269,1,2,0:0:0:0:
256,192,154353,1,2,0:0:0:0:
256,192,154437,1,0,0:0:0:0:
256,192,154605,1,2,0:0:0:0:
256,192,154690,1,0,0:0:0:0:
256,192,154774,1,2,0:0:0:0:
256,192,154943,1,0,0:0:0:0:
256,192,155112,1,2,0:0:0:0:
256,192,155196,1,2,0:0:0:0:
256,192,155280,1,0,0:0:0:0:
256,192,155448,1,2,0:0:0:0:
256,192,155617,1,0,0:0:0:0:
256,192,155785,1,2,0:0:0:0:
256,192,155870,1,2,0:0:0:0:
256,192,155954,1,0,0:0:0:0:
256,192,156122,1,0,0:0:0:0:
256,192,156207,1,0,0:0:0:0:
256,192,156291,1,2,0:0:0:0:
256,192,156375,1,0,0:0:0:0:
256,192,156459,1,0,0:0:0:0:
256,192,156628,1,2,0:0:0:0:
256,192,156796,1,0,0:0:0:0:
256,192,156881,1,0,0:0:0:0:
256,192,156965,1,2,0:0:0:0:
256,192,157049,1,2,0:0:0:0:
256,192,157134,1,0,0:0:0:0:
256,192,157218,1,2,0:0:0:0:
256,192,157303,1,2,0:0:0:0:
256,192,157387,1,2,0:0:0:0:
256,192,157471,1,0,0:0:0:0:
256,192,157555,1,0,0:0:0:0:
256,192,157640,1,2,0:0:0:0:
256,192,157724,1,0,0:0:0:0:
256,192,157808,1,2,0:0:0:0:
256,192,157892,1,2,0:0:0:0:
256,192,157977,1,0,0:0:0:0:
256,192,158061,1,2,0:0:0:0:
256,192,158145,1,0,0:0:0:0:
256,192,158314,1,2,0:0:0:0:
256,192,158398,1,2,0:0:0:0:
256,192,158482,1,0,0:0:0:0:
256,192,158651,1,0,0:0:0:0:
256,192,158819,1,2,0:0:0:0:
256,192,158988,1,2,0:0:0:0:
256,192,159072,1,2,0:0:0:0:
256,192,159157,1,0,0:0:0:0:
256,192,159494,1,4,0:0:0:0:
256,192,159662,12,0,162864,0:0:0:0:
256,192,163201,5,0,0:0:0:0:
256,192,163539,1,6,0:0:0:0:
256,192,163876,1,0,0:0:0:0:
256,192,164044,1,2,0:0:0:0:
256,192,164381,1,2,0:0:0:0:
256,192,164550,1,0,0:0:0:0:
256,192,164718,1,2,0:0:0:0:
256,192,165055,1,2,0:0:0:0:
256,192,165224,1,0,0:0:0:0:
256,192,165392,1,0,0:0:0:0:
256,192,165561,1,2,0:0:0:0:
256,192,165730,1,2,0:0:0:0:
256,192,165898,1,0,0:0:0:0:
256,192,166067,1,2,0:0:0:0:
256,192,166235,1,0,0:0:0:0:
256,192,166572,1,0,0:0:0:0:
256,192,166741,1,0,0:0:0:0:
256,192,166909,1,2,0:0:0:0:
256,192,167078,1,0,0:0:0:0:
256,192,167246,1,2,0:0:0:0:
256,192,167415,1,0,0:0:0:0:
256,192,167584,1,2,0:0:0:0:
256,192,167752,1,2,0:0:0:0:
256,192,167921,1,0,0:0:0:0:
256,192,168089,1,2,0:0:0:0:
256,192,168258,1,0,0:0:0:0:
256,192,168426,1,0,0:0:0:0:
256,192,168595,1,2,0:0:0:0:
256,192,168932,1,4,0:0:0:0:
256,192,169269,1,2,0:0:0:0:
256,192,169437,1,0,0:0:0:0:
256,192,169606,1,2,0:0:0:0:
256,192,169775,1,2,0:0:0:0:
256,192,169943,1,0,0:0:0:0:
256,192,170112,1,2,0:0:0:0:
256,192,170280,1,0,0:0:0:0:
256,192,170449,1,2,0:0:0:0:
256,192,170533,1,0,0:0:0:0:
256,192,170617,1,2,0:0:0:0:
256,192,170786,1,0,0:0:0:0:
256,192,170954,1,2,0:0:0:0:
256,192,171067,1,2,0:0:0:0:
256,192,171179,1,0,0:0:0:0:
256,192,171291,1,2,0:0:0:0:
256,192,171628,1,0,0:0:0:0:
256,192,171797,1,0,0:0:0:0:
256,192,171966,1,2,0:0:0:0:
256,192,172134,1,0,0:0:0:0:
256,192,172303,1,0,0:0:0:0:
256,192,172387,1,2,0:0:0:0:
256,192,172471,1,0,0:0:0:0:
256,192,172640,1,0,0:0:0:0:
256,192,172808,1,2,0:0:0:0:
256,192,172977,1,0,0:0:0:0:
256,192,173145,1,0,0:0:0:0:
256,192,173314,1,2,0:0:0:0:
256,192,173398,1,2,0:0:0:0:
256,192,173482,1,0,0:0:0:0:
256,192,173651,1,2,0:0:0:0:
256,192,173763,1,0,0:0:0:0:
256,192,173876,1,0,0:0:0:0:
256,192,173988,1,2,0:0:0:0:
256,192,174325,1,0,0:0:0:0:
256,192,174662,1,0,0:0:0:0:
256,192,174831,1,2,0:0:0:0:
256,192,174999,1,2,0:0:0:0:
256,192,175084,1,2,0:0:0:0:
256,192,175168,1,2,0:0:0:0:
256,192,175252,1,2,0:0:0:0:
256,192,175336,1,0,0:0:0:0:
256,192,175421,1,0,0:0:0:0:
256,192,175505,1,0,0:0:0:0:
256,192,175589,1,0,0:0:0:0:
256,192,175673,1,6,0:0:0:0:
256,192,175842,1,2,0:0:0:0:
256,192,175926,1,2,0:0:0:0:
256,192,176010,1,0,0:0:0:0:
256,192,176178,1,0,0:0:0:0:
256,192,176262,1,0,0:0:0:0:
256,192,176347,1,2,0:0:0:0:
256,192,176515,1,2,0:0:0:0:
256,192,176684,1,0,0:0:0:0:
256,192,176852,1,2,0:0:0:0:
256,192,177021,1,0,0:0:0:0:
256,192,177190,1,2,0:0:0:0:
256,192,177275,1,0,0:0:0:0:
256,192,177358,1,2,0:0:0:0:
256,192,177527,1,2,0:0:0:0:
256,192,177695,1,0,0:0:0:0:
256,192,177864,1,0,0:0:0:0:
256,192,178032,1,2,0:0:0:0:
256,192,178201,1,0,0:0:0:0:
256,192,178370,1,2,0:0:0:0:
256,192,178539,1,2,0:0:0:0:
256,192,178706,1,0,0:0:0:0:
256,192,178875,1,0,0:0:0:0:
256,192,178959,1,2,0:0:0:0:
256,192,179043,1,0,0:0:0:0:
256,192,179212,1,2,0:0:0:0:
256,192,179380,1,0,0:0:0:0:
256,192,179549,1,0,0:0:0:0:
256,192,179718,1,2,0:0:0:0:
256,192,179886,1,2,0:0:0:0:
256,192,179970,1,2,0:0:0:0:
256,192,180055,1,0,0:0:0:0:
256,192,180139,1,2,0:0:0:0:
256,192,180223,1,2,0:0:0:0:
256,192,180392,1,0,0:0:0:0:
256,192,180476,1,2,0:0:0:0:
256,192,180560,1,0,0:0:0:0:
256,192,180645,1,2,0:0:0:0:
256,192,180729,1,2,0:0:0:0:
256,192,180897,1,2,0:0:0:0:
256,192,180982,1,2,0:0:0:0:
256,192,181066,1,0,0:0:0:0:
256,192,181234,1,0,0:0:0:0:
256,192,181403,1,2,0:0:0:0:
256,192,181571,1,2,0:0:0:0:
256,192,181740,1,0,0:0:0:0:
256,192,181909,1,2,0:0:0:0:
256,192,181993,1,0,0:0:0:0:
256,192,182077,1,0,0:0:0:0:
256,192,182246,1,0,0:0:0:0:
256,192,182414,1,2,0:0:0:0:
256,192,182583,1,2,0:0:0:0:
256,192,182752,1,0,0:0:0:0:
256,192,182836,1,2,0:0:0:0:
256,192,182921,1,2,0:0:0:0:
256,192,183005,1,0,0:0:0:0:
256,192,183089,1,2,0:0:0:0:
256,192,183173,1,0,0:0:0:0:
256,192,183257,1,2,0:0:0:0:
256,192,183425,1,0,0:0:0:0:
256,192,183594,1,2,0:0:0:0:
256,192,183762,1,0,0:0:0:0:
256,192,183931,1,2,0:0:0:0:
256,192,184015,1,2,0:0:0:0:
256,192,184100,1,0,0:0:0:0:
256,192,184268,1,2,0:0:0:0:
256,192,184437,1,0,0:0:0:0:
256,192,184606,1,0,0:0:0:0:
256,192,184775,1,2,0:0:0:0:
256,192,184943,1,2,0:0:0:0:
256,192,185111,1,0,0:0:0:0:
256,192,185280,1,0,0:0:0:0:
256,192,185364,1,0,0:0:0:0:
256,192,185448,1,2,0:0:0:0:
256,192,185616,1,2,0:0:0:0:
256,192,185785,1,0,0:0:0:0:
256,192,185954,1,0,0:0:0:0:
256,192,186123,1,2,0:0:0:0:
256,192,186291,1,0,0:0:0:0:
256,192,186460,1,2,0:0:0:0:
256,192,186628,1,2,0:0:0:0:
256,192,186797,1,0,0:0:0:0:
256,192,186966,1,0,0:0:0:0:
256,192,187134,1,2,0:0:0:0:
256,192,187303,1,0,0:0:0:0:
256,192,187471,1,2,0:0:0:0:
256,192,187640,1,2,0:0:0:0:
256,192,187808,1,0,0:0:0:0:
256,192,187977,1,2,0:0:0:0:
256,192,188145,1,0,0:0:0:0:
256,192,188314,1,0,0:0:0:0:
256,192,188482,1,2,0:0:0:0:
256,192,188651,1,0,0:0:0:0:
256,192,188819,1,2,0:0:0:0:
256,192,188988,1,0,0:0:0:0:
256,192,189157,1,2,0:0:0:0:
256,192,189325,1,2,0:0:0:0:
256,192,189494,1,0,0:0:0:0:
256,192,189662,1,0,0:0:0:0:
256,192,189831,1,2,0:0:0:0:
256,192,189999,1,0,0:0:0:0:
256,192,190168,1,2,0:0:0:0:
256,192,190336,1,0,0:0:0:0:
256,192,190505,1,2,0:0:0:0:
256,192,190589,1,2,0:0:0:0:
256,192,190673,1,2,0:0:0:0:
256,192,190758,1,2,0:0:0:0:
256,192,190842,1,0,0:0:0:0:
256,192,190926,1,0,0:0:0:0:
256,192,191010,1,2,0:0:0:0:
256,192,191095,1,0,0:0:0:0:
256,192,191179,1,2,0:0:0:0:
256,192,191263,1,2,0:0:0:0:
256,192,191348,1,2,0:0:0:0:
256,192,191432,1,0,0:0:0:0:
256,192,191516,1,2,0:0:0:0:
256,192,191600,1,0,0:0:0:0:
256,192,191685,1,2,0:0:0:0:
256,192,191769,1,2,0:0:0:0:
256,192,191853,1,4,0:0:0:0:
256,192,200617,5,0,0:0:0:0:
256,192,201291,1,0,0:0:0:0:
256,192,201966,1,2,0:0:0:0:
256,192,202640,1,4,0:0:0:0:
256,192,203314,1,2,0:0:0:0:
256,192,203651,1,0,0:0:0:0:
256,192,203988,1,2,0:0:0:0:
256,192,204325,1,2,0:0:0:0:
256,192,204662,1,0,0:0:0:0:
256,192,205336,1,0,0:0:0:0:
256,192,205673,1,0,0:0:0:0:
256,192,206010,1,2,0:0:0:0:
256,192,206348,1,0,0:0:0:0:
256,192,206685,1,2,0:0:0:0:
256,192,207022,1,2,0:0:0:0:
256,192,207359,1,0,0:0:0:0:
256,192,208033,1,0,0:0:0:0:
256,192,208370,1,0,0:0:0:0:
256,192,208707,1,2,0:0:0:0:
256,192,209044,1,0,0:0:0:0:
256,192,209381,1,2,0:0:0:0:
256,192,209718,1,2,0:0:0:0:
256,192,210055,1,2,0:0:0:0:
256,192,210730,1,0,0:0:0:0:
256,192,211067,1,2,0:0:0:0:
256,192,211741,1,2,0:0:0:0:
256,192,212415,1,2,0:0:0:0:
256,192,212584,1,2,0:0:0:0:
256,192,212752,1,0,0:0:0:0:
256,192,213089,1,2,0:0:0:0:
256,192,213426,1,4,0:0:0:0:
256,192,213763,1,2,0:0:0:0:
256,192,213932,1,2,0:0:0:0:
256,192,214100,1,0,0:0:0:0:
256,192,214269,1,0,0:0:0:0:
256,192,214437,1,2,0:0:0:0:
256,192,214775,1,0,0:0:0:0:
256,192,214943,1,2,0:0:0:0:
256,192,215112,1,0,0:0:0:0:
256,192,215280,1,0,0:0:0:0:
256,192,215449,1,2,0:0:0:0:
256,192,215617,1,0,0:0:0:0:
256,192,215786,1,2,0:0:0:0:
256,192,216123,1,0,0:0:0:0:
256,192,216291,1,2,0:0:0:0:
256,192,216460,1,2,0:0:0:0:
256,192,216628,1,0,0:0:0:0:
256,192,216797,1,2,0:0:0:0:
256,192,216966,1,2,0:0:0:0:
256,192,217134,1,0,0:0:0:0:
256,192,217303,1,2,0:0:0:0:
256,192,217640,1,2,0:0:0:0:
256,192,217808,1,0,0:0:0:0:
256,192,217977,1,0,0:0:0:0:
256,192,218145,1,2,0:0:0:0:
256,192,218482,1,0,0:0:0:0:
256,192,218651,1,0,0:0:0:0:
256,192,218819,1,2,0:0:0:0:
256,192,218988,1,2,0:0:0:0:
256,192,219157,1,2,0:0:0:0:
256,192,219325,1,2,0:0:0:0:
256,192,219494,1,0,0:0:0:0:
256,192,219662,1,0,0:0:0:0:
256,192,219831,1,0,0:0:0:0:
256,192,219999,1,0,0:0:0:0:
256,192,220168,1,2,0:0:0:0:
256,192,220336,1,2,0:0:0:0:
256,192,220505,1,0,0:0:0:0:
256,192,220673,1,0,0:0:0:0:
256,192,220842,1,2,0:0:0:0:
256,192,221010,1,0,0:0:0:0:
256,192,221179,1,2,0:0:0:0:
256,192,221348,1,0,0:0:0:0:
256,192,221516,1,2,0:0:0:0:
256,192,221600,1,2,0:0:0:0:
256,192,221685,1,0,0:0:0:0:
256,192,221769,1,0,0:0:0:0:
256,192,221853,1,2,0:0:0:0:
256,192,221937,1,0,0:0:0:0:
256,192,222022,1,2,0:0:0:0:
256,192,222106,1,2,0:0:0:0:
256,192,222190,1,2,0:0:0:0:
256,192,222275,1,0,0:0:0:0:
256,192,222359,1,2,0:0:0:0:
256,192,222443,1,2,0:0:0:0:
256,192,222527,1,0,0:0:0:0:
256,192,222612,1,2,0:0:0:0:
256,192,222696,1,0,0:0:0:0:
256,192,222780,1,0,0:0:0:0:
256,192,222864,1,2,0:0:0:0:
256,192,222949,1,2,0:0:0:0:
256,192,223033,1,2,0:0:0:0:
256,192,223117,1,0,0:0:0:0:
256,192,223201,1,2,0:0:0:0:
256,192,223286,1,2,0:0:0:0:
256,192,223370,1,0,0:0:0:0:
256,192,223454,1,0,0:0:0:0:
256,192,223539,1,2,0:0:0:0:
256,192,223623,1,0,0:0:0:0:
256,192,223707,1,0,0:0:0:0:
256,192,223791,1,0,0:0:0:0:
256,192,223876,1,2,0:0:0:0:
256,192,223960,1,0,0:0:0:0:
256,192,224044,1,2,0:0:0:0:
256,192,224128,1,2,0:0:0:0:
256,192,224213,1,0,0:0:0:0:
256,192,224381,12,0,225561,0:0:0:0:
256,192,225898,5,0,0:0:0:0:
256,192,226235,5,0,0:0:0:0:
256,192,226572,1,6,0:0:0:0:
256,192,226909,5,4,0:0:0:0:
256,192,227078,1,2,0:0:0:0:
256,192,227162,1,2,0:0:0:0:
256,192,227246,1,0,0:0:0:0:
256,192,227331,1,0,0:0:0:0:
256,192,227415,1,2,0:0:0:0:
256,192,227499,1,0,0:0:0:0:
256,192,227584,1,2,0:0:0:0:
256,192,227668,1,2,0:0:0:0:
256,192,227752,1,0,0:0:0:0:
256,192,227836,1,0,0:0:0:0:
256,192,227921,1,2,0:0:0:0:
256,192,228005,1,0,0:0:0:0:
256,192,228089,1,2,0:0:0:0:
256,192,228258,1,0,0:0:0:0:
256,192,228342,1,0,0:0:0:0:
256,192,228426,1,2,0:0:0:0:
256,192,228510,1,0,0:0:0:0:
256,192,228595,1,2,0:0:0:0:
256,192,228679,1,2,0:0:0:0:
256,192,228763,1,0,0:0:0:0:
256,192,228848,1,0,0:0:0:0:
256,192,228932,1,2,0:0:0:0:
256,192,229016,1,2,0:0:0:0:
256,192,229100,1,2,0:0:0:0:
256,192,229185,1,0,0:0:0:0:
256,192,229269,1,2,0:0:0:0:
256,192,229437,1,2,0:0:0:0:
256,192,229606,1,0,0:0:0:0:
256,192,229775,1,2,0:0:0:0:
256,192,229859,1,0,0:0:0:0:
256,192,229943,1,2,0:0:0:0:
256,192,230027,1,2,0:0:0:0:
256,192,230112,1,0,0:0:0:0:
256,192,230196,1,0,0:0:0:0:
256,192,230280,1,2,0:0:0:0:
256,192,230364,1,0,0:0:0:0:
256,192,230449,1,0,0:0:0:0:
256,192,230533,1,2,0:0:0:0:
256,192,230617,1,0,0:0:0:0:
256,192,230786,1,2,0:0:0:0:
256,192,230870,1,0,0:0:0:0:
256,192,230954,1,0,0:0:0:0:
256,192,231039,1,0,0:0:0:0:
256,192,231123,1,2,0:0:0:0:
256,192,231207,1,2,0:0:0:0:
256,192,231291,1,0,0:0:0:0:
256,192,231460,1,2,0:0:0:0:
256,192,231628,1,2,0:0:0:0:
256,192,231713,1,0,0:0:0:0:
256,192,231797,1,0,0:0:0:0:
256,192,231881,1,2,0:0:0:0:
256,192,231966,1,0,0:0:0:0:
256,192,232134,1,0,0:0:0:0:
256,192,232303,1,2,0:0:0:0:
256,192,232471,1,2,0:0:0:0:
256,192,232555,1,2,0:0:0:0:
256,192,232640,1,0,0:0:0:0:
256,192,232724,1,0,0:0:0:0:
256,192,232808,1,2,0:0:0:0:
256,192,232892,1,0,0:0:0:0:
256,192,232977,1,2,0:0:0:0:
256,192,233061,1,2,0:0:0:0:
256,192,233145,1,0,0:0:0:0:
256,192,233230,1,2,0:0:0:0:
256,192,233314,1,0,0:0:0:0:
256,192,233398,1,0,0:0:0:0:
256,192,233482,1,2,0:0:0:0:
256,192,233651,1,2,0:0:0:0:
256,192,233735,1,2,0:0:0:0:
256,192,233819,1,2,0:0:0:0:
256,192,233904,1,0,0:0:0:0:
256,192,233988,1,2,0:0:0:0:
256,192,234072,1,2,0:0:0:0:
256,192,234157,1,0,0:0:0:0:
256,192,234241,1,0,0:0:0:0:
256,192,234325,1,2,0:0:0:0:
256,192,234409,1,0,0:0:0:0:
256,192,234494,1,2,0:0:0:0:
256,192,234578,1,2,0:0:0:0:
256,192,234662,1,0,0:0:0:0:
256,192,234831,1,2,0:0:0:0:
256,192,234915,1,2,0:0:0:0:
256,192,234999,1,0,0:0:0:0:
256,192,235168,1,0,0:0:0:0:
256,192,235252,1,0,0:0:0:0:
256,192,235336,1,2,0:0:0:0:
256,192,235421,1,0,0:0:0:0:
256,192,235505,1,2,0:0:0:0:
256,192,235589,1,2,0:0:0:0:
256,192,235673,1,0,0:0:0:0:
256,192,235842,1,2,0:0:0:0:
256,192,235926,1,0,0:0:0:0:
256,192,236010,1,2,0:0:0:0:
256,192,236179,1,2,0:0:0:0:
256,192,236263,1,2,0:0:0:0:
256,192,236348,1,0,0:0:0:0:
256,192,236516,1,0,0:0:0:0:
256,192,236685,1,2,0:0:0:0:
256,192,236852,1,0,0:0:0:0:
256,192,236937,1,0,0:0:0:0:
256,192,237021,1,2,0:0:0:0:
256,192,237105,1,0,0:0:0:0:
256,192,237189,1,2,0:0:0:0:
256,192,237358,1,4,0:0:0:0:
256,192,237526,1,4,0:0:0:0:
256,192,237695,1,6,0:0:0:0:
256,192,237864,1,2,0:0:0:0:
256,192,237948,1,2,0:0:0:0:
256,192,238032,1,0,0:0:0:0:
256,192,238117,1,0,0:0:0:0:
256,192,238201,1,2,0:0:0:0:
256,192,238285,1,0,0:0:0:0:
256,192,238370,1,2,0:0:0:0:
256,192,238454,1,2,0:0:0:0:
256,192,238538,1,0,0:0:0:0:
256,192,238622,1,0,0:0:0:0:
256,192,238707,1,2,0:0:0:0:
256,192,238791,1,0,0:0:0:0:
256,192,238875,1,2,0:0:0:0:
256,192,239044,1,0,0:0:0:0:
256,192,239128,1,0,0:0:0:0:
256,192,239212,1,2,0:0:0:0:
256,192,239296,1,0,0:0:0:0:
256,192,239381,1,2,0:0:0:0:
256,192,239465,1,2,0:0:0:0:
256,192,239549,1,0,0:0:0:0:
256,192,239634,1,0,0:0:0:0:
256,192,239718,1,2,0:0:0:0:
256,192,239802,1,2,0:0:0:0:
256,192,239886,1,2,0:0:0:0:
256,192,239971,1,0,0:0:0:0:
256,192,240055,1,2,0:0:0:0:
256,192,240223,1,2,0:0:0:0:
256,192,240392,1,0,0:0:0:0:
256,192,240561,1,2,0:0:0:0:
256,192,240645,1,2,0:0:0:0:
256,192,240729,1,0,0:0:0:0:
256,192,240813,1,2,0:0:0:0:
256,192,240898,1,0,0:0:0:0:
256,192,240982,1,0,0:0:0:0:
256,192,241066,1,2,0:0:0:0:
256,192,241150,1,0,0:0:0:0:
256,192,241235,1,2,0:0:0:0:
256,192,241319,1,2,0:0:0:0:
256,192,241403,1,0,0:0:0:0:
256,192,241572,1,2,0:0:0:0:
256,192,241656,1,2,0:0:0:0:
256,192,241741,1,0,0:0:0:0:
256,192,241825,1,2,0:0:0:0:
256,192,241909,1,0,0:0:0:0:
256,192,241994,1,0,0:0:0:0:
256,192,242077,1,2,0:0:0:0:
256,192,242246,1,2,0:0:0:0:
256,192,242414,1,2,0:0:0:0:
256,192,242499,1,0,0:0:0:0:
256,192,242583,1,0,0:0:0:0:
256,192,242667,1,2,0:0:0:0:
256,192,242752,1,0,0:0:0:0:
256,192,242920,1,0,0:0:0:0:
256,192,243089,1,2,0:0:0:0:
256,192,243173,1,2,0:0:0:0:
256,192,243257,1,2,0:0:0:0:
256,192,243341,1,2,0:0:0:0:
256,192,243426,1,0,0:0:0:0:
256,192,243510,1,0,0:0:0:0:
256,192,243594,1,2,0:0:0:0:
256,192,243678,1,0,0:0:0:0:
256,192,243763,1,2,0:0:0:0:
256,192,243847,1,2,0:0:0:0:
256,192,243931,1,0,0:0:0:0:
256,192,244016,1,2,0:0:0:0:
256,192,244100,1,0,0:0:0:0:
256,192,244268,1,2,0:0:0:0:
256,192,244353,1,0,0:0:0:0:
256,192,244437,1,2,0:0:0:0:
256,192,244521,1,2,0:0:0:0:
256,192,244605,1,2,0:0:0:0:
256,192,244690,1,0,0:0:0:0:
256,192,244774,1,2,0:0:0:0:
256,192,244858,1,2,0:0:0:0:
256,192,244943,1,0,0:0:0:0:
256,192,245027,1,0,0:0:0:0:
256,192,245111,1,2,0:0:0:0:
256,192,245195,1,0,0:0:0:0:
256,192,245280,1,2,0:0:0:0:
256,192,245364,1,2,0:0:0:0:
256,192,245448,1,0,0:0:0:0:
256,192,245617,1,2,0:0:0:0:
256,192,245701,1,2,0:0:0:0:
256,192,245785,1,0,0:0:0:0:
256,192,245870,1,2,0:0:0:0:
256,192,245954,1,0,0:0:0:0:
256,192,246038,1,0,0:0:0:0:
256,192,246122,1,2,0:0:0:0:
256,192,246207,1,2,0:0:0:0:
256,192,246291,1,0,0:0:0:0:
256,192,246376,1,0,0:0:0:0:
256,192,246460,1,2,0:0:0:0:
256,192,246544,1,0,0:0:0:0:
256,192,246628,1,2,0:0:0:0:
256,192,246713,1,2,0:0:0:0:
256,192,246797,1,0,0:0:0:0:
256,192,246881,1,2,0:0:0:0:
256,192,246966,1,0,0:0:0:0:
256,192,247050,1,0,0:0:0:0:
256,192,247134,1,2,0:0:0:0:
256,192,247302,1,0,0:0:0:0:
256,192,247387,1,0,0:0:0:0:
256,192,247471,1,2,0:0:0:0:
256,192,247640,1,2,0:0:0:0:
256,192,247724,1,0,0:0:0:0:
256,192,247808,1,2,0:0:0:0:
256,192,247892,1,2,0:0:0:0:
256,192,247977,1,2,0:0:0:0:
256,192,248061,1,2,0:0:0:0:
256,192,248145,1,0,0:0:0:0:
256,192,248230,1,0,0:0:0:0:
256,192,248314,1,0,0:0:0:0:
256,192,248398,1,0,0:0:0:0:
256,192,248482,1,6,0:0:0:0:
256,192,248651,1,2,0:0:0:0:
256,192,248735,1,2,0:0:0:0:
256,192,248819,1,0,0:0:0:0:
256,192,248904,1,2,0:0:0:0:
256,192,248988,1,0,0:0:0:0:
256,192,249072,1,0,0:0:0:0:
256,192,249157,1,2,0:0:0:0:
256,192,249241,1,0,0:0:0:0:
256,192,249325,1,2,0:0:0:0:
256,192,249409,1,2,0:0:0:0:
256,192,249494,1,0,0:0:0:0:
256,192,249662,1,0,0:0:0:0:
256,192,249831,1,2,0:0:0:0:
256,192,249999,1,0,0:0:0:0:
256,192,250084,1,0,0:0:0:0:
256,192,250168,1,2,0:0:0:0:
256,192,250252,1,0,0:0:0:0:
256,192,250336,1,2,0:0:0:0:
256,192,250421,1,2,0:0:0:0:
256,192,250505,1,0,0:0:0:0:
256,192,250589,1,2,0:0:0:0:
256,192,250673,1,0,0:0:0:0:
256,192,250758,1,0,0:0:0:0:
256,192,250842,1,2,0:0:0:0:
256,192,251010,1,2,0:0:0:0:
256,192,251179,1,0,0:0:0:0:
256,192,251348,1,0,0:0:0:0:
256,192,251432,1,0,0:0:0:0:
256,192,251516,1,2,0:0:0:0:
256,192,251685,1,0,0:0:0:0:
256,192,251853,1,2,0:0:0:0:
256,192,251937,1,2,0:0:0:0:
256,192,252022,1,2,0:0:0:0:
256,192,252106,1,0,0:0:0:0:
256,192,252190,1,0,0:0:0:0:
256,192,252359,1,2,0:0:0:0:
256,192,252443,1,2,0:0:0:0:
256,192,252527,1,0,0:0:0:0:
256,192,252696,1,0,0:0:0:0:
256,192,252780,1,0,0:0:0:0:
256,192,252864,1,2,0:0:0:0:
256,192,252949,1,0,0:0:0:0:
256,192,253033,1,2,0:0:0:0:
256,192,253117,1,2,0:0:0:0:
256,192,253201,1,0,0:0:0:0:
256,192,253286,1,0,0:0:0:0:
256,192,253370,1,2,0:0:0:0:
256,192,253454,1,0,0:0:0:0:
256,192,253539,1,2,0:0:0:0:
256,192,253707,1,0,0:0:0:0:
256,192,253876,1,2,0:0:0:0:
256,192,253960,1,2,0:0:0:0:
256,192,254044,1,2,0:0:0:0:
256,192,254128,1,2,0:0:0:0:
256,192,254213,1,0,0:0:0:0:
256,192,254297,1,2,0:0:0:0:
256,192,254381,1,0,0:0:0:0:
256,192,254466,1,0,0:0:0:0:
256,192,254550,1,2,0:0:0:0:
256,192,254634,1,0,0:0:0:0:
256,192,254718,1,2,0:0:0:0:
256,192,254803,1,2,0:0:0:0:
256,192,254887,1,0,0:0:0:0:
256,192,255055,1,0,0:0:0:0:
256,192,255140,1,0,0:0:0:0:
256,192,255224,1,2,0:0:0:0:
256,192,255308,1,0,0:0:0:0:
256,192,255392,1,2,0:0:0:0:
256,192,255477,1,2,0:0:0:0:
256,192,255561,1,0,0:0:0:0:
256,192,255645,1,2,0:0:0:0:
256,192,255730,1,0,0:0:0:0:
256,192,255814,1,0,0:0:0:0:
256,192,255898,1,2,0:0:0:0:
256,192,255982,1,2,0:0:0:0:
256,192,256067,1,0,0:0:0:0:
256,192,256151,1,2,0:0:0:0:
256,192,256235,1,0,0:0:0:0:
256,192,256404,1,2,0:0:0:0:
256,192,256488,1,0,0:0:0:0:
256,192,256572,1,2,0:0:0:0:
256,192,256657,1,2,0:0:0:0:
256,192,256741,1,2,0:0:0:0:
256,192,256825,1,2,0:0:0:0:
256,192,256909,1,0,0:0:0:0:
256,192,256994,1,0,0:0:0:0:
256,192,257078,1,2,0:0:0:0:
256,192,257162,1,2,0:0:0:0:
256,192,257246,1,0,0:0:0:0:
256,192,257331,1,2,0:0:0:0:
256,192,257415,1,0,0:0:0:0:
256,192,257499,1,2,0:0:0:0:
256,192,257584,1,0,0:0:0:0:
256,192,257668,1,0,0:0:0:0:
256,192,257752,1,2,0:0:0:0:
256,192,257836,1,0,0:0:0:0:
256,192,257921,1,2,0:0:0:0:
256,192,258089,1,2,0:0:0:0:
256,192,258173,1,0,0:0:0:0:
256,192,258258,1,2,0:0:0:0:
256,192,258426,1,2,0:0:0:0:
256,192,258510,1,2,0:0:0:0:
256,192,258595,1,0,0:0:0:0:
256,192,258679,1,0,0:0:0:0:
256,192,258763,1,2,0:0:0:0:
256,192,258932,1,2,0:0:0:0:
256,192,259100,1,0,0:0:0:0:
256,192,259185,1,0,0:0:0:0:
256,192,259269,1,2,0:0:0:0:
256,192,259437,1,0,0:0:0:0:
256,192,259522,1,2,0:0:0:0:
256,192,259606,1,0,0:0:0:0:
256,192,259775,1,0,0:0:0:0:
256,192,259859,1,0,0:0:0:0:
256,192,259942,1,2,0:0:0:0:
256,192,260027,1,0,0:0:0:0:
256,192,260195,1,0,0:0:0:0:
256,192,260279,1,2,0:0:0:0:
256,192,260449,1,0,0:0:0:0:
256,192,260617,1,2,0:0:0:0:
256,192,260786,1,2,0:0:0:0:
256,192,260870,1,0,0:0:0:0:
256,192,260954,1,2,0:0:0:0:
256,192,261123,1,0,0:0:0:0:
256,192,261207,1,2,0:0:0:0:
256,192,261376,1,2,0:0:0:0:
256,192,261460,1,0,0:0:0:0:
256,192,261628,1,2,0:0:0:0:
256,192,261797,1,2,0:0:0:0:
256,192,261966,1,0,0:0:0:0:
256,192,262134,1,0,0:0:0:0:
256,192,262218,1,2,0:0:0:0:
256,192,262303,1,0,0:0:0:0:
256,192,262471,1,0,0:0:0:0:
256,192,262555,1,0,0:0:0:0:
256,192,262640,1,2,0:0:0:0:
256,192,262724,1,0,0:0:0:0:
256,192,262892,1,0,0:0:0:0:
256,192,262977,1,2,0:0:0:0:
256,192,263145,1,0,0:0:0:0:
256,192,263314,1,0,0:0:0:0:
256,192,263482,1,2,0:0:0:0:
256,192,263567,1,2,0:0:0:0:
256,192,263651,1,0,0:0:0:0:
256,192,263819,1,0,0:0:0:0:
256,192,263988,1,2,0:0:0:0:
256,192,264072,1,0,0:0:0:0:
256,192,264241,1,0,0:0:0:0:
256,192,264325,1,2,0:0:0:0:
256,192,264494,1,0,0:0:0:0:
256,192,264578,1,0,0:0:0:0:
256,192,264662,1,2,0:0:0:0:
256,192,264831,1,2,0:0:0:0:
256,192,264999,1,2,0:0:0:0:
256,192,265168,1,2,0:0:0:0:
256,192,265336,1,0,0:0:0:0:
256,192,265505,1,0,0:0:0:0:
256,192,265673,1,0,0:0:0:0:
256,192,265842,1,0,0:0:0:0:
256,192,266010,1,2,0:0:0:0:
256,192,266179,1,2,0:0:0:0:
256,192,266348,1,0,0:0:0:0:
256,192,266516,1,0,0:0:0:0:
256,192,266685,1,2,0:0:0:0:
256,192,266853,1,0,0:0:0:0:
256,192,267022,1,2,0:0:0:0:
256,192,267190,1,0,0:0:0:0:
256,192,267359,1,2,0:0:0:0:
256,192,267443,1,2,0:0:0:0:
256,192,267527,1,0,0:0:0:0:
256,192,267612,1,0,0:0:0:0:
256,192,267696,1,2,0:0:0:0:
256,192,267780,1,0,0:0:0:0:
256,192,267864,1,2,0:0:0:0:
256,192,267949,1,2,0:0:0:0:
256,192,268033,1,2,0:0:0:0:
256,192,268117,1,0,0:0:0:0:
256,192,268201,1,2,0:0:0:0:
256,192,268286,1,2,0:0:0:0:
256,192,268370,1,0,0:0:0:0:
256,192,268454,1,0,0:0:0:0:
256,192,268539,1,2,0:0:0:0:
256,192,268623,1,0,0:0:0:0:
256,192,268707,1,2,0:0:0:0:
256,192,269044,1,0,0:0:0:0:
256,192,269213,1,0,0:0:0:0:
256,192,269381,1,2,0:0:0:0:
256,192,269718,1,6,0:0:0:0:
256,192,270055,1,4,0:0:0:0:
256,192,270223,1,0,0:0:0:0:
256,192,270307,1,0,0:0:0:0:
256,192,270392,1,2,0:0:0:0:
256,192,270560,1,2,0:0:0:0:
256,192,270644,1,0,0:0:0:0:
256,192,270729,1,0,0:0:0:0:
256,192,270813,1,2,0:0:0:0:
256,192,270897,1,0,0:0:0:0:
256,192,271066,1,0,0:0:0:0:
256,192,271234,1,2,0:0:0:0:
256,192,271319,1,0,0:0:0:0:
256,192,271403,1,2,0:0:0:0:
256,192,271571,1,2,0:0:0:0:
256,192,271656,1,2,0:0:0:0:
256,192,271740,1,0,0:0:0:0:
256,192,271824,1,0,0:0:0:0:
256,192,271909,1,2,0:0:0:0:
256,192,272077,1,0,0:0:0:0:
256,192,272246,1,2,0:0:0:0:
256,192,272330,1,0,0:0:0:0:
256,192,272414,1,0,0:0:0:0:
256,192,272583,1,2,0:0:0:0:
256,192,272751,1,0,0:0:0:0:
256,192,272920,1,0,0:0:0:0:
256,192,273004,1,0,0:0:0:0:
256,192,273088,1,2,0:0:0:0:
256,192,273257,1,0,0:0:0:0:
256,192,273341,1,0,0:0:0:0:
256,192,273425,1,2,0:0:0:0:
256,192,273510,1,0,0:0:0:0:
256,192,273594,1,2,0:0:0:0:
256,192,273762,1,0,0:0:0:0:
256,192,273931,1,2,0:0:0:0:
256,192,274015,1,2,0:0:0:0:
256,192,274100,1,0,0:0:0:0:
256,192,274268,1,2,0:0:0:0:
256,192,274437,1,0,0:0:0:0:
256,192,274605,1,2,0:0:0:0:
256,192,274689,1,2,0:0:0:0:
256,192,274774,1,0,0:0:0:0:
256,192,274858,1,0,0:0:0:0:
256,192,274942,1,2,0:0:0:0:
256,192,275111,1,0,0:0:0:0:
256,192,275279,1,2,0:0:0:0:
256,192,275448,1,0,0:0:0:0:
256,192,275616,1,0,0:0:0:0:
256,192,275701,1,0,0:0:0:0:
256,192,275785,1,2,0:0:0:0:
256,192,275953,1,2,0:0:0:0:
256,192,276038,1,0,0:0:0:0:
256,192,276122,1,2,0:0:0:0:
256,192,276206,1,0,0:0:0:0:
256,192,276291,1,0,0:0:0:0:
256,192,276459,1,0,0:0:0:0:
256,192,276628,1,2,0:0:0:0:
256,192,276712,1,2,0:0:0:0:
256,192,276796,1,2,0:0:0:0:
256,192,276965,1,0,0:0:0:0:
256,192,277133,1,2,0:0:0:0:
256,192,277218,1,2,0:0:0:0:
256,192,277302,1,0,0:0:0:0:
256,192,277470,1,0,0:0:0:0:
256,192,277555,1,0,0:0:0:0:
256,192,277639,1,2,0:0:0:0:
256,192,277723,1,0,0:0:0:0:
256,192,277807,1,0,0:0:0:0:
256,192,277976,1,2,0:0:0:0:
256,192,278144,1,0,0:0:0:0:
256,192,278313,1,2,0:0:0:0:
256,192,278397,1,2,0:0:0:0:
256,192,278482,1,0,0:0:0:0:
256,192,278650,1,2,0:0:0:0:
256,192,278819,1,0,0:0:0:0:
256,192,278987,1,2,0:0:0:0:
256,192,279156,1,0,0:0:0:0:
256,192,279240,1,2,0:0:0:0:
256,192,279324,1,0,0:0:0:0:
256,192,279493,1,2,0:0:0:0:
256,192,279661,1,2,0:0:0:0:
256,192,279830,1,2,0:0:0:0:
256,192,279998,1,0,0:0:0:0:
256,192,280167,1,2,0:0:0:0:
256,192,280335,1,2,0:0:0:0:
256,192,280504,1,4,0:0:0:0:
256,192,280673,1,4,0:0:0:0:
256,192,280841,1,6,0:0:0:0:
256,192,281010,1,0,0:0:0:0:
256,192,281094,1,0,0:0:0:0:
256,192,281179,1,2,0:0:0:0:
256,192,281347,1,2,0:0:0:0:
256,192,281431,1,0,0:0:0:0:
256,192,281516,1,2,0:0:0:0:
256,192,281600,1,2,0:0:0:0:
256,192,281684,1,0,0:0:0:0:
256,192,281853,1,0,0:0:0:0:
256,192,282021,1,2,0:0:0:0:
256,192,282106,1,0,0:0:0:0:
256,192,282190,1,2,0:0:0:0:
256,192,282358,1,2,0:0:0:0:
256,192,282443,1,2,0:0:0:0:
256,192,282527,1,0,0:0:0:0:
256,192,282611,1,0,0:0:0:0:
256,192,282696,1,2,0:0:0:0:
256,192,282864,1,0,0:0:0:0:
256,192,283033,1,2,0:0:0:0:
256,192,283117,1,2,0:0:0:0:
256,192,283201,1,0,0:0:0:0:
256,192,283370,1,2,0:0:0:0:
256,192,283538,1,0,0:0:0:0:
256,192,283707,1,0,0:0:0:0:
256,192,283791,1,0,0:0:0:0:
256,192,283875,1,2,0:0:0:0:
256,192,284044,1,0,0:0:0:0:
256,192,284128,1,0,0:0:0:0:
256,192,284212,1,2,0:0:0:0:
256,192,284297,1,0,0:0:0:0:
256,192,284381,1,2,0:0:0:0:
256,192,284549,1,0,0:0:0:0:
256,192,284718,1,2,0:0:0:0:
256,192,284802,1,2,0:0:0:0:
256,192,284887,1,2,0:0:0:0:
256,192,284971,1,2,0:0:0:0:
256,192,285055,1,0,0:0:0:0:
256,192,285224,1,0,0:0:0:0:
256,192,285392,1,2,0:0:0:0:
256,192,285476,1,0,0:0:0:0:
256,192,285560,1,2,0:0:0:0:
256,192,285729,1,0,0:0:0:0:
256,192,285898,1,2,0:0:0:0:
256,192,286066,1,0,0:0:0:0:
256,192,286235,1,0,0:0:0:0:
256,192,286320,1,2,0:0:0:0:
256,192,286404,1,2,0:0:0:0:
256,192,286488,1,2,0:0:0:0:
256,192,286572,1,0,0:0:0:0:
256,192,286740,1,2,0:0:0:0:
256,192,286825,1,0,0:0:0:0:
256,192,286909,1,2,0:0:0:0:
256,192,287078,1,0,0:0:0:0:
256,192,287247,1,2,0:0:0:0:
256,192,287331,1,2,0:0:0:0:
256,192,287415,1,0,0:0:0:0:
256,192,287583,1,2,0:0:0:0:
256,192,287752,1,0,0:0:0:0:
256,192,287920,1,2,0:0:0:0:
256,192,288005,1,2,0:0:0:0:
256,192,288088,1,0,0:0:0:0:
256,192,288257,1,0,0:0:0:0:
256,192,288342,1,0,0:0:0:0:
256,192,288426,1,2,0:0:0:0:
256,192,288510,1,0,0:0:0:0:
256,192,288594,1,0,0:0:0:0:
256,192,288763,1,2,0:0:0:0:
256,192,288932,1,0,0:0:0:0:
256,192,289015,1,2,0:0:0:0:
256,192,289099,1,0,0:0:0:0:
256,192,289185,1,0,0:0:0:0:
256,192,289268,1,2,0:0:0:0:
256,192,289352,1,0,0:0:0:0:
256,192,289437,1,2,0:0:0:0:
256,192,289521,1,2,0:0:0:0:
256,192,289605,1,0,0:0:0:0:
256,192,289690,1,2,0:0:0:0:
256,192,289775,1,0,0:0:0:0:
256,192,289858,1,0,0:0:0:0:
256,192,289942,1,2,0:0:0:0:
256,192,290026,1,0,0:0:0:0:
256,192,290111,1,2,0:0:0:0:
256,192,290196,1,0,0:0:0:0:
256,192,290280,1,2,0:0:0:0:
256,192,290617,1,0,0:0:0:0:
256,192,290954,1,2,0:0:0:0:
256,192,291291,1,0,0:0:0:0:
256,192,291628,1,4,0:0:0:0:
256,192,291966,1,0,0:0:0:0:
256,192,292303,1,0,0:0:0:0:
256,192,292471,1,2,0:0:0:0:
256,192,292640,1,0,0:0:0:0:
256,192,292808,1,0,0:0:0:0:
256,192,292977,1,2,0:0:0:0:
256,192,293314,1,2,0:0:0:0:
256,192,293482,1,0,0:0:0:0:
256,192,293651,1,2,0:0:0:0:
256,192,293819,1,2,0:0:0:0:
256,192,293988,1,0,0:0:0:0:
256,192,294325,1,0,0:0:0:0:
256,192,294494,1,2,0:0:0:0:
256,192,294662,1,0,0:0:0:0:
256,192,294999,1,0,0:0:0:0:
256,192,295168,1,0,0:0:0:0:
256,192,295336,1,2,0:0:0:0:
256,192,295505,1,0,0:0:0:0:
256,192,295673,1,2,0:0:0:0:
256,192,296010,1,0,0:0:0:0:
256,192,296179,1,2,0:0:0:0:
256,192,296348,1,0,0:0:0:0:
256,192,296516,1,2,0:0:0:0:
256,192,296685,1,0,0:0:0:0:
256,192,297022,1,0,0:0:0:0:
256,192,297358,1,0,0:0:0:0:
256,192,297695,1,0,0:0:0:0:
256,192,297864,1,2,0:0:0:0:
256,192,298032,1,0,0:0:0:0:
256,192,298201,1,0,0:0:0:0:
256,192,298369,1,2,0:0:0:0:
256,192,298706,1,2,0:0:0:0:
256,192,298875,1,0,0:0:0:0:
256,192,299043,1,2,0:0:0:0:
256,192,299212,1,2,0:0:0:0:
256,192,299380,1,0,0:0:0:0:
256,192,299717,1,0,0:0:0:0:
256,192,299886,1,2,0:0:0:0:
256,192,300055,1,0,0:0:0:0:
256,192,300392,1,2,0:0:0:0:
256,192,300560,1,2,0:0:0:0:
256,192,300729,1,0,0:0:0:0:
256,192,300897,1,2,0:0:0:0:
256,192,301066,1,0,0:0:0:0:
256,192,301403,1,0,0:0:0:0:
256,192,301571,1,0,0:0:0:0:
256,192,301740,1,2,0:0:0:0:
256,192,301908,1,2,0:0:0:0:
256,192,302077,1,0,0:0:0:0:
256,192,302414,1,4,0:0:0:0:
256,192,302751,1,0,0:0:0:0:
256,192,303088,1,0,0:0:0:0:
256,192,303425,1,0,0:0:0:0:
256,192,303762,1,0,0:0:0:0:
256,192,304100,1,0,0:0:0:0:
256,192,304437,1,0,0:0:0:0:
256,192,304774,1,0,0:0:0:0:
256,192,305111,1,0,0:0:0:0:
256,192,305448,1,0,0:0:0:0:
256,192,305785,1,0,0:0:0:0:
256,192,306122,1,0,0:0:0:0:
256,192,306459,1,0,0:0:0:0:
256,192,306796,1,0,0:0:0:0:
256,192,307133,1,0,0:0:0:0:
256,192,307470,1,0,0:0:0:0:
256,192,307639,1,0,0:0:0:0:
256,192,307807,1,0,0:0:0:0:
256,192,308144,1,0,0:0:0:0:
256,192,308482,1,0,0:0:0:0:
256,192,308819,1,0,0:0:0:0:
256,192,309156,1,0,0:0:0:0:
256,192,309493,1,0,0:0:0:0:
256,192,309830,1,0,0:0:0:0:
256,192,310167,1,0,0:0:0:0:
256,192,310504,1,0,0:0:0:0:
256,192,310673,12,0,313201,0:0:0:0:
