osu file format v14

[General]
AudioFilename: audio.mp3
AudioLeadIn: 0
PreviewTime: 34274
Countdown: 0
SampleSet: Soft
StackLeniency: 0.7
Mode: 0
LetterboxInBreaks: 0
WidescreenStoryboard: 1

[Editor]
Bookmarks: 34713,44046,84046
DistanceSpacing: 1.6
BeatDivisor: 4
GridSize: 4
TimelineZoom: 1

[Metadata]
Title:One Room Sugar Life (TV Size)
TitleUnicode:ワンルームシュガーライフ (TV Size)
Artist:Nanawo Akari
ArtistUnicode:ナナヲアカリ
Creator:Fushimi Rio
Version:Easy
Source:ハッピーシュガーライフ
Tags:happysugarlife Ezo’la ナユタン星人 ナユタセイジ Sony Music Associated Records 野良いぬ 鍵空とみやき Kongou Hikari Bariton PinkHeart Ametrin
BeatmapID:1707534
BeatmapSetID:813454

[Difficulty]
HPDrainRate:3
CircleSize:3
OverallDifficulty:3
ApproachRate:4
SliderMultiplier:0.8
SliderTickRate:1

[Events]
//Background and Video events
0,0,"bg.jpg",0,0
Video,0,"video.flv"
//Break Periods
2,35205,37686
2,40206,43019
2,71205,72353
2,84539,86353
//Storyboard Layer 0 (Background)
//Storyboard Layer 1 (Fail)
//Storyboard Layer 2 (Pass)
//Storyboard Layer 3 (Foreground)
//Storyboard Sound Samples

[TimingPoints]
340,333.333333333333,4,2,0,30,1,0
1089,-100,4,2,0,5,0,0
1173,-100,4,2,0,30,0,0
1756,-100,4,2,0,50,0,0
13673,-100,4,2,0,70,0,1
14006,-100,4,2,0,70,0,0
22006,-100,4,2,0,70,0,0
24339,-100,4,2,0,50,0,0
28673,-100,4,2,0,50,0,0
29339,-100,4,2,0,70,0,0
29673,-100,4,2,0,70,0,0
34506,-100,4,2,0,60,0,0
34673,-100,4,2,0,50,0,0
34839,-100,4,2,0,40,0,0
39006,-100,4,2,0,50,0,0
40339,-100,4,2,0,40,0,0
44339,-100,4,2,0,50,0,0
45673,-100,4,2,0,70,0,0
51006,-100,4,2,0,70,0,1
71006,-100,4,2,0,70,0,0
73339,-100,4,2,0,60,0,0
73506,-100,4,2,0,50,0,0
73673,-100,4,2,0,70,0,1
74006,-100,4,2,0,70,0,0
84006,-100,4,2,0,60,0,0
84173,-100,4,2,0,50,0,0
84339,-100,4,2,0,40,0,0

[Colours]
Combo1 : 128,128,255
Combo2 : 255,128,255

[HitObjects]
88,128,1673,6,0,P|104:196|192:208,1,160,6|0,0:0|0:0,0:0:0:0:
344,212,3006,2,0,P|328:144|240:132,1,160,2|0,0:0|0:0,0:0:0:0:
252,288,4339,2,0,B|292:344|292:344|392:344,2,160,0|0|0,0:0|0:0|0:0,0:0:0:0:
120,88,6673,1,4,0:1:0:0:
200,88,7006,6,0,L|360:88,1,160,4|0,0:1|0:0,0:0:0:0:
360,248,8339,2,0,L|200:248,1,160,0|0,0:0|0:0,0:0:0:0:
168,176,9339,1,0,3:0:0:0:
132,104,9673,2,0,B|172:68|172:68|280:68,2,160,0|0|4,0:0|0:0|3:3,0:0:0:0:
296,320,13006,6,0,L|252:252,1,80,0|0,1:0|1:0,0:0:0:0:
200,184,13673,6,0,B|168:232|168:232|60:232,2,160,4|0|0,0:2|0:0|0:0,0:0:0:0:
270,146,15339,1,0,1:0:0:0:
341,109,15673,2,0,L|387:179,1,80,4|0,1:1|1:0,0:0:0:0:
340,244,16339,6,0,B|372:292|372:292|480:292,2,160,4|0|0,0:0|0:0|0:0,0:0:0:0:
294,177,18006,1,0,1:0:0:0:
257,248,18339,2,0,L|213:316,1,80,4|0,1:0|1:0,0:0:0:0:
133,316,19006,6,0,B|101:268|101:268|-7:268,2,160,4|0|0,0:0|0:0|0:0,0:0:0:0:
174,384,20673,1,0,1:0:0:0:
214,315,21006,2,0,L|259:244,1,80,4|0,1:0|1:0,0:0:0:0:
302,181,21673,5,4,1:0:0:0:
148,224,22339,1,0,1:0:0:0:
44,102,23006,1,4,1:0:0:0:
44,260,23673,2,0,B|44:300|44:300|68:332,1,80,0|0,1:0|3:0,0:0:0:0:
148,332,24339,6,0,L|396:332,1,240,4|0,0:0|3:0,0:0:0:0:
456,288,25673,2,0,B|492:256|492:256|492:144,1,160,4|8,0:0|3:0,0:0:0:0:
344,208,27006,6,0,L|96:208,1,240,4|0,0:0|3:0,0:0:0:0:
36,164,28340,2,0,B|0:132|0:132|0:20,1,160,4|8,0:1|3:0,0:0:0:0:
80,20,29339,1,4,1:0:0:0:
160,16,29673,6,0,P|216:20|244:108,1,160,4|0,0:0|3:0,0:0:0:0:
188,168,30673,1,0,1:0:0:0:
112,196,31006,2,0,P|122:270|195:288,1,160,2|0,0:0|3:0,0:0:0:0:
248,224,32006,1,0,1:0:0:0:
232,144,32339,6,0,B|288:144|288:144|332:200,2,120,0|0|0,0:0|0:0|1:0,0:0:0:0:
172,196,33673,2,8,L|92:196,1,80,4|0,3:1|1:0,0:0:0:0:
12,196,34339,6,0,L|12:24,1,160,4|4,0:3|1:0,0:0:0:0:
136,320,39006,5,4,1:0:0:0:
216,320,39339,1,4,0:0:0:0:
296,320,39673,1,4,1:0:0:0:
376,320,40006,1,4,0:0:0:0:
376,64,44339,5,4,1:0:0:0:
296,64,44672,1,4,0:0:0:0:
216,64,45006,1,4,1:0:0:0:
136,64,45339,1,4,0:0:0:0:
108,140,45673,6,0,P|116:196|208:248,2,160,4|0|4,0:1|0:0|0:0,0:0:0:0:
0,256,47673,1,0,0:0:0:0:
108,376,48339,1,0,1:0:0:0:
396,236,49673,6,0,L|396:100,1,120,0|0,1:0|0:0,0:0:0:0:
288,284,51006,6,0,B|208:284|208:284|152:228,1,160,4|0,0:0|1:0,0:0:0:0:
0,176,52339,2,0,B|80:176|80:176|136:120,1,160,2|0,0:0|1:0,0:0:0:0:
192,60,53339,1,0,1:0:0:0:
272,60,53673,6,0,P|332:72|376:164,1,160,4|0,0:0|0:1,0:0:0:0:
376,313,55006,2,0,P|302:291|272:220,1,160,2|4,0:0|3:0,0:0:0:0:
192,220,56006,1,0,1:0:0:0:
191,298,56339,6,0,B|111:298|111:298|55:242,1,160,4|0,0:0|1:0,0:0:0:0:
33,83,57673,2,0,B|113:83|113:83|169:139,1,160,2|0,0:0|1:0,0:0:0:0:
248,120,58673,1,0,1:0:0:0:
328,120,59006,6,0,P|402:142|432:213,1,160,4|4,0:1|0:0,0:0:0:0:
432,372,60339,1,4,1:0:0:0:
352,368,60673,1,0,1:0:0:0:
352,288,61006,1,4,0:0:0:0:
191,287,61673,6,0,P|263:257|285:183,1,160,4|2,0:0|0:0,0:0:0:0:
444,184,63006,2,0,P|372:153|350:79,1,160,0|2,1:0|0:0,0:0:0:0:
192,80,64339,6,0,P|117:102|87:173,1,160,4|2,2:0|0:0,2:2:0:0:
88,256,65339,1,0,1:0:0:0:
144,312,65673,2,0,B|180:348|180:348|300:348,1,160,0|2,0:0|0:0,0:0:0:0:
345,290,66673,1,0,1:0:0:0:
398,347,67006,6,0,P|472:324|502:253,1,160,4|2,0:0|0:0,0:0:0:0:
499,95,68339,2,0,P|424:116|394:188,1,160,0|2,1:0|0:0,0:0:0:0:
234,188,69673,2,0,L|146:188,1,80,4|0,0:1|1:0,0:0:0:0:
74,188,70339,6,0,L|74:28,1,160,4|0,0:3|1:0,0:0:0:0:
312,184,73673,6,0,B|344:232|344:232|452:232,2,160,4|0|0,0:0|0:0|0:0,0:0:0:0:
232,184,75339,1,0,1:0:0:0:
151,184,75673,2,0,L|106:254,1,80,4|0,1:0|3:0,0:0:0:0:
149,319,76339,6,0,B|181:367|181:367|289:367,2,160,4|0|0,0:0|0:0|0:0,0:0:0:0:
211,269,78006,1,0,1:0:0:0:
276,222,78339,2,0,L|356:222,1,80,4|0,1:0|3:0,0:0:0:0:
417,170,79006,6,0,B|385:122|385:122|277:122,2,160,4|0|0,0:0|0:0|0:0,0:0:0:0:
367,233,80673,1,2,0:0:0:0:
311,290,81006,2,0,L|265:219,1,80,4|0,1:0|3:0,0:0:0:0:
223,154,81673,5,4,0:0:0:0:
135,290,82339,1,0,0:0:0:0:
0,202,83006,1,0,0:0:0:0:
86,66,83673,6,0,B|143:118|143:118|143:202,1,160,4|4,3:0|1:0,0:0:0:0:
256,228,87673,6,0,B|256:292,2,60,0|0|0,1:0|1:0|1:0,0:0:0:0:
256,188,88339,1,0,0:0:0:0:
