osu file format v14

[General]
AudioFilename: audio.mp3
AudioLeadIn: 0
PreviewTime: 34274
Countdown: 0
SampleSet: Soft
StackLeniency: 0.4
Mode: 0
LetterboxInBreaks: 0
WidescreenStoryboard: 1

[Editor]
Bookmarks: 34713,44046,58129,70040,84046
DistanceSpacing: 1.1
BeatDivisor: 4
GridSize: 32
TimelineZoom: 1.6

[Metadata]
Title:One Room Sugar Life (TV Size)
TitleUnicode:ワンルームシュガーライフ (TV Size)
Artist:Nanawo Akari
ArtistUnicode:ナナヲアカリ
Creator:Fushimi Rio
Version:Bariton's Insane
Source:ハッピーシュガーライフ
Tags:happysugarlife Ezo’la ナユタン星人 ナユタセイジ Sony Music Associated Records 野良いぬ 鍵空とみやき Kongou Hikari Bariton PinkHeart Ametrin
BeatmapID:1707638
BeatmapSetID:813454

[Difficulty]
HPDrainRate:7.2
CircleSize:4
OverallDifficulty:8
ApproachRate:9
SliderMultiplier:1.76
SliderTickRate:1

[Events]
//Background and Video events
0,0,"bg.jpg",0,0
Video,0,"video.flv"
//Break Periods
//Storyboard Layer 0 (Background)
//Storyboard Layer 1 (Fail)
//Storyboard Layer 2 (Pass)
//Storyboard Layer 3 (Foreground)
//Storyboard Sound Samples

[TimingPoints]
340,333.333333333333,4,2,0,30,1,0
340,-133.333333333333,4,2,0,30,0,0
1089,-133.333333333333,4,2,0,5,0,0
1173,-133.333333333333,4,2,0,30,0,0
1273,-111.111111111111,4,2,0,30,0,0
13673,-76.9230769230769,4,2,0,70,0,1
14006,-83.3333333333333,4,2,0,70,0,0
22006,-66.6666666666667,4,2,0,70,0,0
22256,-66.6666666666667,4,2,0,5,0,0
22339,-83.3333333333333,4,2,0,70,0,0
22673,-66.6666666666667,4,2,0,70,0,0
22923,-66.6666666666667,4,2,0,5,0,0
23006,-83.3333333333333,4,2,0,70,0,0
23339,-76.9230769230769,4,2,0,70,0,0
24339,-107.52688172043,4,2,0,50,0,0
28673,-100,4,2,0,50,0,0
29339,-66.6666666666667,4,2,0,70,0,0
29673,-95.2380952380952,4,2,0,70,0,0
34673,-100,4,2,0,50,0,0
34839,-100,4,2,0,40,0,0
35006,-133.333333333333,4,2,0,40,0,0
39006,-66.6666666666667,4,2,0,50,0,0
40339,-133.333333333333,4,2,0,40,0,0
44339,-50,4,2,0,50,0,0
45673,-111.111111111111,4,2,0,70,0,0
51006,-83.3333333333333,4,2,0,70,0,1
56006,-133.333333333333,4,2,0,70,0,1
56339,-83.3333333333333,4,2,0,70,0,1
62006,-66.6666666666667,4,2,0,70,0,1
62339,-83.3333333333333,4,2,0,70,0,1
67339,-66.6666666666667,4,2,0,70,0,1
67673,-83.3333333333333,4,2,0,70,0,1
71006,-100,4,2,0,70,0,0
73339,-66.6666666666667,4,2,0,60,0,0
73506,-50,4,2,0,50,0,0
73673,-76.9230769230769,4,2,0,70,0,1
74006,-83.3333333333333,4,2,0,70,0,0
84006,-66.6666666666667,4,2,0,60,0,0
84173,-55.5555555555556,4,2,0,50,0,0
84339,-133.333333333333,4,2,0,40,0,0
87673,-33.3333333333333,4,2,0,50,0,0
88173,-285.714285714284,4,2,0,50,0,0

[Colours]
Combo1 : 128,128,255
Combo2 : 255,128,255

[HitObjects]
74,238,1673,5,6,0:0:0:0:
141,193,1839,1,0,0:0:0:0:
226,284,2006,1,0,0:0:0:0:
284,228,2173,2,0,L|367:235,1,79.1999975830079,2|0,0:0|0:0,0:0:0:0:
478,171,2506,5,0,0:0:0:0:
460,162,2673,1,0,0:0:0:0:
447,178,2839,1,0,0:0:0:0:
374,319,3006,5,2,0:0:0:0:
440,276,3173,1,0,0:0:0:0:
343,157,3339,1,0,0:0:0:0:
289,214,3506,2,0,P|339:236|376:230,1,79.1999975830079,2|0,0:0|0:0,0:0:0:0:
409,97,3839,5,0,0:0:0:0:
332,54,4006,1,0,0:0:0:0:
269,114,4173,2,0,L|171:98,1,79.1999975830079,0|0,0:0|0:0,0:0:0:0:
65,215,4506,53,0,0:0:0:0:
126,153,4673,1,2,0:0:0:0:
91,73,4839,1,0,0:0:0:0:
65,215,5006,5,0,0:0:0:0:
141,256,5173,1,0,0:0:0:0:
218,216,5339,1,0,0:0:0:0:
306,280,5506,1,2,0:0:0:0:
341,258,5673,5,0,0:0:0:0:
341,258,6006,1,0,0:0:0:0:
341,258,6339,1,0,0:0:0:0:
341,258,6673,2,0,L|426:268,1,79.1999975830079,4|0,0:1|0:0,0:0:0:0:
495,145,7006,6,0,P|438:134|411:146,1,79.1999975830079,4|0,0:1|0:0,0:0:0:0:
336,75,7339,1,0,3:0:0:0:
319,89,7506,2,0,L|235:75,1,79.1999975830079,0|0,0:0|0:0,0:0:0:0:
122,214,7839,5,0,0:0:0:0:
179,148,8006,1,0,3:0:0:0:
150,65,8173,1,0,0:0:0:0:
122,214,8339,5,0,0:0:0:0:
240,75,8506,1,0,0:0:0:0:
94,131,8673,1,0,3:0:0:0:
210,228,8839,2,0,L|291:217,1,79.1999975830079
397,318,9173,5,0,0:0:0:0:
389,303,9339,1,0,3:0:0:0:
407,305,9506,1,0,0:0:0:0:
288,217,9673,6,0,P|273:172|369:122,1,158.399995166016,0|0,0:0|3:0,0:0:0:0:
424,160,10173,1,0,0:0:0:0:
490,104,10339,2,0,P|499:61|483:17,1,79.1999975830079,0|0,0:0|0:0,0:0:0:0:
350,114,10673,1,0,3:0:0:0:
490,104,10839,1,0,1:0:0:0:
283,38,11006,5,4,3:3:0:0:
339,220,11173,1,0,1:0:0:0:
378,17,11339,1,0,1:0:0:0:
258,257,11506,1,0,1:0:0:0:
422,128,11673,1,0,1:0:0:0:
56,91,12339,6,0,L|111:79,3,39.5999987915039,4|0|0|0,1:0|3:0|3:0|3:0,0:0:0:0:
130,108,12673,1,0,1:0:0:0:
164,126,12756,1,0,3:0:0:0:
203,130,12839,1,0,3:0:0:0:
241,119,12923,1,0,3:0:0:0:
272,94,13006,5,0,1:0:0:0:
239,275,13173,1,0,1:0:0:0:
361,67,13339,1,0,1:0:0:0:
180,211,13506,1,0,1:0:0:0:
346,307,13673,5,4,0:2:0:0:
355,301,13756,2,0,B|443:288|417:363|517:348,1,171.599992144776,0|0,0:0|1:0,0:0:0:0:
493,269,14173,1,0,0:0:0:0:
412,146,14339,5,0,0:0:0:0:
404,138,14423,2,0,P|336:132|326:228,1,158.399995166016,0|0,0:0|1:0,0:0:0:0:
396,233,14839,1,0,0:0:0:0:
475,46,15006,5,0,0:0:0:0:
466,52,15089,2,0,P|406:55|297:23,1,158.399995166016,0|0,0:0|1:0,0:0:0:0:
238,86,15506,1,0,0:0:0:0:
92,15,15673,5,4,1:1:0:0:
157,214,15839,1,0,0:0:0:0:
170,37,16006,1,0,1:0:0:0:
74,237,16173,1,0,1:0:0:0:
201,326,16339,5,4,0:0:0:0:
210,319,16423,2,0,B|239:300|239:300|380:329,1,158.399995166016,0|0,0:0|1:0,0:0:0:0:
433,273,16839,1,0,0:0:0:0:
364,124,17006,5,0,0:0:0:0:
354,119,17089,2,0,P|303:150|337:240,1,158.399995166016,0|0,0:0|1:0,0:0:0:0:
434,182,17506,1,0,0:0:0:0:
299,40,17673,5,0,0:0:0:0:
288,45,17756,2,0,B|200:66|222:-7|134:9,1,158.399995166016,0|0,0:0|1:0,0:0:0:0:
72,75,18173,1,0,0:0:0:0:
183,209,18339,5,4,1:0:0:0:
154,85,18506,1,0,1:0:0:0:
67,264,18673,1,0,1:0:0:0:
67,264,18756,1,0,0:0:0:0:
67,264,18839,2,0,L|120:273,1,52.7999983886719,0|0,1:0|0:0,0:0:0:0:
236,279,19006,5,4,0:0:0:0:
243,273,19089,2,0,P|256:209|175:225,1,158.399995166016,0|0,0:0|1:0,0:0:0:0:
168,337,19506,1,0,0:0:0:0:
337,266,19673,5,0,0:0:0:0:
344,260,19756,2,0,B|363:250|363:250|462:295|462:295|489:278,1,158.399995166016,0|0,0:0|1:0,0:0:0:0:
446,195,20173,1,0,0:0:0:0:
505,60,20339,5,0,0:0:0:0:
500,52,20423,2,0,P|448:27|395:105,1,158.399995166016,0|0,0:0|1:0,0:0:0:0:
502,140,20839,1,0,0:0:0:0:
314,46,21006,5,4,1:0:0:0:
363,178,21173,1,0,0:0:0:0:
397,13,21339,1,0,1:0:0:0:
281,208,21506,1,0,1:0:0:0:
161,136,21673,5,4,1:0:0:0:
13,266,21839,1,0,0:0:0:0:
46,128,22006,2,0,P|80:210|17:293,1,198.000007553101,4|0,0:0|0:0,0:0:0:0:
132,343,22339,5,0,1:0:0:0:
395,289,22506,1,0,0:0:0:0:
230,352,22673,2,0,B|340:380|298:280|422:305,1,198.000007553101,4|0,0:0|0:0,0:0:0:0:
478,344,23006,5,4,1:0:0:0:
367,220,23173,1,0,1:0:0:0:
478,247,23339,5,0,1:0:0:0:
273,240,23506,1,0,1:0:0:0:
466,216,23673,5,0,1:0:0:0:
341,125,23839,2,0,L|411:133,1,57.1999973815919,0|0,3:0|3:0,0:0:0:0:
480,41,24006,1,0,3:0:0:0:
480,41,24089,1,0,3:0:0:0:
480,41,24173,2,0,L|410:49,1,57.1999973815919,0|0,3:0|3:0,0:0:0:0:
341,125,24339,6,0,P|257:146|199:88,1,163.680005119995,4|0,0:0|0:0,0:0:0:0:
140,142,24839,1,0,0:0:0:0:
140,142,25006,5,8,0:3:0:0:
52,105,25173,1,4,3:0:0:0:
101,184,25339,1,0,3:0:0:0:
52,105,25506,1,0,0:0:0:0:
29,223,25673,6,0,P|83:261|170:226,1,163.680005119995,4|0,0:0|0:0,0:0:0:0:
231,280,26173,1,0,3:0:0:0:
240,284,26256,1,0,3:0:0:0:
262,278,26339,5,8,3:0:0:0:
297,365,26506,1,0,3:0:0:0:
334,307,26673,1,4,3:0:0:0:
365,335,26839,1,0,0:0:0:0:
465,215,27006,6,0,P|412:178|328:218,1,163.680005119995,4|0,0:0|0:0,0:0:0:0:
245,151,27506,1,0,0:0:0:0:
314,60,27673,5,0,3:0:0:0:
233,74,27839,1,4,3:0:0:0:
334,141,28006,1,0,3:0:0:0:
314,60,28173,1,0,0:0:0:0:
164,138,28339,6,0,P|123:147|68:123,1,81.8400025599976,4|0,0:1|0:0,0:0:0:0:
11,19,28673,2,0,L|104:31,1,88,4|0,0:0|0:0,0:0:0:0:
254,126,29006,5,8,3:0:0:0:
246,144,29089,1,0,3:0:0:0:
281,165,29173,1,0,3:0:0:0:
257,173,29256,1,0,3:0:0:0:
267,184,29339,38,0,B|277:314|277:314|279:279|307:252,1,198.000007553101,4|0,1:0|0:0,0:0:0:0:
357,313,29673,6,0,L|449:302,1,92.3999971801759,4|0,0:0|0:0,0:0:0:0:
503,193,30006,1,0,1:0:0:0:
450,134,30173,2,0,P|397:125|355:144,1,92.3999971801759,0|0,0:0|3:0,0:0:0:0:
224,91,30506,5,0,0:0:0:0:
292,188,30673,1,0,1:0:0:0:
312,47,30839,1,0,0:0:0:0:
194,103,31006,6,0,L|88:84,1,92.3999971801759,2|0,0:0|0:0,0:0:0:0:
17,198,31339,2,0,P|84:234|169:179,1,184.799994360352,2|0,1:2|3:0,0:0:0:0:
233,229,31839,1,0,0:0:0:0:
154,348,32006,1,0,1:0:0:0:
257,318,32173,5,0,0:0:0:0:
320,364,32339,2,0,P|369:376|423:354,1,92.3999971801759,0|0,0:0|0:0,0:0:0:0:
463,257,32673,1,0,1:0:0:0:
408,198,32839,2,0,L|430:103,1,92.3999971801759,0|0,0:0|3:0,0:0:0:0:
294,20,33173,5,0,0:0:0:0:
337,140,33339,1,0,1:0:0:0:
268,100,33506,2,0,P|221:91|175:109,1,92.3999971801759,0|0,0:0|3:1,0:0:0:0:
98,210,33839,1,0,0:0:0:0:
170,238,34006,2,8,P|220:204|159:102,1,184.799994360352,0|0,1:0|3:0,0:0:0:0:
32,259,34506,5,0,1:0:0:0:
98,210,34673,5,0,1:0:0:0:
170,238,34839,5,0,1:0:0:0:
128,352,35006,6,0,L|224:352,1,66.0000025177003,4|0,1:0|0:0,0:0:0:0:
256,320,35256,2,0,L|352:320,1,66.0000025177003,0|0,3:0|3:0,0:0:0:0:
384,352,35506,1,0,3:0:0:0:
384,224,35673,2,0,L|384:128,1,66.0000025177003,0|0,3:0|0:0,0:0:0:0:
416,96,35923,2,0,L|416:30,1,66.0000025177003,0|0,3:0|3:0,0:0:0:0:
346,30,36173,1,0,3:0:0:0:
288,128,36339,6,0,L|192:128,1,66.0000025177003,0|0,3:0|3:0,0:0:0:0:
160,96,36589,1,0,3:0:0:0:
160,96,36673,2,0,L|64:96,1,66.0000025177003,0|0,0:0|3:0,0:0:0:0:
32,128,36923,1,0,0:0:0:0:
32,128,37006,2,0,L|32:224,1,66.0000025177003,0|0,3:0|3:0,0:0:0:0:
32,265,37256,1,0,3:0:0:0:
160,320,37506,1,0,3:0:0:0:
256,256,37673,6,0,L|352:256,1,66.0000025177003,0|0,3:0|0:0,0:0:0:0:
393,288,37923,2,0,L|393:192,1,66.0000025177003,0|0,3:0|0:0,0:0:0:0:
361,159,38173,1,0,3:0:0:0:
411,32,38339,2,0,L|347:32,2,33.0000012588501,0|0|0,3:0|3:0|3:0,0:0:0:0:
480,64,38589,1,0,3:0:0:0:
480,64,38673,2,0,L|480:160,1,66.0000025177003,0|0,0:0|3:0,0:0:0:0:
352,160,39006,6,0,P|292:129|222:147,1,132.000005035401,4|0,1:0|0:0,0:0:0:0:
94,284,39339,2,0,L|235:309,1,132.000005035401,4|0,0:0|0:0,0:0:0:0:
167,71,39673,6,0,B|142:130|142:130|159:198,1,132.000005035401,0|0,1:0|0:0,0:0:0:0:
317,226,39923,1,0,0:0:0:0:
317,226,40006,2,0,P|286:164|207:141,1,132.000005035401,4|0,0:0|0:0,0:0:0:0:
64,202,40339,6,0,L|64:106,1,66.0000025177003,4|0,1:0|3:0,0:0:0:0:
32,64,40589,2,0,L|128:64,1,66.0000025177003,0|0,3:0|3:0,0:0:0:0:
162,32,40839,1,0,3:0:0:0:
256,96,41006,2,0,L|352:96,1,66.0000025177003,0|0,3:0|3:0,0:0:0:0:
393,64,41256,2,0,L|393:160,1,66.0000025177003,0|0,3:0|3:0,0:0:0:0:
361,194,41506,1,0,3:0:0:0:
480,255,41673,5,0,3:0:0:0:
480,255,41756,2,0,L|480:351,1,66.0000025177003
416,352,42006,1,0,3:0:0:0:
416,352,42089,2,0,L|320:352,1,66.0000025177003,0|0,3:0|0:0,0:0:0:0:
288,320,42339,2,0,L|192:320,1,66.0000025177003,0|0,3:0|3:0,0:0:0:0:
96,320,42673,1,0,3:0:0:0:
96,192,42839,1,0,3:0:0:0:
96,192,42923,1,0,0:0:0:0:
96,192,43006,6,0,L|96:96,1,66.0000025177003,0|0,3:0|0:0,0:0:0:0:
64,25,43339,1,0,3:0:0:0:
160,32,43506,1,0,3:0:0:0:
160,32,43589,1,0,3:0:0:0:
160,32,43673,2,0,L|256:32,1,66.0000025177003,0|0,3:0|3:0,0:0:0:0:
288,64,43923,2,0,L|384:64,1,66.0000025177003,0|0,3:0|3:0,0:0:0:0:
416,32,44173,2,0,L|480:32,1,33.0000012588501,0|0,3:0|3:0,0:0:0:0:
512,96,44339,5,4,1:0:0:0:
305,241,44506,1,0,0:0:0:0:
500,113,44673,5,4,0:0:0:0:
397,267,44839,1,0,0:0:0:0:
488,130,45006,5,4,1:0:0:0:
488,130,45339,1,4,0:0:0:0:
476,222,45506,1,0,0:0:0:0:
397,267,45673,6,0,P|310:247|281:182,1,158.399995166016,4|0,0:1|0:0,0:0:0:0:
348,96,46173,1,0,0:0:0:0:
348,96,46256,1,0,0:0:0:0:
348,96,46339,6,0,L|172:123,1,158.399995166016,0|0,0:0|0:0,0:0:0:0:
98,58,46839,1,0,3:0:0:0:
89,64,46923,1,0,3:0:0:0:
99,70,47006,6,0,L|91:166,1,79.1999975830079,4|0,0:0|0:0,0:0:0:0:
85,287,47339,1,0,1:0:0:0:
13,191,47506,1,0,3:0:0:0:
163,258,47673,2,0,P|166:309|140:353,1,79.1999975830079,0|0,0:0|0:0,0:0:0:0:
92,148,48006,1,0,1:3:0:0:
163,258,48173,1,0,0:0:0:0:
307,143,48339,5,0,1:0:0:0:
307,143,49673,5,0,1:0:0:0:
308,137,49756,1,0,3:0:0:0:
311,133,49839,5,0,3:0:0:0:
316,131,49923,1,0,3:0:0:0:
321,134,50006,5,0,3:0:0:0:
323,139,50089,1,0,3:0:0:0:
322,144,50173,5,0,3:0:0:0:
317,147,50256,1,0,3:0:0:0:
194,86,51006,37,4,0:0:0:0:
234,275,51173,1,0,0:0:0:0:
327,223,51339,5,0,1:0:0:0:
251,180,51506,2,0,B|145:168|169:261|58:238,1,211.199993554688
57,237,51923,1,0,0:0:0:0:
57,237,52006,1,0,1:0:0:0:
92,160,52173,1,0,0:0:0:0:
10,306,52339,5,0,0:0:0:0:
155,214,52506,1,0,0:0:0:0:
40,95,52673,5,0,1:0:0:0:
77,22,52839,2,0,P|127:39|83:160,1,211.199993554688,0|0,0:0|0:0,0:0:0:0:
0,29,53339,1,0,1:0:0:0:
151,84,53506,6,0,P|216:95|344:37,1,211.199993554688,0|0,0:0|0:0,0:0:0:0:
439,104,54006,1,0,1:0:0:0:
378,203,54173,1,0,0:0:0:0:
474,316,54339,2,0,P|494:257|472:205,1,105.599996777344,0|0,0:0|0:0,0:0:0:0:
387,358,54673,1,0,1:0:0:0:
322,305,54839,6,0,B|208:269|235:369|118:326,1,211.199993554688,0|0,0:0|0:0,0:0:0:0:
43,203,55339,1,0,1:0:0:0:
168,256,55506,1,0,0:0:0:0:
38,358,55673,1,4,3:0:0:0:
137,159,55839,5,0,3:0:0:0:
268,259,56006,1,0,1:0:0:0:
313,272,56089,1,0,3:0:0:0:
362,269,56172,1,0,3:0:0:0:
405,248,56256,1,0,3:0:0:0:
439,214,56339,5,4,0:0:0:0:
390,351,56506,1,0,0:0:0:0:
356,166,56673,1,0,1:0:0:0:
487,286,56839,2,0,P|520:229|472:138,1,158.399995166016,0|0,0:0|0:0,0:0:0:0:
472,138,57173,5,0,0:0:0:0:
366,186,57339,1,0,1:0:0:0:
258,140,57506,1,0,0:0:0:0:
395,98,57673,5,0,0:0:0:0:
271,230,57839,1,0,0:0:0:0:
312,57,58006,1,0,1:0:0:0:
346,280,58173,2,0,L|360:402,1,105.599996777344,0|0,0:0|0:0,0:0:0:0:
448,242,58506,5,0,0:0:0:0:
343,192,58673,1,0,1:0:0:0:
223,305,58839,2,0,L|153:290,1,52.7999983886719,0|0,0:0|0:0,0:0:0:0:
148,301,59006,6,0,P|104:239|185:143,1,211.199993554688,4|0,0:1|1:0,0:0:0:0:
271,230,59506,1,0,0:0:0:0:
176,144,59673,2,0,P|162:86|184:39,1,105.599996777344,4|0,0:0|0:0,0:0:0:0:
372,198,60006,2,0,L|346:314,1,105.599996777344,0|0,1:0|0:0,0:0:0:0:
293,137,60339,5,4,1:0:0:0:
464,175,60506,1,0,1:0:0:0:
263,49,60673,5,0,1:0:0:0:
497,197,60839,1,0,1:0:0:0:
497,197,60923,1,0,0:0:0:0:
497,197,61006,5,4,0:0:0:0:
348,301,61173,1,0,3:0:0:0:
303,327,61256,1,0,3:0:0:0:
251,323,61339,1,0,3:0:0:0:
211,290,61423,1,0,3:0:0:0:
167,262,61506,1,0,3:0:0:0:
114,261,61589,1,0,3:0:0:0:
69,287,61673,6,0,P|102:238|46:145,1,158.399995166016,4|0,0:0|0:0,0:0:0:0:
55,146,62006,6,0,P|124:158|188:84,1,132.000005035401,0|2,1:0|0:0,0:0:0:0:
382,73,62339,6,0,B|344:33|271:37|238:65|238:65|263:97|309:95,1,211.199993554688,0|0,0:0|1:0,0:0:0:0:
439,140,62839,2,0,P|467:84|448:21,1,105.599996777344,0|0,0:0|0:0,0:0:0:0:
328,197,63173,2,0,L|354:306,1,105.599996777344,0|0,0:0|1:0,0:0:0:0:
488,356,63506,1,2,0:0:0:0:
488,356,63589,1,2,0:0:0:0:
488,356,63673,6,0,B|397:293|382:402|285:336,1,211.199993554688,0|0,0:0|1:0,0:0:0:0:
180,240,64173,2,0,P|128:237|81:266,1,105.599996777344,0|0,0:0|2:0,2:2:0:0:
288,338,64506,2,0,L|314:229,1,105.599996777344,0|0,0:0|1:0,0:0:0:0:
184,60,64839,5,2,0:0:0:0:
238,196,65006,1,0,0:0:0:0:
310,36,65173,1,0,0:0:0:0:
164,151,65339,1,0,1:0:0:0:
310,36,65506,2,0,L|417:58,1,105.599996777344,0|0,0:0|0:0,0:0:0:0:
162,243,65839,2,0,P|102:214|121:73,1,211.199993554688,0|0,0:0|0:0,0:0:0:0:
297,245,66339,5,2,0:0:0:0:
251,317,66506,1,0,0:0:0:0:
277,159,66673,5,0,1:0:0:0:
382,225,66840,1,0,3:0:0:0:
382,225,66923,1,0,3:0:0:0:
382,225,67006,6,0,P|429:165|405:80,1,158.399995166016,4|0,0:0|0:0,0:0:0:0:
402,75,67339,6,0,B|336:42|337:105|264:71,1,132.000005035401,0|2,1:0|0:0,0:0:0:0:
83,107,67673,6,0,B|58:94|50:72|50:72|119:47|175:82|190:138,1,211.199993554688,0|0,0:0|1:0,0:0:0:0:
85,294,68173,2,0,L|49:189,1,105.599996777344,0|0,0:0|0:0,0:0:0:0:
234,348,68506,2,0,L|270:243,1,105.599996777344,0|0,0:0|1:0,0:0:0:0:
85,294,68839,5,2,0:0:0:0:
218,182,69006,2,0,P|280:168|324:187,1,105.599996777344
446,271,69339,5,0,1:0:0:0:
504,171,69506,2,0,L|475:53,1,105.599996777344,0|4,0:0|0:1,0:0:0:0:
348,278,69839,2,0,P|401:291|456:262,1,105.599996777344,0|0,0:0|1:0,0:0:0:0:
353,92,70173,1,2,0:0:0:0:
224,195,70339,5,4,0:3:0:0:
434,129,70506,1,0,1:0:0:0:
269,102,70673,1,0,1:0:0:0:
492,200,70839,1,0,1:0:0:0:
145,105,71006,5,0,1:0:0:0:
145,105,73006,53,0,0:1:0:0:
149,113,73089,1,0,0:0:0:0:
153,121,73173,6,0,L|175:177,1,44,0|0,1:0|0:0,0:0:0:0:
219,52,73339,6,0,L|245:119,1,66.0000025177003,0|0,1:0|0:0,0:0:0:0:
291,0,73506,6,0,L|324:85,1,88,0|0,1:0|0:0,0:0:0:0:
385,222,73673,5,4,0:0:0:0:
390,232,73756,2,0,P|336:288|248:257,1,171.599992144776,0|0,0:0|1:0,0:0:0:0:
195,315,74173,1,0,0:0:0:0:
70,233,74339,5,0,0:0:0:0:
77,223,74423,2,0,B|126:142|126:142|112:104|68:98,1,158.399995166016,0|0,0:0|1:0,0:0:0:0:
16,159,74839,1,0,0:0:0:0:
151,37,75006,5,0,0:0:0:0:
158,45,75089,2,0,B|224:90|239:17|314:61,1,158.399995166016,0|0,0:0|1:0,0:0:0:0:
394,17,75506,1,0,0:0:0:0:
342,213,75673,5,4,1:0:0:0:
264,126,75839,1,0,0:0:0:0:
406,153,76006,1,0,1:0:0:0:
296,282,76173,1,0,1:0:0:0:
435,364,76339,5,4,0:0:0:0:
429,357,76423,2,0,B|399:334|399:334|274:379,1,158.399995166016,0|0,0:0|1:0,0:0:0:0:
221,320,76839,1,0,0:0:0:0:
89,360,77006,5,0,0:0:0:0:
78,362,77089,2,0,P|14:332|22:248,1,158.399995166016,0|0,0:0|1:0,0:0:0:0:
97,276,77506,1,0,0:0:0:0:
190,129,77673,5,0,0:0:0:0:
183,123,77756,2,0,L|27:154,1,158.399995166016,0|0,0:0|1:0,0:0:0:0:
86,94,78173,1,0,0:0:0:0:
217,217,78339,5,4,1:0:0:0:
170,28,78506,1,0,1:0:0:0:
133,244,78673,1,0,1:0:0:0:
166,283,78756,1,0,0:0:0:0:
216,299,78839,1,0,1:0:0:0:
266,285,78922,1,0,0:0:0:0:
300,246,79006,6,0,P|341:228|390:348,1,211.199993554688,4|0,0:0|1:0,0:0:0:0:
448,269,79506,1,0,0:0:0:0:
352,131,79673,5,0,0:0:0:0:
343,123,79756,2,0,P|330:64|418:22,1,158.399995166016,0|0,0:0|1:0,0:0:0:0:
439,157,80173,1,0,0:0:0:0:
232,80,80339,5,0,0:0:0:0:
223,75,80423,2,0,P|141:78|43:119,1,158.399995166016,0|0,0:0|1:0,0:0:0:0:
18,169,80839,1,0,0:0:0:0:
185,247,81006,5,4,1:0:0:0:
106,180,81173,1,0,0:0:0:0:
129,319,81339,1,0,1:0:0:0:
192,157,81506,1,0,3:0:0:0:
261,326,81673,69,4,0:0:0:0:
267,334,81756,2,0,P|335:359|403:298,1,158.399995166016,0|0,0:0|1:0,0:0:0:0:
349,251,82173,1,0,0:0:0:0:
472,359,82339,5,0,0:0:0:0:
465,352,82423,2,0,P|444:285|464:185,1,158.399995166016,0|0,0:0|1:0,0:0:0:0:
508,138,82839,1,0,0:0:0:0:
423,35,83006,5,0,0:0:0:0:
415,40,83089,2,0,L|251:25,1,158.399995166016,0|0,0:0|1:0,0:0:0:0:
173,91,83506,1,0,0:0:0:0:
42,28,83673,53,4,3:0:0:0:
42,28,83756,1,4,0:3:0:0:
42,28,83839,6,0,L|35:91,1,52.7999983886719,0|0,1:0|0:0,0:0:0:0:
126,168,84006,6,0,L|133:237,1,66.0000025177003,0|0,1:0|0:0,0:0:0:0:
29,293,84173,6,0,L|20:372,1,79.1999975830079,0|0,1:0|0:0,0:0:0:0:
160,320,84339,5,4,1:0:0:0:
160,320,84423,2,0,L|211:320,1,33.0000012588501,0|0,3:0|3:0,0:0:0:0:
256,288,84589,2,0,L|352:288,1,66.0000025177003,0|0,0:0|3:0,0:0:0:0:
320,352,84839,1,0,0:0:0:0:
448,352,85006,2,0,L|448:256,1,66.0000025177003,0|0,3:0|0:0,0:0:0:0:
416,224,85256,1,0,0:0:0:0:
416,224,85339,2,0,L|416:160,1,33.0000012588501,0|0,3:0|3:0,0:0:0:0:
448,128,85506,1,0,0:0:0:0:
480,0,85673,6,0,L|416:0,1,33.0000012588501,0|0,3:0|3:0,0:0:0:0:
352,64,85923,1,0,0:0:0:0:
352,64,86006,2,0,L|256:64,1,66.0000025177003,0|0,3:0|0:0,0:0:0:0:
192,128,86339,2,0,L|96:128,1,66.0000025177003,0|0,3:0|3:0,0:0:0:0:
32,64,86673,1,0,3:0:0:0:
32,64,86756,1,0,0:0:0:0:
32,64,86839,2,0,L|32:128,1,33.0000012588501,0|0,3:0|3:0,0:0:0:0:
64,160,87006,5,0,3:0:0:0:
49,239,87339,1,0,3:0:0:0:
119,279,87589,1,0,3:0:0:0:
125,275,87673,6,0,B|263:228|232:366|375:321,1,264.000010070801,0|0,1:0|0:0,0:0:0:0:
437,362,87923,6,0,B|394:176|394:176|417:222|469:230,1,264.000010070801,0|0,1:0|0:0,0:0:0:0:
468,149,88173,6,0,L|457:115,1,30.7999990600586,0|0,1:0|0:0,0:0:0:0:
