osu file format v14

[General]
AudioFilename: audio.mp3
AudioLeadIn: 0
PreviewTime: 34274
Countdown: 0
SampleSet: Soft
StackLeniency: 0.7
Mode: 0
LetterboxInBreaks: 0
WidescreenStoryboard: 1

[Editor]
Bookmarks: 20274,34713,44046,84046
DistanceSpacing: 0.7
BeatDivisor: 4
GridSize: 16
TimelineZoom: 2.4

[Metadata]
Title:One Room Sugar Life (TV Size)
TitleUnicode:ワンルームシュガーライフ (TV Size)
Artist:Nanawo Akari
ArtistUnicode:ナナヲアカリ
Creator:Fushimi Rio
Version:Ametrin's Extra
Source:ハッピーシュガーライフ
Tags:happysugarlife Ezo’la ナユタン星人 ナユタセイジ Sony Music Associated Records 野良いぬ 鍵空とみやき Kongou Hikari Bariton PinkHeart Ametrin
BeatmapID:1711680
BeatmapSetID:813454

[Difficulty]
HPDrainRate:8
CircleSize:4
OverallDifficulty:8.5
ApproachRate:9
SliderMultiplier:1.6
SliderTickRate:1

[Events]
//Background and Video events
0,0,"bg.jpg",0,0
Video,0,"video.flv"
//Break Periods
//Storyboard Layer 0 (Background)
//Storyboard Layer 1 (Fail)
//Storyboard Layer 2 (Pass)
//Storyboard Layer 3 (Foreground)
//Storyboard Sound Samples

[TimingPoints]
340,333.333333333333,4,2,0,30,1,0
340,-200,4,2,0,30,0,0
1673,-133.333333333333,4,2,0,30,0,0
13673,-100,4,2,0,70,0,1
14006,-100,4,2,0,70,0,0
22006,-100,4,2,0,70,0,0
22256,-100,4,2,0,5,0,0
22339,-100,4,2,0,70,0,0
22923,-100,4,2,0,5,0,0
23006,-100,4,2,0,70,0,0
24339,-133.333333333333,4,2,0,50,0,0
28589,-133.333333333333,4,2,0,5,0,0
28673,-133.333333333333,4,2,0,50,0,0
29339,-83.3333333333333,4,2,0,70,0,0
29589,-50,4,2,0,5,0,0
29673,-100,4,2,0,70,0,0
34506,-66.6666666666667,4,2,0,60,0,0
34673,-66.6666666666667,4,2,0,50,0,0
34839,-66.6666666666667,4,2,0,40,0,0
35006,-66.6666666666667,4,2,0,40,0,0
45673,-100,4,2,0,70,0,0
48339,-200,4,2,0,70,0,0
50423,-200,4,2,0,5,0,0
50506,-133.333333333333,4,2,0,70,0,0
51006,-83.3333333333333,4,2,0,70,0,1
61673,-83.3333333333333,4,2,0,70,0,0
62006,-62.5,4,2,0,70,0,1
62173,-83.3333333333333,4,2,0,70,0,0
67339,-62.5,4,2,0,70,0,1
67506,-83.3333333333333,4,2,0,70,0,0
71006,-83.3333333333333,4,2,0,70,0,0
73006,-66.6666666666667,4,2,0,70,0,0
73673,-100,4,2,0,70,0,1
74006,-100,4,2,0,70,0,0
83839,-66.6666666666667,4,2,0,70,0,0
84006,-66.6666666666667,4,2,0,60,0,0
84173,-66.6666666666667,4,2,0,50,0,0
84339,-66.6666666666667,4,2,0,40,0,0
87673,-66.6666666666667,4,2,0,50,0,0
87839,-66.6666666666667,4,2,0,5,0,0
87922,-66.6666666666667,4,2,0,50,0,0
88089,-66.6666666666667,4,2,0,5,0,0
88172,-66.6666666666667,4,2,0,50,0,0

[Colours]
Combo1 : 128,128,255
Combo2 : 255,128,255

[HitObjects]
296,57,839,6,0,B|245:39|266:76|216:57,2,80,2|0|0,0:0|0:0|0:0,0:0:0:0:
476,121,1673,5,6,0:0:0:0:
468,210,1839,1,0,0:0:0:0:
387,249,2006,1,0,0:0:0:0:
310,201,2173,1,2,0:0:0:0:
310,201,2506,1,0,0:0:0:0:
387,249,2673,1,0,0:0:0:0:
468,210,2839,1,0,0:0:0:0:
303,286,3006,5,2,0:0:0:0:
226,238,3173,1,0,0:0:0:0:
145,277,3340,1,0,0:0:0:0:
137,366,3506,1,2,0:0:0:0:
137,366,3839,1,0,0:0:0:0:
226,238,4006,1,0,0:0:0:0:
303,286,4173,6,0,P|249:327|194:323,1,120.000004577637,0|0,0:0|0:0,0:0:0:0:
143,204,4673,1,2,0:0:0:0:
226,238,4839,1,0,0:0:0:0:
39,247,5006,1,0,0:0:0:0:
95,127,5173,1,0,0:0:0:0:
12,161,5339,1,0,0:0:0:0:
65,42,5506,6,0,P|119:40|176:96,1,120.000004577637,2|0,0:0|0:0,0:0:0:0:
178,169,6006,2,0,P|216:157|242:127,1,60.0000022888184,0|0,0:0|0:0,0:0:0:0:
314,108,6339,2,0,P|305:146|315:186,1,60.0000022888184,0|0,0:0|0:0,0:0:0:0:
250,226,6673,1,4,0:1:0:0:
250,226,6839,1,0,0:0:0:0:
403,148,7006,5,4,0:1:0:0:
390,237,7173,1,0,0:0:0:0:
459,293,7339,1,0,3:0:0:0:
446,382,7506,1,0,0:0:0:0:
446,382,7839,1,0,0:0:0:0:
459,293,8006,1,0,3:0:0:0:
390,237,8173,1,0,0:0:0:0:
203,245,8339,5,0,0:0:0:0:
190,156,8506,1,0,0:0:0:0:
259,100,8672,1,0,3:0:0:0:
246,11,8839,1,0,0:0:0:0:
246,11,9173,1,0,0:0:0:0:
190,156,9339,1,0,3:0:0:0:
203,245,9506,1,0,0:0:0:0:
137,324,9673,6,0,P|181:324|231:346,1,90.0000034332277,0|0,0:0|0:0,0:0:0:0:
223,340,10006,2,0,P|263:323|286:291,1,60.0000022888184,0|0,3:0|0:0,0:0:0:0:
190,156,10339,2,0,P|146:156|96:178,1,90.0000034332277,0|0,0:0|0:0,0:0:0:0:
103,172,10672,2,0,P|62:155|39:123,1,60.0000022888184,0|0,3:0|1:0,0:0:0:0:
151,32,11007,5,4,3:3:0:0:
288,93,11173,1,0,1:0:0:0:
272,242,11340,1,0,1:0:0:0:
125,273,11507,1,0,1:0:0:0:
51,144,11673,1,0,1:0:0:0:
267,167,12339,5,4,1:0:0:0:
296,163,12422,1,0,3:0:0:0:
326,159,12505,1,0,3:0:0:0:
356,156,12589,1,0,3:0:0:0:
401,89,12673,5,0,1:0:0:0:
371,85,12756,1,0,3:0:0:0:
341,81,12839,1,0,3:0:0:0:
311,78,12923,1,0,3:0:0:0:
256,19,13006,5,0,1:0:0:0:
345,8,13173,1,0,1:0:0:0:
507,176,13339,5,0,1:0:0:0:
356,156,13506,1,0,1:0:0:0:
266,328,13673,5,4,0:2:0:0:
355,317,13840,1,0,0:0:0:0:
323,228,14006,1,0,1:0:0:0:
323,228,14089,1,0,0:0:0:0:
323,228,14173,1,0,0:0:0:0:
177,339,14339,5,0,0:0:0:0:
266,328,14506,1,0,0:0:0:0:
234,239,14672,1,0,1:0:0:0:
234,239,14755,1,0,0:0:0:0:
234,239,14839,1,0,0:0:0:0:
88,350,15006,5,0,0:0:0:0:
177,339,15173,1,0,0:0:0:0:
145,250,15339,1,0,1:0:0:0:
145,250,15422,1,0,0:0:0:0:
145,250,15506,1,0,0:0:0:0:
0,361,15673,5,4,1:1:0:0:
89,350,15839,1,0,0:0:0:0:
212,186,16006,5,0,1:0:0:0:
61,166,16173,1,0,1:0:0:0:
232,23,16339,5,4,0:0:0:0:
268,107,16506,1,0,0:0:0:0:
212,186,16673,1,0,1:0:0:0:
212,186,16756,1,0,0:0:0:0:
212,186,16839,1,0,0:0:0:0:
312,34,17006,5,0,0:0:0:0:
348,118,17173,1,0,0:0:0:0:
292,197,17340,1,0,1:0:0:0:
292,197,17423,1,0,0:0:0:0:
292,197,17506,1,0,0:0:0:0:
392,43,17673,5,0,0:0:0:0:
428,127,17840,1,0,0:0:0:0:
372,206,18007,1,0,1:0:0:0:
372,206,18090,1,0,0:0:0:0:
372,206,18173,1,0,0:0:0:0:
469,54,18339,5,4,1:0:0:0:
505,138,18506,1,0,1:0:0:0:
339,337,18673,6,0,L|353:278,1,40,0|0,1:0|0:0,0:0:0:0:
372,206,18839,2,0,L|386:147,1,40,0|0,1:0|0:0,0:0:0:0:
284,30,19006,5,4,0:0:0:0:
196,3,19173,1,0,0:0:0:0:
287,161,19339,1,0,1:0:0:0:
287,161,19423,1,0,0:0:0:0:
287,161,19506,1,0,0:0:0:0:
220,76,19673,5,0,0:0:0:0:
132,49,19840,1,0,0:0:0:0:
223,207,20006,1,0,1:0:0:0:
223,207,20090,1,0,0:0:0:0:
223,207,20173,1,0,0:0:0:0:
154,121,20339,5,0,0:0:0:0:
66,94,20506,1,0,0:0:0:0:
157,252,20672,1,0,1:0:0:0:
157,252,20756,1,0,0:0:0:0:
157,252,20839,1,0,0:0:0:0:
90,166,21006,5,4,1:0:0:0:
2,139,21173,1,0,0:0:0:0:
119,359,21339,5,0,1:0:0:0:
270,312,21506,1,0,1:0:0:0:
268,134,21673,5,4,1:0:0:0:
239,223,21839,1,0,1:0:0:0:
369,314,22006,2,0,B|440:323|419:284|483:290,1,120,4|0,0:0|0:0,0:0:0:0:
483,290,22340,5,0,1:0:0:0:
511,200,22506,1,0,1:0:0:0:
382,110,22673,2,0,B|311:101|332:140|268:134,1,120,4|0,0:0|0:0,0:0:0:0:
267,133,23006,1,4,1:0:0:0:
167,83,23173,6,0,P|160:51|163:26,1,40,0|0,1:0|0:0,0:0:0:0:
258,8,23339,2,0,L|249:74,1,40,0|0,1:0|0:0,0:0:0:0:
188,165,23506,2,0,L|197:231,1,40,0|0,1:0|0:0,0:0:0:0:
251,307,23673,1,0,1:0:0:0:
91,368,23839,5,0,3:0:0:0:
59,342,23923,1,0,3:0:0:0:
49,303,24006,1,0,3:0:0:0:
57,264,24089,1,0,3:0:0:0:
80,231,24173,1,0,3:0:0:0:
92,193,24256,1,0,3:0:0:0:
57,123,24339,6,0,B|200:175|145:81|291:135,1,240.000009155274,4|8,0:0|0:3,0:0:0:0:
489,55,25173,1,4,3:0:0:0:
403,12,25339,1,0,3:0:0:0:
311,41,25506,1,0,0:0:0:0:
420,178,25673,6,0,P|408:250|406:360,1,180.000006866455,4|0,0:0|3:0,0:0:0:0:
405,356,26256,1,0,3:0:0:0:
405,356,26339,1,8,3:0:0:0:
290,197,26506,1,0,3:0:0:0:
252,286,26673,1,4,3:0:0:0:
309,365,26839,1,0,0:0:0:0:
159,247,27006,6,0,P|73:225|46:358,1,240.000009155274,4|0,0:0|3:0,0:0:0:0:
252,286,27839,1,4,3:0:0:0:
159,247,28006,1,0,3:0:0:0:
128,384,28173,1,0,0:0:0:0:
47,231,28339,6,0,P|48:152|53:119,1,90.0000034332277,4|0,0:1|0:0,0:0:0:0:
49,141,28673,2,0,P|93:155|129:152,1,60.0000022888184,4|0,0:0|0:0,0:0:0:0:
205,50,29006,1,8,3:0:0:0:
185,51,29089,1,0,3:0:0:0:
165,56,29172,1,0,3:0:0:0:
147,64,29255,1,0,3:0:0:0:
189,140,29339,6,0,B|198:189|198:189|184:231|184:231|193:283,1,143.999995605469,4|0,1:0|0:0,0:0:0:0:
251,349,29673,6,0,P|304:353|340:291,1,120,4|0,0:0|0:0,0:0:0:0:
340,262,30006,2,0,P|370:269|405:272,1,40,0|0,1:0|0:0,0:0:0:0:
492,181,30173,2,0,L|391:192,1,80,0|0,0:0|3:0,0:0:0:0:
291,87,30506,2,0,L|423:101,1,120,0|0,0:0|0:0,0:0:0:0:
449,107,30839,1,0,0:0:0:0:
247,4,31006,1,2,0:0:0:0:
316,178,31172,1,0,0:0:0:0:
103,226,31339,2,0,P|83:169|125:108,1,120,2|0,1:2|0:0,0:0:0:0:
108,118,31673,2,0,P|169:153|175:177,1,80,0|0,3:0|0:0,0:0:0:0:
114,320,32006,1,0,1:0:0:0:
4,235,32173,1,0,0:0:0:0:
184,245,32339,6,0,L|321:226,1,120,0|0,0:0|0:0,0:0:0:0:
341,239,32673,2,0,L|327:176,1,40,0|0,1:0|0:0,0:0:0:0:
272,61,32839,2,0,L|258:160,1,80,0|0,0:0|3:0,0:0:0:0:
296,329,33173,1,0,0:0:0:0:
341,239,33339,1,0,1:0:0:0:
184,245,33506,2,0,L|153:90,1,120,0|0,0:0|0:0,0:0:0:0:
152,88,33839,1,0,0:0:0:0:
362,26,34006,1,0,1:0:0:0:
260,140,34173,1,0,0:0:0:0:
91,17,34339,1,4,3:0:0:0:
39,187,34506,6,0,P|49:219|72:257,1,60.0000022888184,0|0,1:0|0:0,0:0:0:0:
30,216,34673,6,0,P|58:224|88:228,1,60.0000022888184,0|0,1:0|0:0,0:0:0:0:
26,253,34839,6,0,L|64:207,1,60.0000022888184,0|0,1:0|0:0,0:0:0:0:
145,112,35006,6,0,P|206:137|269:138,1,120.000004577637,4|0,1:0|0:0,0:0:0:0:
350,84,35256,1,0,3:0:0:0:
350,84,35339,2,0,P|359:47|363:6,1,60.0000022888184,0|0,3:0|3:0,0:0:0:0:
467,144,35506,2,0,P|458:107|454:66,1,60.0000022888184,0|0,3:0|0:0,0:0:0:0:
354,237,35673,6,0,P|299:261|296:336,1,120.000004577637,0|0,3:0|0:0,0:0:0:0:
372,377,35923,1,0,3:0:0:0:
372,377,36006,2,0,P|401:374|430:365,1,60.0000022888184,0|0,3:0|3:0,0:0:0:0:
512,280,36173,2,0,P|483:271|453:268,1,60.0000022888184,0|0,3:0|0:0,0:0:0:0:
287,315,36339,5,0,3:0:0:0:
290,284,36423,1,0,0:0:0:0:
172,159,36589,1,0,3:0:0:0:
175,189,36673,1,0,0:0:0:0:
177,218,36756,1,0,3:0:0:0:
179,247,36839,2,0,P|141:271|104:271,1,60.0000022888184,0|0,3:0|0:0,0:0:0:0:
35,384,37006,5,0,3:0:0:0:
35,384,37089,2,0,P|99:373|166:369,1,120.000004577637,0|0,3:0|3:0,0:0:0:0:
183,376,37339,2,0,P|198:342|213:318,1,60.0000022888184,0|0,0:0|3:0,0:0:0:0:
38,287,37506,1,0,3:0:0:0:
177,218,37673,6,0,P|181:155|192:73,1,120.000004577637,0|0,3:0|0:0,0:0:0:0:
219,5,37923,1,0,3:0:0:0:
219,5,38006,2,0,P|169:14|136:12,1,60.0000022888184,0|0,3:0|0:0,0:0:0:0:
37,109,38173,2,0,P|87:118|120:116,1,60.0000022888184,0|0,3:0|0:0,0:0:0:0:
177,218,38339,5,0,3:0:0:0:
206,212,38423,1,0,3:0:0:0:
235,206,38506,1,0,3:0:0:0:
264,201,38589,1,0,3:0:0:0:
401,111,38756,1,0,3:0:0:0:
371,106,38839,2,0,L|293:89,1,60.0000022888184,0|0,3:0|0:0,0:0:0:0:
159,14,39006,5,4,1:0:0:0:
159,14,39173,1,0,1:0:0:0:
78,289,39339,5,4,0:0:0:0:
78,289,39506,1,0,1:0:0:0:
353,370,39673,5,0,1:0:0:0:
434,95,39839,5,0,1:0:0:0:
434,95,39923,1,0,1:0:0:0:
434,95,40006,1,4,0:0:0:0:
256,191,40173,5,0,0:0:0:0:
463,235,40339,5,4,1:0:0:0:
434,95,40506,1,0,3:0:0:0:
429,65,40589,1,0,3:0:0:0:
362,216,40756,1,0,3:0:0:0:
358,245,40839,1,0,3:0:0:0:
353,274,40923,1,0,0:0:0:0:
349,303,41006,6,0,B|284:322|300:281|225:296,1,120.000004577637,0|0,3:0|3:0,0:0:0:0:
203,304,41256,2,0,P|190:351|190:372,1,60.0000022888184,0|0,3:0|0:0,0:0:0:0:
66,271,41423,1,0,3:0:0:0:
66,271,41506,2,0,P|53:224|53:203,1,60.0000022888184,0|0,3:0|0:0,0:0:0:0:
197,69,41673,5,0,3:0:0:0:
197,69,41756,2,0,L|174:202,1,120.000004577637,0|0,3:0|3:0,0:0:0:0:
267,171,42006,1,0,3:0:0:0:
267,171,42089,2,0,L|277:112,1,60.0000022888184,0|0,3:0|0:0,0:0:0:0:
358,145,42256,1,0,3:0:0:0:
355,174,42339,1,0,3:0:0:0:
440,173,42506,1,0,3:0:0:0:
343,58,42673,1,0,3:0:0:0:
400,248,42839,5,0,3:0:0:0:
430,250,42923,1,0,0:0:0:0:
459,251,43006,1,0,3:0:0:0:
488,254,43089,1,0,3:0:0:0:
357,359,43256,1,0,3:0:0:0:
357,359,43339,2,0,P|338:333|332:293,1,60.0000022888184,0|0,3:0|0:0,0:0:0:0:
280,210,43506,2,0,P|261:236|255:276,1,60.0000022888184,0|0,3:0|3:0,0:0:0:0:
216,346,43673,5,0,3:0:0:0:
79,316,43839,1,0,3:0:0:0:
56,296,43923,2,0,P|44:256|57:219,1,60.0000022888184,0|0,3:0|0:0,0:0:0:0:
162,177,44089,1,0,3:0:0:0:
185,157,44173,2,0,P|197:117|184:80,1,60.0000022888184,0|0,3:0|0:0,0:0:0:0:
78,65,44339,5,4,1:0:0:0:
78,65,44506,1,0,1:0:0:0:
383,14,44673,5,4,0:0:0:0:
383,14,44839,1,0,1:0:0:0:
434,319,45006,5,4,1:0:0:0:
129,370,45339,5,4,0:0:0:0:
129,370,45506,1,0,1:0:0:0:
256,192,45673,6,0,P|348:149|378:265,1,240,4|0,0:1|0:0,0:0:0:0:
326,319,46256,1,0,0:0:0:0:
248,286,46339,2,0,B|91:244|174:358|18:314,1,240,0|0,0:0|3:0,0:0:0:0:
0,232,46923,1,0,3:0:0:0:
59,167,47006,2,0,P|97:174|128:199,1,80,4|0,0:0|0:0,0:0:0:0:
248,286,47339,5,0,1:0:0:0:
231,184,47506,1,0,3:0:0:0:
437,7,47673,5,0,0:0:0:0:
402,212,47840,1,0,0:0:0:0:
183,57,48006,6,0,B|275:45|275:45|243:73,1,120,0|0,1:0|0:0,0:0:0:0:
106,104,48339,6,0,P|91:61|111:12,1,80,0|0,1:0|0:0,0:0:0:0:
347,2,49006,2,0,P|361:38|354:77,1,80,0|0,0:0|0:0,0:0:0:0:
114,210,49673,5,0,1:0:0:0:
155,181,49756,5,0,3:0:0:0:
198,205,49839,5,0,3:0:0:0:
239,176,49923,5,0,3:0:0:0:
283,199,50006,5,0,3:0:0:0:
324,170,50089,5,0,3:0:0:0:
367,194,50173,5,0,3:0:0:0:
408,165,50256,6,0,P|414:149|417:123,1,40,0|0,3:0|0:0,0:0:0:0:
328,24,50506,6,0,P|267:30|229:94,1,120.000004577637,2|0,0:0|0:0,0:0:0:0:
49,137,51006,5,4,0:0:0:0:
144,123,51173,1,0,0:0:0:0:
228,168,51339,1,0,1:0:0:0:
255,260,51506,1,0,0:0:0:0:
49,137,51673,5,0,0:0:0:0:
193,130,51839,1,0,0:0:0:0:
193,130,51923,1,0,0:0:0:0:
193,130,52006,1,0,1:0:0:0:
255,260,52173,1,0,0:0:0:0:
434,229,52339,5,0,0:0:0:0:
339,215,52506,1,0,0:0:0:0:
255,260,52672,1,0,1:0:0:0:
228,352,52839,1,0,0:0:0:0:
434,229,53006,5,0,0:0:0:0:
228,352,53172,1,0,0:0:0:0:
228,352,53256,1,0,0:0:0:0:
228,352,53339,2,0,P|202:312|200:290,1,47.9999985351563,0|0,1:0|0:0,0:0:0:0:
286,222,53506,1,0,0:0:0:0:
104,212,53673,6,0,P|97:278|92:330,1,95.9999970703126,0|0,0:0|0:0,0:0:0:0:
7,384,53923,1,0,0:0:0:0:
7,384,54006,2,0,L|-6:305,1,47.9999985351563,0|0,1:0|0:0,0:0:0:0:
5,192,54173,1,0,0:0:0:0:
93,306,54339,2,0,L|151:298,1,47.9999985351563
278,318,54506,2,0,B|168:355|209:278|93:306,1,191.999994140625
237,232,54923,1,0,0:0:0:0:
259,234,55006,6,0,L|367:243,1,95.9999970703126,0|0,1:0|0:0,0:0:0:0:
511,358,55256,1,0,0:0:0:0:
488,361,55339,1,0,1:0:0:0:
463,363,55422,1,0,0:0:0:0:
439,365,55506,2,0,L|357:371,1,47.9999985351563,0|0,0:0|0:0,0:0:0:0:
480,213,55673,6,0,L|473:261,1,47.9999985351563,4|0,3:0|0:0,0:0:0:0:
416,137,55839,2,0,L|409:90,1,47.9999985351563,4|0,3:0|3:0,0:0:0:0:
278,318,56006,6,0,L|290:240,1,47.9999985351563,0|0,1:0|3:0,0:0:0:0:
214,147,56173,2,0,L|221:194,1,47.9999985351563,0|0,1:0|3:0,0:0:0:0:
324,90,56339,5,4,0:0:0:0:
233,126,56506,1,0,0:0:0:0:
141,95,56673,1,0,1:0:0:0:
99,8,56839,1,0,0:0:0:0:
324,90,57006,5,0,0:0:0:0:
185,130,57173,1,0,0:0:0:0:
185,130,57256,1,0,0:0:0:0:
185,130,57339,1,0,1:0:0:0:
99,8,57506,1,0,0:0:0:0:
13,211,57673,5,0,0:0:0:0:
104,247,57840,1,0,0:0:0:0:
196,216,58007,1,0,1:0:0:0:
238,129,58173,1,0,0:0:0:0:
13,211,58340,5,0,0:0:0:0:
238,129,58507,1,0,0:0:0:0:
238,129,58590,1,0,0:0:0:0:
238,129,58673,2,0,P|253:153|258:186,1,47.9999985351563,0|0,1:0|0:0,0:0:0:0:
152,251,58839,1,0,0:0:0:0:
359,313,59006,6,0,L|377:218,1,95.9999970703126,4|0,0:1|0:0,0:0:0:0:
254,56,59339,1,0,1:0:0:0:
254,56,59423,1,0,0:0:0:0:
254,56,59506,1,0,0:0:0:0:
131,277,59673,6,0,L|149:372,1,95.9999970703126,4|0,0:0|0:0,0:0:0:0:
257,26,60006,1,0,1:0:0:0:
257,26,60090,1,0,0:0:0:0:
257,26,60173,1,0,0:0:0:0:
44,178,60339,5,4,1:0:0:0:
179,213,60506,1,0,1:0:0:0:
330,171,60673,1,0,1:0:0:0:
465,206,60840,1,0,1:0:0:0:
241,179,61006,5,4,3:0:0:0:
238,155,61089,1,0,3:0:0:0:
245,132,61173,1,0,3:0:0:0:
258,112,61256,1,0,3:0:0:0:
278,99,61339,5,0,1:0:0:0:
330,171,61423,1,0,1:0:0:0:
293,248,61506,1,0,1:0:0:0:
209,263,61589,1,0,1:0:0:0:
147,200,61673,6,0,P|97:138|19:156,1,143.999995605469,4|0,0:0|0:0,0:0:0:0:
147,200,62006,6,0,B|235:215|245:129|214:130|199:183,1,128,0|2,1:0|0:0,0:0:0:0:
37,148,62256,1,0,0:0:0:0:
0,231,62339,6,0,P|14:279|17:335,1,95.9999970703126,0|0,0:0|0:0,0:0:0:0:
161,384,62673,1,0,1:0:0:0:
120,300,62839,1,0,0:0:0:0:
293,110,63006,5,0,0:0:0:0:
256,250,63173,1,0,0:0:0:0:
240,56,63339,2,0,P|291:31|348:65,1,95.9999970703126,0|2,1:0|0:0,0:0:0:0:
421,143,63589,1,0,0:0:0:0:
491,98,63673,6,0,P|501:48|499:0,1,95.9999970703126
282,33,64006,1,0,1:0:0:0:
377,42,64173,1,0,0:0:0:0:
247,176,64339,5,0,2:0:0:0:
105,154,64506,1,0,0:0:0:0:
329,131,64673,2,0,P|336:178|341:226,1,95.9999970703126,0|2,1:0|0:0,0:0:0:0:
201,345,64923,1,0,0:0:0:0:
146,280,65006,6,0,P|99:279|28:277,1,95.9999970703126
355,321,65339,1,0,1:0:0:0:
341,226,65506,1,0,0:0:0:0:
491,98,65673,5,0,0:0:0:0:
474,239,65839,1,0,0:0:0:0:
257,148,66006,5,0,1:0:0:0:
374,117,66173,1,0,0:0:0:0:
252,284,66339,5,2,0:0:0:0:
87,229,66506,1,0,0:0:0:0:
232,371,66673,5,0,1:0:0:0:
315,348,66756,1,0,1:0:0:0:
341,266,66839,1,0,1:0:0:0:
285,198,66923,1,0,1:0:0:0:
199,211,67006,6,0,P|113:248|71:209,1,143.999995605469,4|0,0:0|0:0,0:0:0:0:
199,211,67339,6,0,B|288:216|278:302|248:294|245:239,1,128,0|2,1:0|0:0,0:0:0:0:
86,230,67589,5,0,0:0:0:0:
104,147,67673,2,0,P|149:142|199:123,1,95.9999970703126,0|0,0:0|0:0,0:0:0:0:
301,16,68006,1,0,1:0:0:0:
288,109,68173,1,0,0:0:0:0:
440,231,68339,5,0,0:0:0:0:
419,98,68506,1,0,0:0:0:0:
249,263,68673,2,0,L|264:365,1,95.9999970703126,0|2,1:0|0:0,0:0:0:0:
80,379,68923,1,0,0:0:0:0:
45,304,69006,6,0,P|91:296|148:336,1,95.9999970703126
170,160,69339,1,0,1:0:0:0:
74,145,69506,1,0,0:0:0:0:
249,263,69673,5,4,0:1:0:0:
393,240,69839,1,0,0:0:0:0:
306,68,70006,2,0,P|287:112|282:176,1,95.9999970703126,0|2,1:0|0:0,0:0:0:0:
501,257,70339,5,4,0:3:0:0:
264,308,70505,1,0,1:0:0:0:
427,128,70673,1,0,1:0:0:0:
401,369,70839,1,0,1:0:0:0:
280,159,71006,1,0,1:0:0:0:
256,192,71089,12,0,72339,0:0:0:0:
223,252,73006,5,0,0:1:0:0:
223,252,73089,1,0,0:0:0:0:
223,252,73173,2,0,P|251:270|293:284,1,60.0000022888184,0|0,1:0|0:0,0:0:0:0:
287,252,73339,6,0,P|261:268|234:280,1,60.0000022888184,0|0,1:0|0:0,0:0:0:0:
256,312,73506,6,0,L|255:252,1,60.0000022888184,0|0,1:0|0:0,0:0:0:0:
245,54,73673,5,4,0:0:0:0:
201,58,73756,1,0,0:0:0:0:
156,65,73840,1,0,0:0:0:0:
188,154,74006,1,0,1:0:0:0:
188,154,74173,1,0,0:0:0:0:
334,43,74339,5,0,0:0:0:0:
290,47,74422,1,0,0:0:0:0:
245,54,74506,1,0,0:0:0:0:
277,143,74672,1,0,1:0:0:0:
277,143,74839,1,0,0:0:0:0:
423,32,75006,5,0,0:0:0:0:
379,36,75089,1,0,0:0:0:0:
334,43,75173,1,0,0:0:0:0:
366,132,75339,1,0,1:0:0:0:
366,132,75506,1,0,0:0:0:0:
511,21,75673,5,4,1:0:0:0:
422,32,75839,1,0,0:0:0:0:
282,185,76006,5,0,1:0:0:0:
433,205,76173,1,0,1:0:0:0:
262,348,76339,5,4,0:0:0:0:
243,306,76423,1,0,0:0:0:0:
226,264,76506,1,0,0:0:0:0:
282,185,76673,1,0,1:0:0:0:
282,185,76839,1,0,0:0:0:0:
186,329,77006,5,0,0:0:0:0:
167,287,77090,1,0,0:0:0:0:
150,245,77173,1,0,0:0:0:0:
206,166,77340,1,0,1:0:0:0:
206,166,77506,1,0,0:0:0:0:
113,309,77673,5,0,0:0:0:0:
94,267,77757,1,0,0:0:0:0:
77,225,77840,1,0,0:0:0:0:
133,146,78007,1,0,1:0:0:0:
133,146,78173,1,0,0:0:0:0:
36,284,78339,5,4,1:0:0:0:
17,242,78423,1,0,1:0:0:0:
0,200,78506,1,0,1:0:0:0:
167,17,78673,6,0,L|153:76,1,40,0|0,1:0|0:0,0:0:0:0:
133,146,78839,2,0,L|119:205,1,40,0|0,1:0|1:0,0:0:0:0:
210,335,79006,5,4,0:0:0:0:
254,348,79089,1,0,0:0:0:0:
298,362,79173,1,0,0:0:0:0:
207,204,79339,1,0,1:0:0:0:
207,204,79506,1,0,0:0:0:0:
274,289,79673,5,0,0:0:0:0:
318,302,79756,1,0,0:0:0:0:
362,316,79840,1,0,0:0:0:0:
271,158,80006,1,0,1:0:0:0:
271,158,80173,1,0,0:0:0:0:
340,244,80339,5,0,0:0:0:0:
384,257,80422,1,0,0:0:0:0:
428,271,80506,1,0,0:0:0:0:
337,113,80672,1,0,1:0:0:0:
337,113,80839,1,0,0:0:0:0:
404,199,81006,5,4,1:0:0:0:
448,213,81089,1,0,0:0:0:0:
492,226,81173,1,0,0:0:0:0:
392,23,81339,5,0,1:0:0:0:
241,70,81506,1,0,3:0:0:0:
243,248,81673,5,4,0:0:0:0:
257,203,81756,1,0,0:0:0:0:
272,159,81839,1,0,0:0:0:0:
142,68,82006,2,0,B|71:59|92:98|28:92,1,120,0|0,1:0|0:0,0:0:0:0:
28,92,82339,5,4,0:0:0:0:
15,139,82423,1,0,0:0:0:0:
0,182,82506,1,0,0:0:0:0:
129,272,82673,2,0,B|200:281|179:242|243:248,1,120,0|0,1:0|0:0,0:0:0:0:
244,249,83006,5,0,1:0:0:0:
332,342,83173,1,0,1:0:0:0:
129,272,83339,1,0,1:0:0:0:
328,190,83506,1,0,1:0:0:0:
420,384,83673,1,4,3:0:0:0:
473,197,83839,6,0,P|463:165|440:127,1,60.0000022888184,0|0,1:0|0:0,0:0:0:0:
482,168,84006,6,0,P|454:160|424:156,1,60.0000022888184,0|0,1:0|0:0,0:0:0:0:
486,131,84172,6,0,L|448:177,1,60.0000022888184,0|0,1:0|0:0,0:0:0:0:
261,121,84339,6,0,P|246:88|242:57,1,60.0000022888184,4|0,1:0|3:0,0:0:0:0:
353,7,84506,2,0,L|338:83,1,60.0000022888184,0|0,3:0|3:0,0:0:0:0:
314,218,84673,1,0,0:0:0:0:
314,218,84756,1,0,3:0:0:0:
314,218,84839,2,0,P|275:212|236:210,1,60.0000022888184,0|0,3:0|0:0,0:0:0:0:
168,308,85006,6,0,P|208:307|264:299,2,80.0000030517579,0|0|0,3:0|0:0|0:0,0:0:0:0:
77,381,85339,2,0,P|71:346|68:321,1,60.0000022888184,0|0,3:0|3:0,0:0:0:0:
17,226,85506,1,0,3:0:0:0:
187,73,85673,5,0,3:0:0:0:
182,102,85756,1,0,3:0:0:0:
177,132,85839,1,0,0:0:0:0:
172,161,85922,1,0,0:0:0:0:
168,191,86006,6,0,B|137:202|137:202|111:186|111:186|84:195,1,80.0000030517579,0|0,3:0|3:0,0:0:0:0:
95,191,86228,1,0,3:0:0:0:
266,124,86339,2,0,B|296:112|296:112|322:128|322:128|349:119,1,80.0000030517579,0|0,3:0|0:0,0:0:0:0:
338,122,86562,1,0,0:0:0:0:
278,217,86673,6,0,L|293:346,1,120.000004577637,0|0,3:0|3:0,0:0:0:0:
380,383,86923,1,0,3:0:0:0:
380,383,87006,2,0,P|415:373|448:345,1,60.0000022888184,0|0,3:0|3:0,0:0:0:0:
512,277,87173,2,0,P|482:269|457:253,1,60.0000022888184,0|0,0:0|3:0,0:0:0:0:
431,76,87339,6,0,P|488:84|500:166,1,120.000004577637,0|0,3:0|3:0,0:0:0:0:
302,200,87589,1,0,3:0:0:0:
302,200,87673,6,0,L|316:59,1,120.000004577637,0|0,1:0|0:0,0:0:0:0:
216,102,87923,1,0,1:0:0:0:
216,102,88006,2,0,L|207:184,1,60.0000022888184,0|0,0:0|0:0,0:0:0:0:
119,139,88173,1,0,0:0:0:0:
121,124,88257,1,0,0:0:0:0:
122,108,88340,1,0,1:0:0:0:
