osu file format v14

[General]
AudioFilename: audio.mp3
AudioLeadIn: 0
PreviewTime: 34274
Countdown: 0
SampleSet: Soft
StackLeniency: 0.7
Mode: 0
LetterboxInBreaks: 0
WidescreenStoryboard: 0

[Editor]
Bookmarks: 34713,44046,84046
DistanceSpacing: 1.6
BeatDivisor: 4
GridSize: 4
TimelineZoom: 1

[Metadata]
Title:One Room Sugar Life (TV Size)
TitleUnicode:ワンルームシュガーライフ (TV Size)
Artist:Nanawo Akari
ArtistUnicode:ナナヲアカリ
Creator:Fushimi Rio
Version:Normal
Source:ハッピーシュガーライフ
Tags:happysugarlife Ezo’la ナユタン星人 ナユタセイジ Sony Music Associated Records 野良いぬ 鍵空とみやき Kongou Hikari Bariton PinkHeart Ametrin
BeatmapID:1706624
BeatmapSetID:813454

[Difficulty]
HPDrainRate:4
CircleSize:3
OverallDifficulty:4
ApproachRate:6
SliderMultiplier:1
SliderTickRate:1

[Events]
//Background and Video events
0,0,"bg.jpg",0,0
Video,0,"video.flv"
//Break Periods
2,35206,37956
2,40539,43289
2,71206,72123
2,84539,86623
//Storyboard Layer 0 (Background)
//Storyboard Layer 1 (Fail)
//Storyboard Layer 2 (Pass)
//Storyboard Layer 3 (Foreground)
//Storyboard Sound Samples

[TimingPoints]
340,333.333333333333,4,2,0,30,1,0
1089,-100,4,2,0,5,0,0
1173,-100,4,2,0,30,0,0
1756,-100,4,2,0,50,0,0
13673,-100,4,2,0,70,0,1
14006,-100,4,2,0,70,0,0
22006,-100,4,2,0,70,0,0
24339,-100,4,2,0,50,0,0
28673,-100,4,2,0,50,0,0
29339,-100,4,2,0,70,0,0
29673,-100,4,2,0,70,0,0
34506,-100,4,2,0,60,0,0
34673,-100,4,2,0,50,0,0
34839,-100,4,2,0,40,0,0
39006,-100,4,2,0,50,0,0
40339,-100,4,2,0,40,0,0
44339,-100,4,2,0,50,0,0
45673,-100,4,2,0,70,0,0
51006,-100,4,2,0,70,0,1
71006,-100,4,2,0,70,0,0
73339,-100,4,2,0,60,0,0
73506,-100,4,2,0,50,0,0
73673,-100,4,2,0,70,0,1
74006,-100,4,2,0,70,0,0
84006,-100,4,2,0,60,0,0
84173,-100,4,2,0,50,0,0
84339,-100,4,2,0,40,0,0
87673,-100,4,2,0,50,0,0

[Colours]
Combo1 : 128,128,255
Combo2 : 255,128,255

[HitObjects]
0,180,839,5,2,0:0:0:0:
64,120,1173,2,0,P|111:144|128:199,1,100,0|0,0:0|0:0,0:0:0:0:
127,232,1673,6,0,L|228:192,1,100,6|0,0:0|0:0,0:0:0:0:
268,212,2173,1,2,0:0:0:0:
320,296,2506,2,0,L|273:314,2,50,0|0|0,0:0|0:0|0:0,0:0:0:0:
368,276,3006,6,0,L|469:236,1,100,2|0,0:0|0:0,0:0:0:0:
509,256,3506,1,2,0:0:0:0:
512,156,3839,2,0,L|512:96,2,50,0|0|0,0:0|0:0|0:0,0:0:0:0:
424,108,4506,6,0,L|424:48,2,50,0|2|0,0:0|0:0|0:0,0:0:0:0:
380,128,5006,2,0,L|380:178,2,50,0|0|0,0:0|0:0|0:0,0:0:0:0:
344,96,5506,2,0,P|284:144|204:128,1,150,2|0,0:0|0:0,0:0:0:0:
168,48,6339,2,0,P|108:80|76:76,1,100,0|4,0:0|0:1,0:0:0:0:
12,152,7006,6,0,L|113:192,1,100,4|0,0:1|3:0,0:0:0:0:
153,172,7506,1,0,0:0:0:0:
212,252,7839,2,0,L|165:270,2,50,0|0|0,0:0|3:0|0:0,0:0:0:0:
260,232,8339,6,0,L|361:192,1,100,0|0,0:0|3:0,0:0:0:0:
401,212,8839,1,0,0:0:0:0:
412,112,9173,2,0,L|458:130,2,50,0|0|0,0:0|3:0|0:0,0:0:0:0:
364,92,9673,6,0,L|263:52,1,100,0|0,0:0|3:0,0:0:0:0:
171,61,10339,2,0,L|70:21,1,100,0|0,0:0|3:0,0:0:0:0:
28,32,10839,1,0,1:0:0:0:
69,122,11173,5,0,1:0:0:0:
48,166,11339,1,0,1:0:0:0:
93,187,11506,1,0,1:0:0:0:
113,142,11673,1,0,1:0:0:0:
248,280,12339,6,0,P|196:280|148:320,2,100,4|0|0,1:0|1:0|1:0,0:0:0:0:
288,312,13173,1,0,1:0:0:0:
300,264,13339,2,0,L|316:208,1,50,0|0,1:0|1:0,0:0:0:0:
352,248,13673,6,0,P|396:276|456:268,1,100,4|0,0:2|1:0,0:0:0:0:
472,180,14339,2,0,P|428:152|368:160,1,100,0|0,0:0|1:0,0:0:0:0:
284,172,15006,2,0,P|240:200|180:192,1,100,0|0,0:0|1:0,0:0:0:0:
96,168,15673,2,0,L|96:100,2,50,4|0|0,1:1|0:0|1:0,0:0:0:0:
96,220,16173,1,0,1:0:0:0:
96,268,16339,6,0,P|145:266|186:294,1,100,4|0,0:0|1:0,0:0:0:0:
283,312,17006,2,0,P|332:313|373:285,1,100,0|0,0:0|1:0,0:0:0:0:
344,188,17673,2,0,P|294:186|253:214,1,100,0|0,0:0|1:0,0:0:0:0:
156,244,18339,1,4,1:0:0:0:
156,192,18506,1,0,1:0:0:0:
156,140,18673,2,0,L|156:90,1,50,0|0,1:0|1:0,0:0:0:0:
200,116,19006,6,0,P|249:117|290:89,1,100,4|0,0:0|1:0,0:0:0:0:
387,72,19673,2,0,P|436:70|477:98,1,100,0|0,0:0|1:0,0:0:0:0:
448,196,20339,2,0,P|398:197|357:169,1,100,0|0,0:0|1:0,0:0:0:0:
260,192,21006,2,0,L|260:260,2,50,4|0|0,1:0|0:0|1:0,0:0:0:0:
260,140,21506,1,0,1:0:0:0:
260,88,21673,6,0,L|192:88,1,50,4|0,1:0|1:0,0:0:0:0:
160,88,22006,1,4,0:0:0:0:
64,60,22339,6,0,L|64:128,1,50,0|0,1:0|1:0,0:0:0:0:
64,160,22673,1,4,0:0:0:0:
36,256,23006,5,4,1:0:0:0:
88,256,23173,1,0,1:0:0:0:
136,252,23339,2,0,P|168:200|216:196,1,100,0|0,1:0|1:0,0:0:0:0:
248,216,23839,2,0,P|268:236|292:244,2,50,0|0|0,3:0|3:0|3:0,0:0:0:0:
244,164,24339,6,0,L|244:48,1,100,4|0,0:0|0:0,0:0:0:0:
292,72,24839,2,0,P|352:72|384:24,1,100,0|4,0:0|3:0,0:0:0:0:
396,0,25339,2,0,L|432:44,1,50,0|0,3:0|0:0,0:0:0:0:
464,72,25673,2,0,L|500:116,2,50,4|0|0,0:0|0:0|0:0,0:0:0:0:
404,152,26339,1,8,3:0:0:0:
304,260,26839,1,0,0:0:0:0:
256,260,27006,6,0,L|256:144,1,100,4|0,0:0|0:0,0:0:0:0:
208,168,27506,2,0,P|148:168|116:120,1,100,0|4,0:0|3:0,0:0:0:0:
104,96,28006,1,0,3:0:0:0:
100,48,28173,2,0,P|62:16|14:21,1,100,0|0,0:0|0:0,0:0:0:0:
0,68,28673,2,0,L|0:128,1,50,4|0,0:0|0:0,0:0:0:0:
32,156,29006,2,0,L|32:264,1,100,8|4,3:0|1:0,0:0:0:0:
112,320,29673,6,0,P|168:360|208:348,1,100,4|0,0:0|1:0,0:0:0:0:
244,340,30173,2,0,P|292:340|326:375,1,100,0|0,0:0|0:0,0:0:0:0:
416,328,30839,1,0,0:0:0:0:
388,284,31006,2,0,L|360:232,2,50,2|0|2,0:0|0:0|1:2,0:0:0:0:
484,256,31673,2,0,P|471:208|496:166,1,100,0|0,3:0|1:0,0:0:0:0:
496,68,32339,6,0,L|384:68,1,100,0|0,0:0|1:0,0:0:0:0:
360,32,32839,2,0,P|328:28|280:92,1,100,0|0,0:0|0:0,0:0:0:0:
288,120,33339,1,0,1:0:0:0:
308,164,33506,2,0,P|277:201|229:203,1,100
191,167,34006,2,0,L|79:167,2,100,0|0|0,1:0|0:0|1:0,0:0:0:0:
292,168,35006,5,4,1:0:0:0:
220,253,39006,5,4,1:0:0:0:
194,156,39339,1,4,0:0:0:0:
291,130,39673,1,4,1:0:0:0:
317,227,40006,1,4,0:0:0:0:
220,253,40339,5,4,1:1:0:0:
317,227,44339,5,4,1:0:0:0:
220,253,44673,1,4,0:0:0:0:
194,156,45006,1,4,1:0:0:0:
291,130,45339,1,4,0:0:0:0:
388,156,45673,6,0,P|472:156|504:56,1,200,4|0,0:1|0:0,0:0:0:0:
307,88,47006,2,0,L|199:88,1,100,4|0,0:0|1:0,0:0:0:0:
108,88,47673,1,0,0:0:0:0:
256,224,48339,5,0,1:0:0:0:
512,304,49673,2,0,L|412:304,1,100,0|0,1:0|3:0,0:0:0:0:
360,304,50173,5,0,3:0:0:0:
296,244,50506,2,0,P|249:268|232:323,1,100,2|0,0:0|0:0,0:0:0:0:
233,356,51006,6,0,L|132:316,1,100,4|0,0:0|1:0,0:0:0:0:
92,336,51506,1,0,0:0:0:0:
56,244,51839,2,0,L|9:262,2,50,0|0|0,0:0|1:0|0:0,0:0:0:0:
104,224,52339,6,0,L|205:184,1,100,2|0,0:0|1:0,0:0:0:0:
245,204,52839,1,0,0:0:0:0:
296,116,53173,2,0,L|296:56,2,50,0|0|0,0:0|1:0|0:0,0:0:0:0:
384,64,53839,6,0,L|384:4,2,50,0|0|0,0:0|1:0|0:0,0:0:0:0:
384,116,54339,2,0,L|384:166,1,50,2|0,0:0|0:0,0:0:0:0:
384,264,54839,2,0,P|332:308|280:304,1,100,0|0,0:0|0:0,0:0:0:0:
279,266,55339,6,0,L|252:308,1,50,0|0,1:0|0:0,0:0:0:0:
204,220,55839,2,0,L|176:261,2,50,0|0|0,3:0|1:0|3:0,0:0:0:0:
228,176,56339,6,0,L|127:136,1,100,4|0,0:0|1:0,0:0:0:0:
87,156,56839,1,0,0:0:0:0:
48,248,57173,2,0,L|1:230,2,50,0|0|0,0:0|1:0|0:0,0:0:0:0:
96,268,57673,6,0,L|197:308,1,100,2|0,0:0|1:0,0:0:0:0:
237,288,58173,1,0,0:0:0:0:
298,366,58506,2,0,L|251:384,2,50,0|0|0,0:0|1:0|0:0,0:0:0:0:
346,346,59006,6,0,L|447:306,1,100,4|0,0:1|1:0,0:0:0:0:
485,290,59506,1,0,0:0:0:0:
438,270,59673,2,0,L|337:230,1,100,4|0,0:0|1:0,0:0:0:0:
299,214,60173,1,0,3:0:0:0:
253,194,60339,5,4,1:0:0:0:
273,148,60506,1,0,1:0:0:0:
319,168,60673,1,0,1:0:0:0:
358,76,61006,1,4,0:0:0:0:
447,119,61339,1,0,1:0:0:0:
409,210,61673,6,0,P|376:252|330:267,1,100,4|0,0:0|1:0,0:0:0:0:
249,322,62339,2,0,L|141:293,1,100,0|0,0:0|1:0,0:0:0:0:
96,295,62839,2,0,L|-12:324,1,100,2|2,0:0|0:0,0:0:0:0:
2,220,63506,5,2,0:0:0:0:
50,208,63673,2,0,L|146:182,1,100,0|0,0:0|1:0,0:0:0:0:
202,184,64173,2,0,L|298:209,1,100,2|2,0:0|0:0,0:0:0:0:
395,234,64839,5,2,0:0:0:0:
434,265,65006,2,0,L|449:318,2,50,0|0|0,0:0|0:0|1:0,0:0:0:0:
437,214,65506,2,0,P|466:171|453:93,1,100,2|2,0:0|0:0,0:0:0:0:
431,89,66006,2,0,P|433:39|461:0,2,100,0|2|0,1:0|0:0|1:0,0:0:0:0:
354,153,67006,6,0,P|321:111|275:96,1,100,4|0,0:0|1:0,0:0:0:0:
265,195,67673,2,0,L|157:224,1,100,0|0,0:0|1:0,0:0:0:0:
112,222,68173,2,0,L|4:193,1,100,2|2,0:0|0:0,0:0:0:0:
18,297,68839,5,2,0:0:0:0:
66,309,69006,2,0,L|162:335,1,100,0|0,0:0|1:0,0:0:0:0:
218,333,69506,2,0,L|314:308,1,100,2|2,0:0|0:0,0:0:0:0:
404,352,70173,6,0,P|419:291|469:267,1,100,2|0,0:0|1:0,0:0:0:0:
497,273,70673,1,0,1:0:0:0:
497,223,70839,1,0,1:0:0:0:
497,172,71006,1,0,1:0:0:0:
51,330,73173,5,0,1:0:0:0:
63,281,73339,1,0,1:0:0:0:
101,313,73506,1,0,1:0:0:0:
148,297,73673,6,0,P|197:295|238:323,1,100,4|0,0:0|1:0,0:0:0:0:
336,341,74339,2,0,P|385:342|426:314,1,100,0|0,0:0|1:0,0:0:0:0:
397,221,75006,2,0,P|347:219|306:247,1,100,0|0,0:0|1:0,0:0:0:0:
209,223,75673,2,0,L|209:155,2,50,4|0|0,1:0|3:0|1:0,0:0:0:0:
209,275,76173,1,0,1:0:0:0:
209,323,76339,6,0,P|160:321|119:349,1,100,4|0,0:0|1:0,0:0:0:0:
88,253,77006,2,0,P|39:254|-2:226,1,100,0|0,0:0|1:0,0:0:0:0:
27,129,77673,2,0,P|77:127|118:155,1,100,0|0,0:0|1:0,0:0:0:0:
215,185,78339,1,4,1:0:0:0:
215,133,78506,1,0,1:0:0:0:
215,81,78673,2,0,L|215:31,1,50,0|0,3:0|1:0,0:0:0:0:
258,55,79006,6,0,P|307:54|348:82,1,100,4|0,0:0|1:0,0:0:0:0:
383,175,79673,2,0,P|424:147|473:148,1,100,0|0,0:0|1:0,0:0:0:0:
502,248,80339,2,0,P|461:275|412:273,1,100,0|0,0:0|1:0,0:0:0:0:
316,303,81006,2,0,L|316:353,2,50,4|0|0,1:0|0:0|1:0,0:0:0:0:
316,252,81506,1,0,1:0:0:0:
274,279,81673,6,0,P|230:307|170:299,1,100,4|0,0:0|1:0,0:0:0:0:
154,211,82339,2,0,P|198:183|258:191,1,100,0|0,0:0|1:0,0:0:0:0:
342,203,83006,2,0,P|386:231|446:223,1,100,0|0,0:0|1:0,0:0:0:0:
512,168,83673,2,0,L|512:104,1,50,4|0,3:3|1:0,0:0:0:0:
472,88,84006,2,0,L|472:24,1,50,0|0,1:0|1:0,0:0:0:0:
436,4,84339,5,4,1:0:0:0:
256,240,87673,6,0,L|256:332,2,75,0|0|0,1:0|1:0|1:0,0:0:0:0:
256,192,88339,1,0,0:0:0:0:
