osu file format v14

[General]
AudioFilename: audio.mp3
AudioLeadIn: 0
PreviewTime: 34274
Countdown: 0
SampleSet: Soft
StackLeniency: 0.7
Mode: 0
LetterboxInBreaks: 0
WidescreenStoryboard: 0

[Editor]
Bookmarks: 34713,44046,58129,84046
DistanceSpacing: 1
BeatDivisor: 4
GridSize: 4
TimelineZoom: 1.4

[Metadata]
Title:One Room Sugar Life (TV Size)
TitleUnicode:ワンルームシュガーライフ (TV Size)
Artist:Nanawo Akari
ArtistUnicode:ナナヲアカリ
Creator:Fushimi Rio
Version:Happy Heart Life
Source:ハッピーシュガーライフ
Tags:happysugarlife Ezo’la ナユタン星人 ナユタセイジ Sony Music Associated Records 野良いぬ 鍵空とみやき Kongou Hikari Bariton PinkHeart Ametrin
BeatmapID:1706017
BeatmapSetID:813454

[Difficulty]
HPDrainRate:9
CircleSize:4.2
OverallDifficulty:9
ApproachRate:9.3
SliderMultiplier:2.4
SliderTickRate:1

[Events]
//Background and Video events
0,0,"bg.jpg",0,0
Video,0,"video.flv"
//Break Periods
2,71206,72452
//Storyboard Layer 0 (Background)
//Storyboard Layer 1 (Fail)
//Storyboard Layer 2 (Pass)
//Storyboard Layer 3 (Foreground)
//Storyboard Sound Samples

[TimingPoints]
340,333.333333333333,4,2,1,30,1,0
340,-133.333333333333,4,2,1,30,0,0
1089,-133.333333333333,4,2,1,5,0,0
1173,-133.333333333333,4,2,1,30,0,0
1756,-133.333333333333,4,2,1,50,0,0
12339,-133.333333333333,4,2,1,70,0,0
12423,-133.333333333333,4,2,1,50,0,0
13673,-100,4,2,1,70,0,1
14006,-100,4,2,1,70,0,0
22006,-66.6666666666667,4,2,1,70,0,0
22256,-66.6666666666667,4,2,1,5,0,0
22339,-66.6666666666667,4,2,1,70,0,0
22923,-66.6666666666667,4,2,1,5,0,0
23006,-66.6666666666667,4,2,1,70,0,0
24339,-133.333333333333,4,2,1,50,0,0
28589,-133.333333333333,4,2,1,5,0,0
28673,-66.6666666666667,4,2,1,50,0,0
29339,-50,4,2,1,70,0,0
29589,-50,4,2,1,5,0,0
29673,-100,4,2,1,70,0,0
34506,-100,4,2,1,60,0,0
34673,-100,4,2,1,50,0,0
34839,-100,4,2,1,40,0,0
39006,-50,4,2,1,50,0,0
39256,-50,4,2,1,5,0,0
39339,-50,4,2,1,50,0,0
39589,-50,4,2,1,5,0,0
39672,-50,4,2,1,50,0,0
39923,-50,4,2,1,5,0,0
40006,-50,4,2,1,50,0,0
40256,-50,4,2,1,5,0,0
40339,-100,4,2,1,40,0,0
44339,-50,4,2,1,50,0,0
44589,-50,4,2,1,5,0,0
44672,-50,4,2,1,50,0,0
44923,-50,4,2,1,5,0,0
45006,-50,4,2,1,50,0,0
45256,-50,4,2,1,5,0,0
45339,-50,4,2,1,50,0,0
45589,-50,4,2,1,5,0,0
45673,-100,4,2,1,70,0,0
51006,-100,4,2,1,70,0,1
59256,-100,4,2,1,5,0,1
59339,-100,4,2,1,70,0,1
59923,-100,4,2,1,5,0,1
60006,-100,4,2,1,70,0,1
71006,-100,4,2,1,70,0,0
73256,-100,4,2,1,5,0,0
73339,-66.6666666666667,4,2,1,60,0,0
73423,-66.6666666666667,4,2,1,5,0,0
73506,-50,4,2,1,50,0,0
73589,-50,4,2,1,5,0,0
73673,-100,4,2,1,70,0,1
74006,-100,4,2,1,70,0,0
84006,-100,4,2,1,60,0,0
84173,-100,4,2,1,50,0,0
84339,-100,4,2,1,40,0,0
87673,-33.3333333333333,4,2,1,50,0,0
87839,-50,4,2,1,5,0,0
87922,-33.3333333333333,4,2,1,50,0,0
88089,-33.3333333333333,4,2,1,5,0,0
88172,-200,4,2,1,50,0,0

[Colours]
Combo1 : 128,128,255
Combo2 : 255,128,255
Combo3 : 215,108,215
Combo4 : 175,88,175
Combo5 : 135,68,135
Combo6 : 95,48,95
Combo7 : 48,48,95

[HitObjects]
42,102,839,6,0,P|85:62|166:67,1,135.000005149841,2|0,0:0|0:0,0:0:0:0:
155,147,1173,2,0,P|220:112|144:72,1,180.000006866455
248,216,1673,85,6,0:0:0:0:
336,216,1839,1,0,0:0:0:0:
424,216,2006,1,0,0:0:0:0:
512,216,2173,1,2,0:0:0:0:
120,296,2506,6,0,P|104:272|112:208,2,90.0000034332277
208,320,3006,85,2,0:0:0:0:
296,320,3173,1,0,0:0:0:0:
384,320,3339,1,0,0:0:0:0:
472,320,3506,1,2,0:0:0:0:
56,76,3839,5,0,0:0:0:0:
137,149,4006,1,2,0:0:0:0:
160,42,4173,1,0,0:0:0:0:
156,360,4506,85,0,0:0:0:0:
183,231,4673,1,2,0:0:0:0:
280,319,4839,1,0,0:0:0:0:
336,252,5006,1,0,0:0:0:0:
424,252,5173,1,0,0:0:0:0:
512,252,5339,1,2,0:0:0:0:
380,172,5506,6,0,P|380:100|484:80,1,180.000006866455
471,72,6006,1,0,0:0:0:0:
471,72,6339,1,0,0:0:0:0:
483,83,6673,2,0,P|471:143|448:164,1,90.0000034332277,4|0,0:1|0:0,0:0:0:0:
281,226,7006,85,4,0:1:0:0:
352,140,7173,1,0,0:0:0:0:
392,244,7339,1,0,3:0:0:0:
264,248,7506,2,0,P|224:228|204:176,1,90.0000034332277
248,28,7839,5,0,0:0:0:0:
162,99,8006,1,0,3:0:0:0:
266,139,8173,1,0,0:0:0:0:
92,44,8339,85,0,0:0:0:0:
191,168,8506,1,0,0:0:0:0:
33,194,8673,1,0,3:0:0:0:
112,16,8839,2,0,P|152:36|172:88,1,90.0000034332277
19,107,9173,5,0,0:0:0:0:
212,87,9339,2,0,P|214:131|179:174,1,90.0000034332277,0|0,3:0|0:0,0:0:0:0:
115,282,9673,86,0,P|160:209|244:224,1,180.000006866455,0|0,0:0|3:0,0:0:0:0:
296,312,10173,1,0,0:0:0:0:
360,152,10339,1,0,0:0:0:0:
420,276,10506,2,0,L|516:276,1,90.0000034332277,0|0,0:0|3:0,0:0:0:0:
408,56,10839,5,0,1:0:0:0:
416,84,11173,85,4,3:3:0:0:
368,356,11340,1,0,1:0:0:0:
96,308,11506,1,0,1:0:0:0:
144,36,11673,1,0,1:0:0:0:
212,371,12339,5,12,1:0:0:0:
200,314,12423,1,0,3:0:0:0:
156,274,12506,1,0,3:0:0:0:
98,268,12589,1,0,3:0:0:0:
47,298,12673,85,0,1:0:0:0:
59,325,12756,1,0,3:0:0:0:
82,345,12839,1,0,3:0:0:0:
110,354,12923,1,0,3:0:0:0:
144,352,13006,5,0,1:0:0:0:
96,80,13173,1,0,1:0:0:0:
368,32,13339,1,0,1:0:0:0:
416,304,13506,1,0,1:0:0:0:
256,104,13673,85,4,0:2:0:0:
256,280,13839,1,0,0:0:0:0:
256,192,14006,5,0,1:0:0:0:
256,192,14089,1,0,0:0:0:0:
256,192,14173,1,0,0:0:0:0:
328,115,14339,85,0,0:0:0:0:
181,266,14506,1,0,0:0:0:0:
256,192,14673,5,0,1:0:0:0:
256,192,14756,1,0,0:0:0:0:
256,192,14839,1,0,0:0:0:0:
380,192,15006,85,0,0:0:0:0:
134,192,15173,1,0,0:0:0:0:
256,192,15339,5,0,1:0:0:0:
256,192,15423,1,0,0:0:0:0:
256,192,15506,1,0,0:0:0:0:
222,0,15673,85,4,1:1:0:0:
448,158,15839,1,0,0:0:0:0:
289,384,16006,1,0,1:0:0:0:
63,225,16173,1,0,1:0:0:0:
330,266,16339,5,4,0:0:0:0:
180,116,16506,1,0,0:0:0:0:
256,192,16673,85,0,1:0:0:0:
256,192,16756,1,0,0:0:0:0:
256,192,16839,1,0,0:0:0:0:
256,314,17006,5,0,0:0:0:0:
256,67,17173,1,0,0:0:0:0:
256,192,17339,85,0,1:0:0:0:
256,192,17423,1,0,0:0:0:0:
256,192,17506,1,0,0:0:0:0:
156,289,17673,5,0,0:0:0:0:
356,90,17839,1,0,0:0:0:0:
256,192,18006,85,0,1:0:0:0:
256,192,18089,1,0,0:0:0:0:
256,192,18173,1,0,0:0:0:0:
416,304,18339,5,4,1:0:0:0:
95,79,18506,1,0,1:0:0:0:
210,275,18672,85,0,1:0:0:0:
169,291,18756,5,0,1:0:0:0:
129,273,18839,85,0,1:0:0:0:
114,231,18922,5,0,1:0:0:0:
132,192,19006,85,4,0:0:0:0:
379,192,19173,1,0,0:0:0:0:
256,192,19339,5,0,1:0:0:0:
256,192,19423,1,0,0:0:0:0:
256,192,19506,1,0,0:0:0:0:
155,91,19673,85,0,0:0:0:0:
354,290,19839,1,0,0:0:0:0:
256,192,20006,5,0,1:0:0:0:
256,192,20089,1,0,0:0:0:0:
256,192,20173,1,0,0:0:0:0:
256,32,20339,85,0,0:0:0:0:
256,349,20506,1,0,0:0:0:0:
256,192,20673,5,0,1:0:0:0:
256,192,20756,1,0,0:0:0:0:
256,192,20839,1,0,0:0:0:0:
63,225,21006,85,4,1:0:0:0:
222,0,21173,1,0,0:0:0:0:
448,158,21339,1,0,1:0:0:0:
289,384,21506,1,0,1:0:0:0:
318,129,21673,5,4,1:0:0:0:
193,254,21839,1,0,1:0:0:0:
512,68,22006,86,0,P|492:190|368:189,1,270.000010299683,4|0,0:0|0:0,0:0:0:0:
193,129,22339,5,0,1:0:0:0:
318,254,22506,1,0,1:0:0:0:
0,68,22673,86,0,P|19:190|143:189,1,270.000010299683,4|0,0:0|0:0,0:0:0:0:
256,4,23006,5,4,1:0:0:0:
256,384,23173,1,0,1:0:0:0:
256,4,23339,85,0,1:0:0:0:
256,384,23506,1,0,1:0:0:0:
127,141,23673,5,0,1:0:0:0:
139,183,23756,1,0,3:0:0:0:
173,211,23839,1,0,3:0:0:0:
217,214,23923,1,0,3:0:0:0:
256,192,24006,1,0,3:0:0:0:
301,163,24089,1,0,3:0:0:0:
354,160,24173,1,0,3:0:0:0:
402,184,24256,1,0,3:0:0:0:
431,229,24339,86,0,P|392:318|256:192,1,360.000013732911,4|8,0:0|0:3,0:0:0:0:
334,171,25173,1,4,3:0:0:0:
217,124,25339,1,0,3:0:0:0:
334,171,25506,1,0,0:0:0:0:
217,259,25673,6,0,P|120:269|160:92,1,270.000010299683,4|0,0:0|3:0,0:0:0:0:
116,104,26256,1,0,3:0:0:0:
152,100,26339,1,8,3:0:0:0:
232,140,26506,1,0,3:0:0:0:
316,112,26673,1,4,3:0:0:0:
360,32,26839,1,0,0:0:0:0:
296,200,27006,86,0,P|335:289|471:163,1,360.000013732911,4|0,0:0|3:0,0:0:0:0:
423,104,27839,1,4,3:0:0:0:
423,104,28006,1,0,3:0:0:0:
423,104,28173,1,0,0:0:0:0:
408,290,28339,6,0,P|464:257|462:193,1,135.000005149841,4|0,0:1|0:0,0:0:0:0:
419,20,28673,86,0,P|345:63|348:149,1,180.000006866455,4|0,0:0|0:0,0:0:0:0:
420,240,29006,5,8,3:0:0:0:
420,240,29089,1,0,3:0:0:0:
420,240,29173,1,0,3:0:0:0:
420,240,29256,1,0,3:0:0:0:
420,240,29339,2,0,B|316:256|316:256|228:124|228:124|92:144,1,360,4|0,1:0|0:0,0:0:0:0:
85,248,29673,86,0,P|143:250|188:212,1,120,4|0,0:0|0:0,0:0:0:0:
464,128,30006,2,0,P|405:125|361:164,1,120,0|0,1:0|0:0,0:0:0:0:
340,276,30256,1,0,0:0:0:0:
356,300,30339,6,0,P|387:250|375:192,1,120,0|0,3:0|0:0,0:0:0:0:
348,0,30673,2,0,P|316:49|328:107,1,120,0|0,1:0|0:0,0:0:0:0:
464,128,31006,85,2,0:0:0:0:
240,172,31173,1,0,0:0:0:0:
464,128,31339,5,2,1:2:0:0:
240,172,31506,1,0,0:0:0:0:
96,104,31673,86,0,P|39:113|40:220,1,180,0|0,3:0|0:0,0:0:0:0:
37,216,32006,2,0,L|155:194,1,120,0|0,1:0|0:0,0:0:0:0:
188,368,32339,6,0,P|245:359|244:252,1,180
247,256,32673,2,0,L|129:278,1,120,0|0,1:0|0:0,0:0:0:0:
348,316,33006,85,0,3:0:0:0:
260,140,33173,1,0,0:0:0:0:
380,336,33339,5,0,1:0:0:0:
394,100,33506,1,0,0:0:0:0:
396,366,33673,86,0,P|453:357|452:250,1,180,4|0,3:1|0:0,0:0:0:0:
424,116,34006,2,8,P|373:181|422:241,1,120,0|0,1:0|0:0,0:0:0:0:
368,32,34339,5,4,3:0:0:0:
144,351,34505,5,0,1:0:0:0:
97,78,34672,5,0,1:0:0:0:
416,303,34839,5,0,1:0:0:0:
256,192,35006,5,4,1:0:0:0:
256,192,35089,1,0,3:0:0:0:
260,328,35256,1,0,3:0:0:0:
232,328,35339,1,0,3:0:0:0:
204,328,35423,1,0,3:0:0:0:
176,328,35506,1,0,3:0:0:0:
148,232,35673,1,0,3:0:0:0:
176,232,35756,1,0,3:0:0:0:
176,328,35923,1,0,3:0:0:0:
148,328,36006,1,0,3:0:0:0:
120,328,36089,1,0,3:0:0:0:
92,328,36173,1,0,3:0:0:0:
90,223,36339,5,0,3:0:0:0:
90,109,36506,1,0,3:0:0:0:
90,81,36589,1,0,3:0:0:0:
10,149,36756,1,0,3:0:0:0:
10,121,36839,1,0,3:0:0:0:
90,197,37006,1,0,3:0:0:0:
118,197,37089,1,0,3:0:0:0:
146,197,37173,1,0,3:0:0:0:
146,169,37256,1,0,3:0:0:0:
214,241,37423,1,0,3:0:0:0:
242,241,37506,1,0,3:0:0:0:
292,328,37673,85,0,3:0:0:0:
264,328,37756,1,0,3:0:0:0:
264,240,37923,1,0,3:0:0:0:
292,240,38006,1,0,3:0:0:0:
168,240,38173,1,0,3:0:0:0:
94,166,38339,1,0,3:0:0:0:
94,138,38423,1,0,3:0:0:0:
122,138,38506,1,0,3:0:0:0:
150,138,38589,1,0,3:0:0:0:
98,274,38756,1,0,3:0:0:0:
98,246,38839,1,0,3:0:0:0:
100,352,39006,86,0,B|256:352|256:352|256:148,1,360,4|0,1:0|0:0,0:0:0:0:
256,4,39339,86,0,B|184:4|184:4|184:76|184:76|484:76,1,360,4|0,0:0|0:0,0:0:0:0:
400,148,39673,86,0,L|8:148,1,360,0|0,1:0|0:0,0:0:0:0:
88,220,40006,86,0,B|160:220|160:220|160:4|160:4|88:4,1,360,4|0,0:0|0:0,0:0:0:0:
88,76,40339,53,4,1:0:0:0:
88,332,40506,1,0,3:0:0:0:
116,332,40589,1,0,3:0:0:0:
240,332,40756,1,0,3:0:0:0:
212,332,40839,1,0,3:0:0:0:
164,232,41006,1,0,3:0:0:0:
288,232,41173,1,0,3:0:0:0:
260,232,41256,1,0,3:0:0:0:
164,120,41423,1,0,3:0:0:0:
192,120,41506,1,0,3:0:0:0:
304,68,41673,5,0,3:0:0:0:
276,68,41756,1,0,3:0:0:0:
264,148,41923,1,0,3:0:0:0:
292,148,42006,1,0,3:0:0:0:
324,148,42089,1,0,3:0:0:0:
192,88,42256,1,0,3:0:0:0:
192,60,42339,1,0,3:0:0:0:
124,156,42506,1,0,3:0:0:0:
60,32,42673,1,0,3:0:0:0:
60,60,42756,1,0,3:0:0:0:
60,88,42839,1,0,3:0:0:0:
124,212,43006,85,0,3:0:0:0:
124,184,43089,1,0,3:0:0:0:
28,280,43256,1,0,3:0:0:0:
56,280,43339,1,0,3:0:0:0:
248,280,43506,1,0,3:0:0:0:
220,280,43589,1,0,3:0:0:0:
192,280,43673,1,0,3:0:0:0:
332,244,43839,1,0,3:0:0:0:
360,244,43923,1,0,3:0:0:0:
384,352,44089,1,0,3:0:0:0:
384,324,44173,1,0,3:0:0:0:
412,324,44256,1,0,3:0:0:0:
412,352,44339,86,0,B|256:352|256:352|256:148,1,360,4|0,1:0|0:0,0:0:0:0:
328,64,44673,86,0,B|328:280|328:280|100:280,1,360,4|0,0:0|0:0,0:0:0:0:
40,280,45006,86,0,B|40:207|40:207|112:207|112:207|112:352|112:352|208:352,1,360,4|0,1:0|0:0,0:0:0:0:
280,352,45339,86,0,B|424:352|424:352|424:72,1,360,4|0,0:0|0:0,0:0:0:0:
425,45,45673,85,4,0:1:0:0:
432,52,46173,5,0,0:0:0:0:
432,52,46256,1,0,0:0:0:0:
432,52,46339,1,0,0:0:0:0:
432,52,46839,85,0,3:0:0:0:
432,52,46923,1,0,3:0:0:0:
432,52,47006,2,0,P|400:116|244:104,1,240,4|0,0:0|1:0,0:0:0:0:
192,28,47506,1,0,3:0:0:0:
144,272,47673,2,0,L|176:116,1,120
128,352,48006,2,0,L|-28:320,1,120,0|0,1:0|0:0,0:0:0:0:
452,340,48339,5,0,1:0:0:0:
452,340,49673,85,0,1:0:0:0:
434,316,49756,1,0,3:0:0:0:
432,286,49839,1,0,3:0:0:0:
444,258,49923,1,0,3:0:0:0:
467,222,50006,1,0,3:0:0:0:
465,180,50089,1,0,3:0:0:0:
436,149,50173,1,0,3:0:0:0:
396,148,50256,1,0,3:0:0:0:
179,317,50506,6,0,P|68:276|117:167,1,240,2|0,0:0|0:0,0:0:0:0:
60,80,51006,85,4,0:0:0:0:
224,152,51173,1,0,0:0:0:0:
64,104,51339,5,0,1:0:0:0:
259,82,51506,2,0,L|390:68,1,120
140,205,51839,85,0,0:0:0:0:
158,204,51923,1,0,0:0:0:0:
175,202,52006,1,0,1:0:0:0:
335,186,52173,1,0,0:0:0:0:
266,36,52339,5,0,0:0:0:0:
194,200,52506,1,0,0:0:0:0:
242,40,52673,85,0,1:0:0:0:
264,235,52839,2,0,L|278:366,1,120
291,206,53173,5,0,0:0:0:0:
104,204,53339,1,0,1:0:0:0:
318,177,53506,2,0,L|437:164,1,120
350,258,53839,85,0,0:0:0:0:
286,92,54006,1,0,1:0:0:0:
175,231,54173,1,0,0:0:0:0:
40,102,54339,5,0,0:0:0:0:
206,311,54506,1,0,0:0:0:0:
302,61,54673,1,0,1:0:0:0:
231,231,54839,86,0,P|253:309|341:313,1,180
340,313,55173,1,0,0:0:0:0:
308,184,55339,1,0,1:0:0:0:
437,213,55506,1,0,0:0:0:0:
397,87,55673,5,4,0:3:0:0:
218,258,55839,1,0,3:0:0:0:
172,277,55923,1,0,3:0:0:0:
124,270,56006,1,0,1:0:0:0:
86,238,56089,1,0,3:0:0:0:
73,190,56173,1,0,3:0:0:0:
86,143,56256,1,0,3:0:0:0:
123,110,56339,85,4,0:0:0:0:
142,288,56506,1,0,0:0:0:0:
104,125,56673,5,0,1:0:0:0:
220,283,56839,2,0,L|297:389,1,120
89,219,57173,85,0,0:0:0:0:
254,263,57339,2,0,P|293:231|294:149,1,120,0|0,1:0|0:0,0:0:0:0:
183,18,57673,5,0,0:0:0:0:
349,62,57839,1,0,0:0:0:0:
223,189,58006,85,0,1:0:0:0:
381,73,58173,2,0,L|487:-5,1,120
348,194,58506,5,0,0:0:0:0:
255,67,58673,1,0,1:0:0:0:
191,350,58839,1,0,0:0:0:0:
88,211,59006,86,0,P|179:189|193:275,1,180,4|0,0:1|0:0,0:0:0:0:
49,282,59339,2,0,P|13:240|19:168,1,120,0|0,1:0|0:0,0:0:0:0:
250,104,59673,6,0,P|341:125|355:39,1,180,4|0,0:0|0:0,0:0:0:0:
491,2,60006,2,0,P|455:44|461:116,1,120,0|0,1:0|0:0,0:0:0:0:
458,261,60339,85,4,1:0:0:0:
175,77,60506,1,0,1:0:0:0:
338,24,60673,5,0,1:0:0:0:
154,307,60839,1,0,1:0:0:0:
0,6,61006,1,4,0:0:0:0:
164,115,61173,1,0,3:0:0:0:
164,115,61256,1,0,3:0:0:0:
155,98,61339,85,0,3:0:0:0:
175,102,61423,1,0,3:0:0:0:
179,122,61506,1,0,3:0:0:0:
160,131,61589,1,0,3:0:0:0:
146,117,61673,6,0,P|138:43|225:35,1,180,4|0,0:0|0:0,0:0:0:0:
136,152,62006,2,0,P|102:102|103:42,1,120,0|2,1:0|0:0,0:0:0:0:
115,324,62339,2,0,P|180:302|198:200,1,180
136,152,62673,1,0,1:0:0:0:
301,244,62839,1,0,0:0:0:0:
330,248,62923,1,0,0:0:0:0:
358,237,63006,86,0,P|366:163|279:155,1,180
368,272,63339,2,0,P|402:222|401:162,1,120,0|2,1:0|0:0,0:0:0:0:
279,341,63673,2,0,P|214:319|196:217,1,180
258,169,64006,1,0,1:0:0:0:
92,256,64173,1,0,0:0:0:0:
63,260,64256,1,0,0:0:0:0:
36,245,64339,6,0,P|28:171|115:163,1,180,0|0,2:0|2:0,2:0:0:0:
183,200,64673,2,0,P|243:180|259:131,1,120,0|2,1:0|0:0,0:0:0:0:
334,242,65006,1,0,0:0:0:0:
277,33,65173,1,0,0:0:0:0:
334,242,65339,1,0,1:0:0:0:
430,67,65506,86,0,P|370:87|354:136,1,120
485,121,65839,1,0,0:0:0:0:
368,0,66006,1,0,1:0:0:0:
366,220,66173,1,0,0:0:0:0:
216,23,66339,5,2,0:0:0:0:
345,252,66506,1,0,0:0:0:0:
78,134,66673,85,0,1:0:0:0:
342,289,66839,1,0,3:0:0:0:
369,299,66923,1,0,3:0:0:0:
397,291,67006,6,0,P|423:221|341:191,1,180,4|0,0:0|0:0,0:0:0:0:
397,328,67339,2,0,P|442:288|457:230,1,120,0|2,1:0|0:0,0:0:0:0:
487,22,67673,2,0,P|456:77|350:73,1,180
307,10,68006,1,0,1:0:0:0:
168,231,68173,1,0,0:0:0:0:
141,221,68256,1,0,0:0:0:0:
113,228,68339,86,0,P|86:297|168:327,1,180
113,192,68673,2,0,P|67:231|52:289,1,120,0|2,1:0|0:0,0:0:0:0:
286,190,69006,2,0,P|287:127|192:77,1,180
124,110,69339,1,0,1:0:0:0:
399,10,69506,1,0,0:0:0:0:
426,0,69589,1,0,0:0:0:0:
454,7,69673,6,0,P|480:76|398:106,1,180,4|0,0:1|0:0,0:0:0:0:
325,81,70006,2,0,P|264:76|213:107,1,120,0|2,1:0|0:0,0:0:0:0:
298,279,70339,1,4,0:3:0:0:
142,33,70506,85,0,1:0:0:0:
96,304,70673,1,0,1:0:0:0:
367,352,70839,1,0,1:0:0:0:
415,80,71006,1,0,1:0:0:0:
512,104,73006,5,8,0:1:0:0:
512,104,73089,1,0,0:0:0:0:
512,104,73173,2,0,L|488:167,1,60,0|0,1:0|0:0,0:0:0:0:
436,68,73339,86,0,L|388:195,1,90.0000034332277,0|0,1:0|0:0,0:0:0:0:
360,36,73506,6,0,L|312:163,1,120,0|0,1:0|0:0,0:0:0:0:
256,280,73673,85,4,0:0:0:0:
256,104,73839,1,0,0:0:0:0:
256,192,74006,5,0,1:0:0:0:
256,192,74089,1,0,0:0:0:0:
256,192,74173,1,0,0:0:0:0:
181,267,74339,85,0,0:0:0:0:
331,117,74506,1,0,0:0:0:0:
256,192,74673,5,0,1:0:0:0:
256,192,74756,1,0,0:0:0:0:
256,192,74839,1,0,0:0:0:0:
132,192,75006,85,0,0:0:0:0:
379,192,75173,1,0,0:0:0:0:
256,192,75339,5,0,1:0:0:0:
256,192,75423,1,0,0:0:0:0:
256,192,75506,1,0,0:0:0:0:
290,384,75673,85,4,1:0:0:0:
63,225,75839,1,0,0:0:0:0:
222,0,76006,1,0,1:0:0:0:
448,158,76173,1,0,1:0:0:0:
181,116,76339,5,4,0:0:0:0:
331,267,76506,1,0,0:0:0:0:
256,192,76673,85,0,1:0:0:0:
256,192,76756,1,0,0:0:0:0:
256,192,76839,1,0,0:0:0:0:
256,68,77006,5,0,0:0:0:0:
256,315,77173,1,0,0:0:0:0:
256,192,77339,85,0,1:0:0:0:
256,192,77423,1,0,0:0:0:0:
256,192,77506,1,0,0:0:0:0:
356,91,77673,5,0,0:0:0:0:
156,291,77839,1,0,0:0:0:0:
256,192,78006,85,0,1:0:0:0:
256,192,78089,1,0,0:0:0:0:
256,192,78173,1,0,0:0:0:0:
96,80,78339,5,4,1:0:0:0:
415,305,78506,1,0,1:0:0:0:
283,132,78673,85,0,1:0:0:0:
318,106,78757,5,0,1:0:0:0:
361,113,78840,85,0,1:0:0:0:
386,149,78923,5,0,1:0:0:0:
379,192,79006,85,4,0:0:0:0:
132,192,79173,1,0,0:0:0:0:
256,192,79339,5,0,1:0:0:0:
256,192,79423,1,0,0:0:0:0:
256,192,79506,1,0,0:0:0:0:
355,291,79673,85,0,0:0:0:0:
156,90,79839,1,0,0:0:0:0:
256,192,80006,5,0,1:0:0:0:
256,192,80089,1,0,0:0:0:0:
256,192,80173,1,0,0:0:0:0:
254,348,80339,85,0,0:0:0:0:
256,32,80506,1,0,0:0:0:0:
256,192,80673,5,0,1:0:0:0:
256,192,80756,1,0,0:0:0:0:
256,192,80839,1,0,0:0:0:0:
449,159,81006,85,4,1:0:0:0:
289,383,81173,1,0,0:0:0:0:
63,226,81339,1,0,1:0:0:0:
223,0,81506,1,0,3:0:0:0:
155,291,81673,5,4,0:0:0:0:
355,91,81839,1,0,0:0:0:0:
256,192,82006,85,0,1:0:0:0:
256,192,82089,1,0,0:0:0:0:
256,192,82173,1,0,0:0:0:0:
94,192,82339,5,0,0:0:0:0:
413,192,82506,1,0,0:0:0:0:
256,192,82673,85,0,1:0:0:0:
256,192,82756,1,0,0:0:0:0:
256,192,82839,1,0,0:0:0:0:
130,65,83006,5,0,0:0:0:0:
380,316,83173,1,0,0:0:0:0:
256,192,83339,85,0,1:0:0:0:
256,192,83423,1,0,0:0:0:0:
256,192,83506,1,0,0:0:0:0:
142,351,83673,5,4,3:0:0:0:
367,32,83839,5,0,1:0:0:0:
96,80,84006,5,0,1:0:0:0:
415,304,84173,5,0,1:0:0:0:
256,192,84339,5,4,1:0:0:0:
256,192,84423,1,0,3:0:0:0:
256,192,84506,1,0,3:0:0:0:
256,192,84589,1,0,3:0:0:0:
256,312,84756,1,0,3:0:0:0:
284,312,84839,1,0,3:0:0:0:
380,312,85006,1,0,3:0:0:0:
408,312,85089,1,0,3:0:0:0:
408,284,85173,1,0,0:0:0:0:
504,284,85339,1,0,3:0:0:0:
504,256,85423,1,0,3:0:0:0:
504,228,85506,1,0,3:0:0:0:
408,256,85673,5,0,3:0:0:0:
408,228,85756,1,0,3:0:0:0:
504,256,85895,1,0,3:0:0:0:
504,184,86006,1,0,3:0:0:0:
432,184,86117,1,0,3:0:0:0:
432,256,86228,1,0,3:0:0:0:
432,328,86339,1,0,3:0:0:0:
404,328,86423,1,0,3:0:0:0:
376,328,86506,1,0,3:0:0:0:
348,328,86589,1,0,3:0:0:0:
320,328,86673,1,0,3:0:0:0:
236,324,86839,85,0,3:0:0:0:
208,324,86923,1,0,3:0:0:0:
208,296,87006,1,0,3:0:0:0:
208,268,87089,1,0,3:0:0:0:
112,240,87256,1,0,3:0:0:0:
112,268,87339,1,0,3:0:0:0:
52,168,87506,1,0,3:0:0:0:
52,140,87589,1,0,3:0:0:0:
52,112,87673,86,0,B|147:168|147:168|258:109|258:109|368:168,1,360,0|0,1:0|0:0,0:0:0:0:
462,192,87923,86,0,B|367:248|367:248|256:189|256:189|146:248,1,360.000013732911,0|0,1:0|0:0,0:0:0:0:
84,284,88173,86,0,L|31:312,1,60
