osu file format v14

[General]
AudioFilename: audio.mp3
AudioLeadIn: 0
PreviewTime: 44923
Countdown: 1
SampleSet: Soft
StackLeniency: 0.2
Mode: 0
LetterboxInBreaks: 0
WidescreenStoryboard: 0

[Editor]
DistanceSpacing: 0.1
BeatDivisor: 4
GridSize: 16
TimelineZoom: 4.199998

[Metadata]
Title:One Room Sugar Life (TV Size)
TitleUnicode:ワンルームシュガーライフ (TV Size)
Artist:Nanawo Akari
ArtistUnicode:ナナヲアカリ
Creator:-Nenecchi
Version:Bitter...
Source:ハッピーシュガーライフ
Tags:happysugarlife Ezo’la ナユタン星人 ナユタセイジ Sony Music Associated Records 野良いぬ 鍵空とみやき
BeatmapID:1851133
BeatmapSetID:885682

[Difficulty]
HPDrainRate:5
CircleSize:3.5
OverallDifficulty:8.5
ApproachRate:9.4
SliderMultiplier:3
SliderTickRate:1

[Events]
//Background and Video events
0,0,"thumb-1920-943159.jpg",0,0
Video,0,"Happy Sugar Life OP ハピシュガアニメ.mp4"
//Break Periods
2,71206,72466
//Storyboard Layer 0 (Background)
//Storyboard Layer 1 (Fail)
//Storyboard Layer 2 (Pass)
//Storyboard Layer 3 (Foreground)
//Storyboard Sound Samples

[TimingPoints]
340,333.333333333333,4,2,0,70,1,0
839,-166.666666666667,4,2,0,40,0,0
1173,-111.111111111111,4,2,0,40,0,0
2339,-166.666666666666,4,2,0,40,0,0
3839,-111.111111111111,4,2,0,40,0,0
5506,-199.999999999999,4,2,0,40,0,0
7006,-142.857142857142,4,2,0,40,0,0
8673,-149.253731343284,4,2,0,40,0,0
12339,-100,4,2,0,60,0,0
13006,-166.666666666667,4,2,0,40,0,0
13673,-66.6666666666667,4,2,0,70,0,0
14006,-285.714285714286,4,2,0,70,0,0
14339,-66.6666666666667,4,2,0,70,0,0
14673,-285.714285714286,4,2,0,70,0,0
15006,-66.6666666666667,4,2,0,70,0,0
15339,-285.714285714286,4,2,0,70,0,0
16339,-55.5555555555556,4,2,0,70,0,0
16673,-238.095238095238,4,2,0,70,0,0
17006,-55.5555555555556,4,2,0,70,0,0
17339,-238.095238095238,4,2,0,70,0,0
17673,-55.5555555555556,4,2,0,70,0,0
18006,-238.095238095238,4,2,0,70,0,0
19006,-46.2962962962963,4,2,0,70,0,0
19339,-198.412698412698,4,2,0,70,0,0
19673,-46.2962962962963,4,2,0,70,0,0
20006,-198.412698412698,4,2,0,70,0,0
20339,-46.2962962962963,4,2,0,70,0,0
20673,-198.412698412698,4,2,0,70,0,0
21339,-50,4,2,0,70,0,0
22006,-250,4,2,0,70,0,0
22673,-166.666666666667,4,2,0,70,0,0
23173,-100,4,2,0,70,0,0
24339,-166.666666666667,4,2,0,55,0,0
28339,-100,4,2,0,70,0,0
29006,-83.3333333333333,4,2,0,70,0,0
29339,-100,4,2,0,70,0,0
29673,-142.857142857143,4,2,0,70,0,0
35006,-125,4,2,0,55,0,0
38673,-129.87012987013,4,2,0,55,0,0
39006,-129.87012987013,4,2,0,70,0,0
40339,-129.87012987013,4,2,0,55,0,0
45006,-200,4,2,0,55,0,0
45339,-142.857142857143,4,2,0,55,0,0
45673,-166.666666666667,4,2,0,55,0,0
47006,-142.857142857143,4,2,0,55,0,0
49673,-100,4,2,0,60,0,0
50173,-100,4,2,0,45,0,0
50506,-111.111111111111,4,2,0,55,0,0
51006,-111.111111111111,4,2,0,70,0,1
56339,-111.111111111111,4,2,0,70,0,1
64173,-100,4,2,0,70,0,1
71006,-100,4,2,0,70,0,0
73173,-66.6666666666667,4,2,0,70,0,0
73339,-58.8235294117647,4,2,0,70,0,0
73506,-52.6315789473684,4,2,0,70,0,0
73673,-66.6666666666667,4,2,0,70,0,0
74006,-285.714285714286,4,2,0,70,0,0
74339,-66.6666666666667,4,2,0,70,0,0
74673,-285.714285714286,4,2,0,70,0,0
75006,-66.6666666666667,4,2,0,70,0,0
75339,-285.714285714286,4,2,0,70,0,0
76339,-55.5555555555556,4,2,0,70,0,0
76673,-238.095238095238,4,2,0,70,0,0
77006,-55.5555555555556,4,2,0,70,0,0
77339,-238.095238095238,4,2,0,70,0,0
77673,-55.5555555555556,4,2,0,70,0,0
78006,-238.095238095238,4,2,0,70,0,0
79006,-46.2962962962963,4,2,0,70,0,0
79339,-198.412698412698,4,2,0,70,0,0
79673,-46.2962962962963,4,2,0,70,0,0
80006,-198.412698412698,4,2,0,70,0,0
80339,-46.2962962962963,4,2,0,70,0,0
80673,-198.412698412698,4,2,0,70,0,0
81673,-38.5802469135802,4,2,0,70,0,0
82006,-165.343915343915,4,2,0,70,0,0
82339,-38.5802469135802,4,2,0,70,0,0
82673,-165.343915343915,4,2,0,70,0,0
83006,-38.5802469135802,4,2,0,70,0,0
83339,-165.343915343915,4,2,0,70,0,0
83673,-166.666666666667,4,2,0,40,0,0
84339,-125,4,2,0,40,0,0
87006,-76.9230769230769,4,2,0,40,0,0

[HitObjects]
137,116,839,6,0,P|173:151|220:170,1,89.9999972534181
359,126,1173,2,0,B|348:169|347:218|347:218|331:238|309:248,2,134.999995880127
137,146,1673,5,0,0:0:0:0:
266,52,1839,1,0,0:0:0:0:
137,146,2006,5,0,0:0:0:0:
349,156,2173,1,0,0:0:0:0:
137,146,2339,5,0,0:0:0:0:
190,324,2506,2,0,P|200:280|217:235,2,89.9999972534181
367,314,3006,5,0,0:0:0:0:
248,207,3172,1,0,0:0:0:0:
367,314,3339,5,0,0:0:0:0:
388,102,3506,1,0,0:0:0:0:
367,314,3673,5,0,0:0:0:0:
190,348,3839,2,0,B|149:349|118:320|118:320|119:284|151:268,2,134.999995880127
367,314,4339,5,0,0:0:0:0:
311,212,4506,1,0,0:0:0:0:
429,183,4673,5,0,0:0:0:0:
461,42,4839,1,0,0:0:0:0:
201,38,5006,5,0,0:0:0:0:
458,113,5173,1,0,0:0:0:0:
121,143,5339,1,0,0:0:0:0:
342,78,5506,2,0,B|389:130|345:187|345:187|384:214|438:210|438:210|423:258|385:274|385:274|375:313|323:329,1,375
140,316,6506,5,0,0:0:0:0:
227,239,6673,1,0,0:0:0:0:
44,225,6839,1,0,0:0:0:0:
227,239,7006,2,0,P|283:218|317:187,1,104.999996795654
334,75,7339,2,0,P|278:96|244:127,2,104.999996795654
336,168,7839,5,0,0:0:0:0:
282,252,8006,1,0,0:0:0:0:
481,261,8173,1,0,0:0:0:0:
390,84,8339,5,0,0:0:0:0:
382,257,8506,1,0,0:0:0:0:
435,172,8673,2,0,B|464:127|464:127|483:113|498:96,2,100.499995246124
151,174,9173,5,0,0:0:0:0:
368,177,9339,1,0,0:0:0:0:
194,296,9506,1,0,0:0:0:0:
368,177,9673,2,0,P|405:224|414:271,1,100.499995246124
370,347,10006,2,0,P|333:300|324:253,1,100.499995246124
420,118,10339,5,0,0:0:0:0:
160,71,10506,2,0,L|264:65,1,100.499995246124
440,57,10839,5,0,0:0:0:0:
385,176,11006,5,0,0:0:0:0:
335,62,11173,1,0,0:0:0:0:
268,238,11339,1,0,0:0:0:0:
335,62,11506,1,0,0:0:0:0:
128,191,11673,1,0,0:0:0:0:
268,89,12339,6,0,P|318:102|355:141,1,75
348,206,12506,1,0,0:0:0:0:
427,142,12589,1,0,0:0:0:0:
383,276,12673,6,0,P|348:314|296:328,1,75
134,263,12840,1,0,0:0:0:0:
242,267,12923,1,0,0:0:0:0:
88,136,13006,6,0,L|91:103,1,22.4999993133545,2|8,0:0|0:0,0:0:0:0:
308,105,13173,6,0,L|311:72,1,22.4999993133545,2|8,0:0|0:0,0:0:0:0:
172,218,13339,6,0,L|175:185,1,22.4999993133545,2|8,0:0|0:0,0:0:0:0:
450,313,13506,6,0,L|453:280,1,22.4999993133545,2|8,0:0|0:0,0:0:0:0:
359,185,13673,6,0,B|330:180|304:189|304:189|266:182|249:125|249:125|213:147|169:137,1,225,2|0,0:0|0:0,0:0:0:0:
130,113,13923,1,0,0:0:0:0:
359,185,14006,2,0,B|330:180|304:189|304:189,1,52.4999983978272,8|0,0:0|0:0,0:0:0:0:
98,307,14339,6,0,B|121:289|132:264|132:264|163:241|216:267|216:267|225:226|262:200,1,225,2|0,0:0|0:0,0:0:0:0:
306,188,14589,1,0,0:0:0:0:
98,307,14673,2,0,B|121:289|132:264|132:264,1,52.4999983978272,8|0,0:0|0:0,0:0:0:0:
137,93,15006,6,0,B|163:105|191:103|191:103|226:119|227:179|227:179|268:167|308:188,1,225,2|0,0:0|0:0,0:0:0:0:
339,220,15256,1,0,0:0:0:0:
137,93,15339,2,0,B|163:105|191:103|191:103,1,52.4999983978272,8|0,0:0|0:0,0:0:0:0:
381,61,15673,5,2,0:0:0:0:
455,293,15839,1,0,0:0:0:0:
418,35,16006,5,8,0:0:0:0:
373,226,16173,1,0,0:0:0:0:
472,46,16339,6,0,B|446:71|436:103|436:103|402:136|333:112|333:112|329:163|287:200,1,269.999991760254,2|0,0:0|0:0,0:0:0:0:
238,221,16589,1,0,0:0:0:0:
472,46,16673,2,0,B|446:71|436:103|436:103,1,62.9999980773926,8|0,0:0|0:0,0:0:0:0:
470,265,17006,6,0,B|434:262|403:276|403:276|356:273|328:205|328:205|287:237|232:230,1,269.999991760254,2|0,0:0|0:0,0:0:0:0:
183,208,17256,1,0,0:0:0:0:
470,265,17339,2,0,B|434:262|403:276|403:276,1,62.9999980773926,8|0,0:0|0:0,0:0:0:0:
189,343,17673,6,0,B|215:318|225:286|225:286|260:254|328:279|328:279|333:228|376:192,1,269.999991760254,2|0,0:0|0:0,0:0:0:0:
426,171,17923,1,0,0:0:0:0:
189,343,18006,2,0,B|215:318|225:286|225:286,1,62.9999980773926,8|0,0:0|0:0,0:0:0:0:
203,95,18339,5,2,0:0:0:0:
426,171,18505,1,0,0:0:0:0:
203,95,18673,1,8,0:0:0:0:
148,109,18756,1,8,0:0:0:0:
112,153,18839,1,8,0:0:0:0:
105,209,18923,1,8,0:0:0:0:
129,260,19006,6,0,B|170:268|208:257|208:257|262:269|284:351|284:351|337:322|400:338,1,324.000007910156,6|0,0:0|0:0,0:0:0:0:
453,371,19256,1,0,0:0:0:0:
129,260,19339,2,0,B|170:268|208:257|208:257,1,75.5999976928712,8|0,0:0|0:0,0:0:0:0:
450,128,19673,6,0,B|414:150|394:185|394:185|347:214|274:169|274:169|256:228|200:259,1,324.000007910156,2|0,0:0|0:0,0:0:0:0:
139,271,19923,1,0,0:0:0:0:
450,128,20006,2,0,B|414:150|394:185|394:185,1,75.5999976928712,8|0,0:0|0:0,0:0:0:0:
401,343,20339,6,0,B|364:321|324:321|324:321|276:293|281:207|281:207|221:219|167:184,1,324.000007910156,2|0,0:0|0:0,0:0:0:0:
128,135,20589,1,0,0:0:0:0:
401,343,20673,2,0,B|364:321|324:321|324:321,1,75.5999976928712,8|0,0:0|0:0,0:0:0:0:
149,346,21006,5,0,0:0:0:0:
55,186,21173,1,2,0:0:0:0:
42,175,21256,1,2,0:0:0:0:
60,171,21339,1,2,0:0:0:0:
149,346,21506,1,8,0:0:0:0:
53,177,21673,5,0,0:0:0:0:
318,234,21839,1,0,0:0:0:0:
53,177,22006,2,0,P|50:143|54:114,1,60,4|0,0:0|0:0,0:0:0:0:
396,95,22339,5,0,0:0:0:0:
130,150,22505,1,0,0:0:0:0:
396,95,22673,2,0,B|419:139|419:139|408:189,1,89.9999972534181,4|0,0:0|0:0,0:0:0:0:
88,267,23006,5,0,0:0:0:0:
325,149,23173,2,8,B|363:173|363:173|389:212,1,75
130,150,23339,2,8,B|131:105|131:105|152:63,1,75
375,300,23506,2,8,B|335:320|335:320|288:323,1,75
82,200,23673,5,2,0:0:0:0:
369,66,23839,1,8,0:0:0:0:
318,97,23923,1,8,0:0:0:0:
358,137,24006,1,8,0:0:0:0:
426,117,24090,1,8,0:0:0:0:
468,190,24173,1,8,0:0:0:0:
384,189,24257,1,8,0:0:0:0:
312,232,24339,6,0,P|275:266|234:288,1,89.9999972534181,4|0,0:0|0:0,0:0:0:0:
65,265,24673,2,0,P|95:225|132:196,1,89.9999972534181,2|0,0:0|0:0,0:0:0:0:
230,336,25006,5,0,0:0:0:0:
180,258,25173,1,0,0:0:0:0:
259,347,25339,1,0,0:0:0:0:
279,170,25506,1,0,0:0:0:0:
306,343,25673,2,0,P|336:302|351:260,1,89.9999972534181,6|0,0:0|0:0,0:0:0:0:
114,205,26006,5,2,0:0:0:0:
371,156,26173,1,8,0:0:0:0:
394,169,26256,1,8,0:0:0:0:
370,178,26339,1,8,0:0:0:0:
145,125,26506,1,0,0:0:0:0:
193,204,26673,1,0,0:0:0:0:
113,283,26839,1,0,0:0:0:0:
209,359,27006,6,0,P|262:355|313:340,1,89.9999972534181,4|0,0:0|0:0,0:0:0:0:
371,192,27339,2,0,B|342:226|342:226|308:255,1,89.9999972534181,2|0,0:0|0:0,0:0:0:0:
141,277,27673,5,0,0:0:0:0:
365,315,27839,1,0,0:0:0:0:
118,313,28006,1,0,0:0:0:0:
340,175,28173,1,0,0:0:0:0:
126,145,28339,6,0,P|64:94|163:94,1,225
195,142,28673,2,0,P|257:197|367:111,1,225,8|0,0:0|0:0,0:0:0:0:
362,96,29006,6,0,B|358:52|310:27|310:27|271:78|278:133,1,179.999994506836,10|0,0:0|0:0,0:0:0:0:
412,223,29339,2,0,B|373:266|323:278|323:278|307:295|288:305,1,150,2|0,0:0|0:0,0:0:0:0:
142,285,29673,6,0,P|173:240|219:209,1,104.999996795654,4|0,0:0|0:0,0:0:0:0:
325,194,29923,1,0,0:0:0:0:
325,194,30006,1,8,0:0:0:0:
82,171,30173,2,0,P|122:203|189:218,1,104.999996795654,2|0,0:0|0:0,0:0:0:0:
256,68,30506,2,0,P|208:86|161:137,1,104.999996795654,0|8,0:0|0:0,0:0:0:0:
339,123,30839,5,0,0:0:0:0:
256,271,31006,2,0,P|263:220|243:154,2,104.999996795654,2|2|8,0:0|0:0|0:0,0:0:0:0:
139,217,31506,6,0,B|133:178|133:178|107:169|107:169|100:132,1,104.999996795654,0|2,0:0|0:0,0:0:0:0:
113,321,31839,2,0,P|187:315|236:274,1,104.999996795654,0|8,0:0|0:0,0:0:0:0:
266,117,32173,5,0,0:0:0:0:
82,67,32339,2,0,P|66:122|82:169,1,104.999996795654,2|0,0:0|0:0,0:0:0:0:
194,0,32673,1,8,0:0:0:0:
59,270,32839,2,0,P|107:299|157:296,1,104.999996795654,0|2,0:0|0:0,0:0:0:0:
213,240,33089,1,0,0:0:0:0:
213,240,33173,5,0,0:0:0:0:
348,142,33339,1,8,0:0:0:0:
133,102,33506,2,0,P|131:157|121:212,1,104.999996795654,0|2,0:0|0:0,0:0:0:0:
0,140,33839,1,0,0:0:0:0:
129,309,34006,2,0,P|151:261|167:211,1,104.999996795654,8|0,0:0|0:0,0:0:0:0:
310,167,34339,6,0,L|316:128,1,26.2499991989136,2|8,0:0|0:0,0:0:0:0:
135,72,34506,6,0,L|141:33,1,26.2499991989136,2|8,0:0|0:0,0:0:0:0:
341,63,34673,6,0,L|347:24,1,26.2499991989136,2|8,0:0|0:0,0:0:0:0:
76,202,34839,6,0,L|82:163,1,26.2499991989136,2|8,0:0|0:0,0:0:0:0:
310,167,35006,6,0,P|327:228|306:297,1,120,4|0,0:0|0:0,0:0:0:0:
261,331,35256,1,0,0:0:0:0:
396,260,35339,1,8,0:0:0:0:
158,153,35506,5,0,0:0:0:0:
158,153,35673,6,0,P|202:107|272:91,1,120,2|0,0:0|0:0,0:0:0:0:
324,113,35923,1,0,0:0:0:0:
195,32,36006,1,8,0:0:0:0:
222,292,36173,5,0,0:0:0:0:
222,292,36339,2,0,P|160:276|111:223,1,120,2|0,0:0|0:0,0:0:0:0:
134,104,36589,2,0,P|133:71|126:38,1,60,0|8,0:0|0:0,0:0:0:0:
0,325,36756,2,0,P|29:340|61:351,1,60
206,162,37006,6,0,P|181:222|152:278,1,120,2|0,0:0|0:0,0:0:0:0:
223,79,37339,1,8,0:0:0:0:
242,268,37506,5,0,0:0:0:0:
350,78,37673,1,2,0:0:0:0:
411,155,37756,1,0,0:0:0:0:
312,168,37839,2,0,P|268:129|251:73,1,120,0|8,0:0|0:0,0:0:0:0:
411,155,38173,1,0,0:0:0:0:
216,209,38339,5,2,0:0:0:0:
328,230,38423,1,0,0:0:0:0:
184,228,38506,5,0,0:0:0:0:
296,249,38590,1,0,0:0:0:0:
152,247,38673,2,0,L|265:268,1,115.499997708893,8|0,0:0|0:0,0:0:0:0:
174,77,39006,5,0,0:0:0:0:
216,329,39173,1,0,0:0:0:0:
295,41,39339,5,0,0:0:0:0:
104,313,39506,1,0,0:0:0:0:
398,105,39673,5,2,0:0:0:0:
383,189,39756,1,0,0:0:0:0:
334,260,39839,2,8,P|308:273|280:280,1,57.7499988544464
103,161,40007,5,4,0:0:0:0:
138,80,40090,1,0,0:0:0:0:
225,69,40173,1,0,0:0:0:0:
279,139,40256,1,0,0:0:0:0:
190,150,40339,6,0,P|192:212|174:277,1,115.499997708893,6|0,0:0|0:0,0:0:0:0:
130,326,40589,1,0,0:0:0:0:
130,326,40673,1,8,0:0:0:0:
190,150,40839,1,0,0:0:0:0:
352,265,41006,5,2,0:0:0:0:
356,258,41089,2,0,L|365:125,1,115.499997708893
369,58,41339,1,8,0:0:0:0:
369,58,41506,1,0,0:0:0:0:
120,135,41673,6,0,P|120:168|128:204,2,57.7499988544464,2|0|0,0:0|0:0|0:0,0:0:0:0:
201,24,42006,2,0,P|216:78|220:144,1,115.499997708893,8|0,0:0|0:0,0:0:0:0:
216,177,42256,1,0,0:0:0:0:
201,214,42339,1,2,0:0:0:0:
392,183,42506,1,0,0:0:0:0:
401,103,42589,1,0,0:0:0:0:
392,183,42673,2,0,P|371:239|339:291,1,115.499997708893,8|0,0:0|0:0,0:0:0:0:
141,355,43006,6,0,B|151:341|171:329|171:329|191:322|206:310|206:310|217:296|233:283,1,115.499997708893,2|0,0:0|0:0,0:0:0:0:
323,209,43256,1,0,0:0:0:0:
323,209,43339,2,0,B|325:242|325:242|317:270,1,57.7499988544464,8|0,0:0|0:0,0:0:0:0:
154,115,43506,2,0,B|181:96|181:96|209:89,1,57.7499988544464
297,346,43673,2,0,B|267:331|267:331|247:310,2,57.7499988544464,2|0|0,0:0|0:0|0:0,0:0:0:0:
457,297,43923,1,0,0:0:0:0:
457,297,44006,2,0,B|472:274|479:239|479:239|477:205|483:173,1,115.499997708893,10|0,0:0|0:0,0:0:0:0:
282,48,44339,5,2,0:0:0:0:
470,132,44506,1,0,0:0:0:0:
195,135,44673,5,0,0:0:0:0:
383,52,44840,1,0,0:0:0:0:
102,112,45006,6,0,P|112:148|124:185,1,75,8|0,0:0|0:0,0:0:0:0:
274,305,45339,2,0,P|260:254|243:203,1,104.999996795654,2|0,0:0|0:0,0:0:0:0:
166,105,45673,6,0,P|138:143|122:188,1,89.9999972534181,4|0,0:0|0:0,0:0:0:0:
162,285,46006,1,8,0:0:0:0:
307,125,46173,1,0,0:0:0:0:
318,45,46256,1,0,0:0:0:0:
307,125,46339,2,0,P|301:174|302:233,2,89.9999972534181,2|0|8,0:0|0:0|0:0,0:0:0:0:
110,57,46839,5,2,0:0:0:0:
173,82,46923,1,2,0:0:0:0:
197,144,47006,2,0,B|159:147|159:147|92:139,1,104.999996795654,12|0,0:0|0:0,0:0:0:0:
90,249,47339,5,2,0:0:0:0:
149,337,47506,1,8,0:0:0:0:
278,150,47673,5,2,0:0:0:0:
229,293,47839,1,0,0:0:0:0:
301,48,48006,5,0,0:0:0:0:
439,228,48173,1,0,0:0:0:0:
256,192,48339,5,4,0:0:0:0:
256,192,49673,5,8,0:0:0:0:
279,276,49756,1,8,0:0:0:0:
187,295,49839,1,8,0:0:0:0:
211,189,49923,1,8,0:0:0:0:
111,167,50006,1,8,0:0:0:0:
137,309,50089,1,8,0:0:0:0:
31,329,50173,5,12,0:0:0:0:
56,149,50339,1,0,0:0:0:0:
209,64,50506,2,0,B|253:67|301:59|301:59|324:72|337:92,2,134.999995880127
106,128,51006,5,6,0:0:0:0:
332,196,51173,1,2,0:0:0:0:
118,68,51339,5,8,0:0:0:0:
262,315,51506,1,0,0:0:0:0:
60,87,51673,5,2,0:0:0:0:
204,265,51839,2,0,B|180:264|153:258|153:258|120:229|94:193,2,134.999995880127,0|8|0,0:0|0:0|0:0,0:0:0:0:
416,280,52339,5,2,0:0:0:0:
237,125,52506,1,0,0:0:0:0:
380,329,52672,5,8,0:0:0:0:
349,45,52839,1,0,0:0:0:0:
202,258,53006,6,0,P|202:221|206:184,2,67.4999979400635,4|2|2,0:0|0:0|0:0,0:0:0:0:
402,234,53339,1,8,0:0:0:0:
151,295,53506,2,0,P|149:227|158:160,1,134.999995880127,0|2,0:0|0:0,0:0:0:0:
482,195,53839,5,0,0:0:0:0:
208,71,54006,1,8,0:0:0:0:
482,195,54173,1,0,0:0:0:0:
190,198,54339,2,0,B|209:157|209:157|262:154|287:106,2,134.999995880127,2|0|8,0:0|0:0|0:0,0:0:0:0:
391,34,54839,6,0,P|373:118|313:189,1,134.999995880127,0|2,0:0|0:0,0:0:0:0:
208,71,55173,1,0,0:0:0:0:
447,143,55339,1,8,0:0:0:0:
124,118,55506,2,0,P|86:179|77:255,1,134.999995880127,0|2,0:0|0:0,0:0:0:0:
290,53,55839,5,0,0:0:0:0:
82,288,56006,1,8,0:0:0:0:
112,333,56089,1,8,0:0:0:0:
172,364,56173,1,8,0:0:0:0:
252,355,56256,1,8,0:0:0:0:
317,287,56339,6,0,B|341:252|346:207|346:207|321:185|308:160,1,134.999995880127,12|0,0:0|0:0,0:0:0:0:
135,60,56673,1,8,0:0:0:0:
190,246,56839,2,0,P|251:277|335:285,1,134.999995880127,0|2,0:0|0:0,0:0:0:0:
435,45,57173,6,0,B|457:129|457:129|453:189,2,134.999995880127,0|8|0,0:0|0:0|0:0,0:0:0:0:
435,254,57673,5,2,0:0:0:0:
164,100,57839,1,0,0:0:0:0:
125,290,58006,5,8,0:0:0:0:
355,79,58173,2,0,B|377:163|373:223,1,134.999995880127,0|2,0:0|0:0,0:0:0:0:
104,141,58506,5,0,0:0:0:0:
355,294,58673,1,8,0:0:0:0:
104,141,58839,1,0,0:0:0:0:
202,376,59006,2,0,B|216:307|216:307|235:277|249:243,1,134.999995880127,2|0,0:0|0:0,0:0:0:0:
231,55,59339,5,4,0:0:0:0:
163,241,59506,1,0,0:0:0:0:
390,211,59673,5,2,0:0:0:0:
119,66,59839,2,0,P|116:139|135:209,1,134.999995880127,2|4,0:0|0:0,0:0:0:0:
313,90,60173,1,0,0:0:0:0:
152,233,60339,1,2,0:0:0:0:
184,258,60423,1,2,0:0:0:0:
222,270,60506,1,10,0:0:0:0:
313,90,60673,5,8,0:0:0:0:
116,134,60839,1,0,0:0:0:0:
262,271,61006,5,8,0:0:0:0:
320,256,61089,1,8,0:0:0:0:
365,205,61173,1,8,0:0:0:0:
385,133,61256,1,8,0:0:0:0:
363,55,61339,1,8,0:0:0:0:
309,125,61423,1,8,0:0:0:0:
309,212,61506,1,8,0:0:0:0:
358,284,61589,1,8,0:0:0:0:
434,328,61673,6,0,P|468:254|482:192,1,134.999995880127,6|0,0:0|0:0,0:0:0:0:
435,37,62006,2,0,B|397:78|379:126|379:126|349:155,1,134.999995880127,8|0,0:0|0:0,0:0:0:0:
255,226,62256,1,0,0:0:0:0:
255,226,62339,2,0,P|196:176|273:181,1,202.499993820191,2|0,0:0|0:0,0:0:0:0:
306,281,62673,5,8,0:0:0:0:
375,114,62839,2,0,P|326:57|259:32,2,134.999995880127,0|2|0,0:0|0:0|0:0,0:0:0:0:
131,57,63339,5,8,0:0:0:0:
387,219,63506,1,0,0:0:0:0:
364,268,63589,1,0,0:0:0:0:
323,305,63673,2,0,P|259:333|189:329,1,134.999995880127,2|0,0:0|0:0,0:0:0:0:
386,166,64006,1,8,0:0:0:0:
95,63,64173,6,0,B|95:115|120:135|120:135|159:140|187:169,1,150,0|2,0:0|0:0,0:0:0:0:
209,244,64423,1,0,0:0:0:0:
209,244,64506,2,0,P|268:313|335:300,1,150,0|8,0:0|0:0,0:0:0:0:
340,75,64839,5,0,0:0:0:0:
406,269,65006,2,0,B|429:171|429:171|421:92,1,150,2|0,0:0|0:0,0:0:0:0:
213,175,65339,1,8,0:0:0:0:
409,47,65506,5,0,0:0:0:0:
328,312,65673,1,2,0:0:0:0:
381,55,65839,5,0,0:0:0:0:
205,337,66006,1,8,0:0:0:0:
342,59,66173,5,0,0:0:0:0:
51,299,66339,1,2,0:0:0:0:
342,59,66506,1,0,0:0:0:0:
112,71,66673,5,8,0:0:0:0:
44,117,66756,1,8,0:0:0:0:
31,198,66839,1,8,0:0:0:0:
79,265,66923,1,8,0:0:0:0:
154,231,67006,6,0,P|230:213|309:219,1,150,6|0,0:0|0:0,0:0:0:0:
447,310,67339,2,0,B|411:318|380:331|372:335|372:335|365:331|332:323|289:325,1,150,8|0,0:0|0:0,0:0:0:0:
202,332,67589,1,0,0:0:0:0:
202,332,67673,5,2,0:0:0:0:
67,115,67839,1,0,0:0:0:0:
51,262,68006,5,8,0:0:0:0:
215,55,68173,1,0,0:0:0:0:
303,210,68339,1,2,0:0:0:0:
67,115,68506,2,0,P|51:189|54:282,1,150,0|8,0:0|0:0,0:0:0:0:
308,106,68839,5,0,0:0:0:0:
118,376,69006,2,0,P|134:302|131:209,1,150,2|0,0:0|0:0,0:0:0:0:
69,58,69339,1,8,0:0:0:0:
69,58,69423,1,0,0:0:0:0:
69,58,69506,6,0,P|125:108|207:152,2,150,0|2|0,0:0|0:0|0:0,0:0:0:0:
316,169,70006,1,8,0:0:0:0:
97,274,70173,6,0,P|85:239|81:201,2,75,0|0|2,0:0|0:0|0:0,0:0:0:0:
211,351,70506,1,2,0:0:0:0:
274,156,70673,1,2,0:0:0:0:
402,343,70839,1,2,0:0:0:0:
503,42,71006,1,6,0:0:0:0:
503,42,73006,5,2,0:0:0:0:
503,42,73089,1,2,0:0:0:0:
503,42,73173,2,8,L|491:171,1,112.500004291535,8|0,0:0|0:0,0:0:0:0:
435,293,73339,2,8,L|421:157,1,127.50000243187,8|0,0:0|0:0,0:0:0:0:
351,6,73506,2,8,L|333:164,1,142.49999619484,8|0,0:0|0:0,0:0:0:0:
277,309,73673,6,0,B|258:286|232:275|232:275|208:245|233:191|233:191|191:184|165:148,1,225,2|0,0:0|0:0,0:0:0:0:
151,103,73923,1,0,0:0:0:0:
277,309,74006,2,0,B|258:286|232:275|232:275,1,52.4999983978272,8|0,0:0|0:0,0:0:0:0:
105,297,74339,6,0,B|130:282|144:258|144:258|178:239|227:272|227:272|241:232|281:211,1,225,2|0,0:0|0:0,0:0:0:0:
328,204,74589,1,0,0:0:0:0:
105,297,74673,2,0,B|130:282|144:258|144:258,1,52.4999983978272,8|0,0:0|0:0,0:0:0:0:
156,36,75006,6,0,B|179:53|206:57|206:57|237:80|226:139|226:139|268:136|303:165,1,225,2|0,0:0|0:0,0:0:0:0:
328,204,75256,1,0,0:0:0:0:
156,36,75339,2,0,B|179:53|206:57|206:57,1,52.4999983978272,8|0,0:0|0:0,0:0:0:0:
401,53,75673,5,2,0:0:0:0:
405,260,75839,1,0,0:0:0:0:
341,110,76006,5,8,0:0:0:0:
287,310,76172,1,0,0:0:0:0:
247,126,76339,6,0,B|229:157|230:191|230:191|208:233|135:231|135:231|147:281|118:329,1,269.999991760254,2|0,0:0|0:0,0:0:0:0:
78,364,76589,1,0,0:0:0:0:
247,126,76673,2,0,B|229:157|230:191|230:191,1,62.9999980773926,8|0,0:0|0:0,0:0:0:0:
143,277,77006,6,0,B|179:275|207:258|207:258|255:256|290:320|290:320|327:285|383:286,1,269.999991760254,2|0,0:0|0:0,0:0:0:0:
433,304,77256,1,0,0:0:0:0:
143,277,77340,2,0,B|179:275|207:258|207:258,1,62.9999980773926,8|0,0:0|0:0,0:0:0:0:
325,291,77673,6,0,B|305:260|276:243|276:243|251:203|289:141|289:141|240:126|212:78,1,269.999991760254,2|0,0:0|0:0,0:0:0:0:
203,26,77923,1,0,0:0:0:0:
325,291,78007,2,0,B|305:260|276:243|276:243,1,62.9999980773926,8|0,0:0|0:0,0:0:0:0:
81,218,78339,5,2,0:0:0:0:
392,164,78506,1,0,0:0:0:0:
81,218,78673,1,8,0:0:0:0:
76,274,78756,1,8,0:0:0:0:
108,320,78839,1,8,0:0:0:0:
163,334,78923,1,8,0:0:0:0:
214,308,79006,6,0,B|244:279|256:241|256:241|297:204|377:233|377:233|384:173|433:130,1,324.000007910156,6|0,0:0|0:0,0:0:0:0:
490,105,79256,1,0,0:0:0:0:
214,308,79339,2,0,B|244:279|256:241|256:241,1,75.5999976928712,8|0,0:0|0:0,0:0:0:0:
144,80,79673,6,0,B|180:99|220:100|220:100|268:127|265:212|265:212|324:200|380:233,1,324.000007910156,2|0,0:0|0:0,0:0:0:0:
422,279,79923,1,0,0:0:0:0:
144,80,80006,2,0,B|180:99|220:100|220:100,1,75.5999976928712,8|0,0:0|0:0,0:0:0:0:
396,62,80339,6,0,B|360:84|340:118|340:118|292:146|220:101|220:101|201:158|144:189,1,324.000007910156,2|0,0:0|0:0,0:0:0:0:
84,203,80589,1,0,0:0:0:0:
396,62,80673,2,0,B|360:84|340:118|340:118,1,75.5999976928712,8|0,0:0|0:0,0:0:0:0:
308,332,81006,5,2,0:0:0:0:
159,84,81173,1,0,0:0:0:0:
237,308,81339,5,8,0:0:0:0:
88,60,81506,1,0,0:0:0:0:
494,108,81673,6,0,B|444:108|402:131|402:131|336:130|290:40|290:40|236:87|158:84,1,388.800009492188,2|0,0:0|0:0,0:0:0:0:
88,60,81923,1,0,0:0:0:0:
494,108,82007,2,0,B|444:108|402:131|402:131,1,90.7199986267969,8|0,0:0|0:0,0:0:0:0:
70,268,82339,6,0,B|119:271|163:252|163:252|228:259|266:353|266:353|325:311|401:320,1,388.800009492188,2|0,0:0|0:0,0:0:0:0:
470,351,82589,1,0,0:0:0:0:
70,268,82673,2,0,B|119:271|163:252|163:252,1,90.7199986267969,8|0,0:0|0:0,0:0:0:0:
485,86,83006,6,0,B|437:99|402:131|402:131|338:148|271:73|271:73|230:132|154:149,1,388.800009492188,2|0,0:0|0:0,0:0:0:0:
80,144,83256,1,0,0:0:0:0:
485,86,83340,2,0,B|437:99|402:131|402:131,1,90.7199986267969,12|0,0:0|0:0,0:0:0:0:
178,311,83673,6,0,L|179:271,1,22.4999993133545,2|8,0:0|0:0,0:0:0:0:
231,137,83839,6,0,L|232:97,1,22.4999993133545,2|8,0:0|0:0,0:0:0:0:
294,301,84006,6,0,L|295:261,1,22.4999993133545,2|8,0:0|0:0,0:0:0:0:
93,112,84173,6,0,L|94:72,1,22.4999993133545,2|8,0:0|0:0,0:0:0:0:
227,234,84339,6,0,P|266:237|308:216,1,60,4|0,0:0|0:0,0:0:0:0:
353,177,84506,1,0,0:0:0:0:
368,157,84589,1,0,0:0:0:0:
375,106,84673,1,8,0:0:0:0:
227,234,84839,1,0,0:0:0:0:
269,44,85006,6,0,P|267:110|284:183,1,120,2|0,0:0|0:0,0:0:0:0:
305,236,85256,1,0,0:0:0:0:
305,236,85339,1,8,0:0:0:0:
269,44,85506,1,0,0:0:0:0:
412,175,85673,6,0,P|355:139|283:118,1,120,2|0,0:0|0:0,0:0:0:0:
227,110,85923,1,0,0:0:0:0:
227,110,86006,1,8,0:0:0:0:
412,175,86173,1,0,0:0:0:0:
155,223,86339,5,2,0:0:0:0:
155,223,86423,2,0,B|203:244|203:244|227:236|227:236|287:253,1,120,8|0,0:0|0:0,0:0:0:0:
350,272,86673,1,8,0:0:0:0:
350,272,86839,1,0,0:0:0:0:
342,49,87006,5,4,0:0:0:0:
342,49,87089,2,0,P|267:94|259:204,1,194.999991073609
238,308,87339,5,4,0:0:0:0:
238,308,87422,2,0,P|313:263|321:153,1,194.999991073609
236,64,87673,6,0,P|246:155|301:241,1,194.999991073609,8|0,0:0|0:0,0:0:0:0:
372,275,87923,2,0,P|288:238|186:242,1,194.999991073609,8|0,0:0|0:0,0:0:0:0:
121,287,88173,2,0,P|194:232|241:142,2,194.999991073609,12|0|0,0:0|0:0|0:0,0:0:0:0:
