osu file format v14

[General]
AudioFilename: audio.mp3
AudioLeadIn: 0
PreviewTime: 82076
Countdown: 0
SampleSet: Soft
StackLeniency: 0.7
Mode: 0
LetterboxInBreaks: 0
WidescreenStoryboard: 0

[Editor]
Bookmarks: 34763,45430,82763,104096
DistanceSpacing: 0.6
BeatDivisor: 8
GridSize: 4
TimelineZoom: 2.7

[Metadata]
Title:One Room Sugar Life
TitleUnicode:ワンルームシュガーライフ
Artist:Nanawo Akari
ArtistUnicode:ナナヲアカリ
Creator:Fushimi Rio
Version:White sugar garden, Black salt cage
Source:ハッピーシュガーライフ
Tags:anime opening happy sugar life ezo’la ナユタン星人 ナユタセイジ sony music associated records 野良いぬ 鍵空とみやき Icekalt Gust Bellicose Misure J-pop Japanese pop
BeatmapID:1718994
BeatmapSetID:818245

[Difficulty]
HPDrainRate:7
CircleSize:4.3
OverallDifficulty:9
ApproachRate:9.3
SliderMultiplier:2.4
SliderTickRate:1

[Events]
//Background and Video events
0,0,"bg2.jpg",0,0
//Break Periods
//Storyboard Layer 0 (Background)
//Storyboard Layer 1 (Fail)
//Storyboard Layer 2 (Pass)
//Storyboard Layer 3 (Foreground)
//Storyboard Layer 4 (Overlay)
//Storyboard Sound Samples

[TimingPoints]
61,333.333333333333,4,2,1,50,1,0
560,-133.333333333333,4,2,1,50,0,0
894,-100,4,2,1,50,0,0
1394,-133.333333333333,4,2,1,70,0,0
10560,-133.333333333333,4,2,1,80,0,0
12727,-133.333333333333,4,2,1,100,0,0
21394,-100,4,2,1,100,0,0
24060,-133.333333333333,4,2,1,70,0,0
28394,-66.6666666666667,4,2,1,80,0,0
29060,-50,4,2,1,80,0,0
29394,-100,4,2,1,80,0,0
34727,-100,4,2,1,80,0,0
45060,-83.3333333333333,4,2,1,80,0,0
45394,-133.333333333333,4,2,1,80,0,0
50227,-100,4,2,1,70,0,0
50727,-100,4,2,1,100,0,1
61727,-66.6666666666667,4,2,1,100,0,1
62060,-100,4,2,1,100,0,1
67060,-66.6666666666667,4,2,1,100,0,1
67394,-100,4,2,1,100,0,1
70727,-100,4,2,1,100,0,0
82728,-100,4,2,1,80,0,0
104060,-133.333333333333,4,2,1,80,0,0
118727,-133.333333333333,4,2,1,100,0,0
119560,-100,4,2,1,100,0,0
120060,-100,4,2,1,100,0,1
131060,-66.6666666666667,4,2,1,100,0,1
131227,-100,4,2,1,100,0,1
136394,-66.6666666666667,4,2,1,100,0,1
136560,-100,4,2,1,100,0,1
140060,-100,4,2,1,100,0,0
142394,-80,4,2,1,100,0,0
142560,-66.6666666666667,4,2,1,100,0,0
153394,-60,4,2,1,100,0,0
153810,-50,4,2,1,100,0,0
154394,-42.8571428571429,4,2,1,100,0,0
154727,-37.6,4,2,1,100,0,0
155394,-100,4,2,1,100,0,0
156060,-300,4,2,1,100,0,0
157394,-300,4,2,1,80,0,0
158727,-300,4,2,1,60,0,0
160060,-300,4,2,1,40,0,0
161394,-300,4,2,1,20,0,0
162727,-300,4,2,1,10,0,0
163227,-300,4,2,1,5,0,0

[Colours]
Combo1 : 128,128,255
Combo2 : 255,128,255
Combo3 : 215,108,215
Combo4 : 175,88,175
Combo5 : 135,68,135
Combo6 : 95,48,95
Combo7 : 48,48,95
SliderBorder : 255,255,255
SliderTrackOverride : 0,0,0

[HitObjects]
0,204,560,6,0,L|135:204,1,135.000005149841,2|0,0:0|0:0,0:0:0:0:
192,132,894,2,0,B|256:132|256:132|316:222|316:222|394:222,1,240,0|0,0:0|0:0,0:0:0:0:
490,98,1394,85,6,0:0:0:0:
404,55,1560,1,0,0:0:0:0:
360,141,1727,1,0,0:3:0:0:
447,184,1894,2,0,L|533:228,1,90.0000034332277,2|0,0:0|0:0,0:0:0:0:
252,164,2227,5,0,0:0:0:0:
283,256,2394,1,0,0:0:0:0:
374,225,2560,1,0,0:0:0:0:
244,176,2727,85,2,0:0:0:0:
274,268,2894,1,0,0:0:0:0:
366,237,3060,1,0,0:0:0:0:
335,146,3227,2,0,L|304:54,1,90.0000034332277,2|0,0:0|0:0,0:0:0:0:
356,252,3560,5,0,0:0:0:0:
265,283,3727,1,2,0:0:0:0:
234,191,3894,2,0,L|325:160,1,90.0000034332277
248,288,4227,85,0,0:0:0:0:
156,319,4394,1,2,0:0:0:0:
126,227,4560,1,0,0:0:0:0:
148,136,4727,5,0,0:0:0:0:
117,44,4894,1,0,0:0:0:0:
25,74,5060,1,2,0:0:0:0:
56,166,5227,1,0,0:0:0:0:
164,132,5394,86,0,L|334:75,3,180.000006866455,0|0|0|4,0:0|0:0|0:0|0:1,0:0:0:0:
428,44,6560,1,0,0:0:0:0:
292,324,6727,5,4,0:1:0:0:
206,281,6894,1,0,0:0:0:0:
249,194,7060,1,2,3:2:0:0:
336,238,7227,2,0,L|422:281,1,90.0000034332277,0|0,0:0|0:0,0:0:0:0:
232,184,7560,85,0,0:0:0:0:
318,227,7727,1,2,3:2:0:0:
362,141,7894,1,0,0:0:0:0:
228,168,8060,5,0,0:0:0:0:
271,82,8227,1,0,0:0:0:0:
358,125,8394,1,2,3:2:0:0:
314,212,8560,2,0,L|270:298,1,90.0000034332277,0|0,0:0|0:0,0:0:0:0:
416,264,8894,85,0,0:0:0:0:
329,220,9060,2,0,L|242:176,1,90.0000034332277,2|0,3:2|0:0,0:0:0:0:
160,216,9394,6,0,L|-12:129,1,180.000006866455,0|0,1:0|3:0,0:0:0:0:
0,135,9894,1,0,0:0:0:0:
203,137,10060,85,0,1:0:0:0:
246,51,10227,1,0,0:0:0:0:
160,8,10394,1,0,3:0:0:0:
116,94,10560,1,0,1:3:0:0:
388,230,10727,5,4,0:3:0:0:
203,138,10894,1,4,1:3:0:0:
340,92,11060,85,0,1:0:0:0:
249,276,11227,1,0,1:0:0:0:
356,61,11394,1,0,1:0:0:0:
168,124,12060,5,4,1:0:0:0:
171,121,12144,1,0,3:0:0:0:
176,122,12227,5,0,3:0:0:0:
179,125,12310,1,0,3:0:0:0:
179,130,12394,5,0,1:0:0:0:
176,133,12477,1,0,3:0:0:0:
171,134,12560,5,0,3:0:0:0:
168,132,12644,1,0,3:0:0:0:
166,128,12727,5,0,1:0:0:0:
254,384,12894,1,0,1:0:0:0:
340,210,13060,5,0,1:0:0:0:
80,296,13227,1,0,1:0:0:0:
300,32,13394,21,4,0:2:0:0:
257,161,13560,1,0,0:0:0:0:
226,246,13727,1,0,1:0:0:0:
211,288,13894,1,0,0:0:0:0:
172,48,14060,5,8,3:0:0:0:
134,157,14227,1,0,0:0:0:0:
108,232,14394,1,0,1:0:0:0:
93,274,14560,1,0,0:0:0:0:
296,132,14727,5,0,1:0:0:0:
266,216,14894,1,0,0:0:0:0:
242,283,15060,1,0,1:0:0:0:
227,325,15227,1,0,0:0:0:0:
304,108,15394,5,4,1:1:0:0:
212,366,15560,1,0,0:0:0:0:
129,190,15727,5,0,1:0:0:0:
388,281,15894,1,0,1:0:0:0:
176,20,16060,37,4,0:0:0:0:
219,149,16227,1,0,0:0:0:0:
250,234,16394,1,0,1:0:0:0:
265,276,16560,1,0,0:0:0:0:
88,132,16727,5,8,3:0:0:0:
126,241,16894,1,0,0:0:0:0:
152,316,17060,1,0,1:0:0:0:
167,358,17227,1,0,0:0:0:0:
256,152,17394,5,8,0:3:0:0:
286,236,17560,1,0,0:0:0:0:
310,303,17727,1,0,1:0:0:0:
325,345,17894,1,0,0:0:0:0:
156,92,18060,5,4,1:0:0:0:
248,350,18227,1,0,1:0:0:0:
331,174,18394,5,0,1:0:0:0:
316,152,18477,1,0,1:0:0:0:
290,160,18560,1,0,1:0:0:0:
290,187,18644,1,0,1:0:0:0:
316,196,18727,37,4,0:0:0:0:
187,153,18894,1,0,0:0:0:0:
102,122,19060,1,0,1:0:0:0:
60,107,19227,1,0,0:0:0:0:
316,280,19394,5,8,3:0:0:0:
207,242,19560,1,0,0:0:0:0:
132,216,19727,1,0,1:0:0:0:
90,201,19894,1,0,0:0:0:0:
384,132,20060,5,8,0:3:0:0:
300,102,20227,1,0,0:0:0:0:
233,78,20394,1,0,1:0:0:0:
191,63,20560,1,0,0:0:0:0:
336,260,20727,5,4,1:0:0:0:
428,2,20894,1,0,0:0:0:0:
253,84,21060,5,0,1:0:0:0:
512,175,21227,1,0,1:0:0:0:
64,248,21394,37,4,1:0:0:0:
323,157,21560,1,0,1:0:0:0:
64,248,21727,2,0,P|140:192|132:108,1,180.000006866455,4|0,0:0|0:0,0:0:0:0:
160,304,22060,5,0,1:0:0:0:
367,231,22227,1,0,1:0:0:0:
159,304,22394,2,0,B|234:254|234:254|233:163,1,180,4|0,0:0|0:0,0:0:0:0:
252,352,22727,5,4,1:0:0:0:
407,297,22894,1,0,1:0:0:0:
252,352,23060,2,0,L|388:304,1,120,0|0,1:0|1:0,0:0:0:0:
407,297,23310,1,0,0:0:0:0:
364,240,23394,5,0,1:0:0:0:
352,176,23477,1,0,3:0:0:0:
360,116,23560,1,0,3:0:0:0:
388,68,23644,1,0,3:0:0:0:
432,48,23727,5,0,3:0:0:0:
404,80,23810,1,0,3:0:0:0:
368,84,23894,1,0,3:0:0:0:
348,64,23977,1,0,3:0:0:0:
348,40,24060,6,0,P|380:48|368:164,1,180.000006866455,4|0,0:0|0:0,0:0:0:0:
288,152,24560,2,0,L|100:128,1,180.000006866455,0|4,0:3|3:0,0:0:0:0:
109,129,25060,1,8,3:3:0:0:
109,129,25227,1,8,0:3:0:0:
128,308,25394,85,4,0:0:0:0:
188,224,25560,1,0,0:0:0:0:
44,200,25727,2,0,P|56:264|76:284,1,90.0000034332277,0|0,0:0|3:0,0:0:0:0:
100,296,25977,1,0,3:0:0:0:
128,308,26060,5,8,3:0:0:0:
217,296,26227,1,0,3:0:0:0:
306,285,26394,1,4,3:0:0:0:
395,273,26560,1,0,0:0:0:0:
432,152,26727,86,0,P|404:92|308:92,1,90.0000034332277,4|0,0:0|0:0,0:0:0:0:
316,248,27060,1,0,0:0:0:0:
316,248,27227,2,0,L|504:224,1,180.000006866455,0|4,0:0|3:0,0:0:0:0:
494,225,27727,1,8,3:0:0:0:
494,225,27894,1,8,0:3:0:0:
292,252,28060,70,0,P|257:223|245:180,1,90.0000034332277,4|0,0:1|0:0,0:0:0:0:
160,152,28394,86,0,P|143:235|60:257,1,180.000006866455,4|0,0:0|0:0,0:0:0:0:
0,48,28727,85,8,3:0:0:0:
24,116,28810,1,0,3:0:0:0:
88,152,28894,1,8,3:0:0:0:
160,152,28977,1,0,3:0:0:0:
224,112,29060,2,0,P|320:76|312:256,1,360,4|0,1:0|0:0,0:0:0:0:
236,292,29394,86,0,L|100:304,1,120,4|0,0:0|0:0,0:0:0:0:
264,192,29727,1,0,1:0:0:0:
144,69,29894,2,0,P|136:127|164:180,1,120,0|0,0:0|3:0,0:0:0:0:
348,148,30227,2,0,P|355:89|328:37,1,120,0|0,0:0|1:0,0:0:0:0:
276,312,30560,1,0,0:0:0:0:
276,312,30644,1,0,0:0:0:0:
276,312,30727,6,0,L|152:344,1,120,2|0,0:0|0:0,0:0:0:0:
316,228,31060,2,0,L|192:196,1,120,2|0,1:2|0:0,0:0:0:0:
364,344,31394,2,0,P|432:344|456:228,1,180,0|0,3:0|0:0,0:0:0:0:
469,250,31727,1,0,1:0:0:0:
404,136,31894,2,0,P|400:176|412:208,1,60,0|0,0:0|0:0,0:0:0:0:
448,52,32060,86,0,P|389:44|337:71,1,120,2|0,3:2|0:0,0:0:0:0:
320,240,32394,1,0,1:0:0:0:
240,44,32560,1,0,0:0:0:0:
240,44,32644,1,0,0:0:0:0:
240,44,32727,2,0,P|212:140|100:116,1,180,0|0,3:0|0:0,0:0:0:0:
143,150,33060,1,0,1:0:0:0:
224,240,33227,5,0,0:0:0:0:
28,180,33394,1,12,3:3:0:0:
204,234,33560,1,0,0:0:0:0:
47,186,33727,1,0,1:0:0:0:
167,74,33894,5,0,0:0:0:0:
167,74,33977,1,0,0:0:0:0:
167,74,34060,1,4,3:0:0:0:
191,220,34227,5,0,1:0:0:0:
65,181,34394,5,0,1:0:0:0:
161,92,34560,5,0,1:0:0:0:
212,307,34727,5,4,1:0:0:0:
241,300,34810,1,0,3:0:0:0:
322,278,34977,1,0,3:0:0:0:
351,271,35060,1,0,3:0:0:0:
432,249,35227,1,0,3:0:0:0:
510,220,35394,1,0,3:0:0:0:
503,191,35477,1,0,3:0:0:0:
481,110,35644,1,0,3:0:0:0:
474,81,35727,1,0,3:0:0:0:
452,0,35894,1,0,3:0:0:0:
371,23,36060,85,0,3:0:0:0:
290,45,36227,1,0,3:0:0:0:
261,52,36310,1,0,3:0:0:0:
180,74,36477,1,0,3:0:0:0:
151,81,36560,1,0,3:0:0:0:
70,106,36727,1,0,3:0:0:0:
77,135,36810,1,0,3:0:0:0:
84,164,36894,1,0,3:0:0:0:
91,193,36977,1,0,3:0:0:0:
113,274,37144,1,0,3:0:0:0:
120,303,37227,1,0,3:0:0:0:
143,384,37394,5,0,3:0:0:0:
172,377,37477,1,0,3:0:0:0:
253,355,37644,1,0,3:0:0:0:
282,348,37727,1,0,3:0:0:0:
363,326,37894,1,0,3:0:0:0:
441,297,38060,1,0,3:0:0:0:
434,268,38144,1,0,3:0:0:0:
427,239,38227,1,0,3:0:0:0:
420,210,38310,1,0,3:0:0:0:
398,129,38477,1,0,3:0:0:0:
391,103,38560,1,0,3:0:0:0:
369,21,38727,85,4,1:0:0:0:
340,28,38810,1,0,0:0:0:0:
311,35,38894,1,0,0:0:0:0:
230,57,39060,1,4,0:0:0:0:
204,64,39144,1,0,0:0:0:0:
123,87,39310,1,0,0:0:0:0:
97,94,39394,1,0,1:0:0:0:
119,175,39560,1,0,0:0:0:0:
126,204,39644,1,0,0:0:0:0:
133,233,39727,1,4,0:0:0:0:
156,316,39894,1,0,0:0:0:0:
30,174,40060,5,4,1:0:0:0:
111,152,40227,1,0,3:0:0:0:
137,145,40310,1,0,3:0:0:0:
218,122,40477,1,0,3:0:0:0:
244,115,40560,1,0,3:0:0:0:
324,88,40727,1,0,3:0:0:0:
346,169,40894,1,0,3:0:0:0:
353,195,40977,1,0,3:0:0:0:
376,276,41144,1,0,3:0:0:0:
383,302,41227,1,0,3:0:0:0:
301,323,41394,85,0,3:0:0:0:
272,330,41477,1,0,3:0:0:0:
243,337,41560,1,0,0:0:0:0:
214,344,41644,1,0,3:0:0:0:
185,351,41727,1,0,3:0:0:0:
156,358,41810,1,0,3:0:0:0:
129,278,41977,1,0,3:0:0:0:
119,249,42060,1,0,3:0:0:0:
92,169,42227,1,0,3:0:0:0:
65,89,42394,1,0,3:0:0:0:
145,66,42560,5,0,3:0:0:0:
174,57,42644,1,0,0:0:0:0:
214,44,42727,1,0,3:0:0:0:
221,73,42810,1,0,3:0:0:0:
243,154,42977,1,0,3:0:0:0:
250,183,43060,1,0,3:0:0:0:
269,264,43227,1,0,3:0:0:0:
276,293,43310,1,0,3:0:0:0:
283,322,43394,1,0,3:0:0:0:
203,349,43560,1,0,3:0:0:0:
174,358,43644,1,0,3:0:0:0:
155,275,43810,1,0,3:0:0:0:
148,246,43894,1,0,3:0:0:0:
130,164,44060,85,4,1:0:0:0:
212,146,44227,1,8,0:3:0:0:
230,228,44394,1,4,0:0:0:0:
148,246,44560,1,8,0:3:0:0:
66,264,44727,2,0,L|25:74,1,180,4|0,1:0|0:0,0:0:0:0:
102,34,45060,2,0,L|158:297,1,215.999993408203,4|0,0:0|0:0,0:0:0:0:
128,333,45394,86,0,P|202:314|232:219,1,180,4|0,0:1|0:0,0:0:0:0:
379,243,45894,85,0,0:0:0:0:
379,243,45977,1,0,0:0:0:0:
379,243,46060,2,0,P|324:189|345:92,1,180,0|0,0:0|0:0,0:0:0:0:
227,139,46560,85,0,3:0:0:0:
227,139,46644,1,0,3:0:0:0:
227,139,46727,2,0,P|204:83|170:63,1,90.0000034332277,4|0,0:0|0:0,0:0:0:0:
105,215,47060,2,0,P|164:223|199:203,1,90.0000034332277,0|0,1:0|3:0,0:0:0:0:
343,0,47394,85,0,0:0:0:0:
298,78,47560,1,0,0:0:0:0:
375,123,47727,1,0,1:0:0:0:
420,45,47894,1,0,0:0:0:0:
69,139,48060,85,0,1:0:0:0:
68,139,49394,5,0,1:0:0:0:
119,129,49477,1,0,3:0:0:0:
170,120,49560,1,0,3:0:0:0:
221,111,49644,1,0,3:0:0:0:
271,102,49727,1,0,3:0:0:0:
322,93,49810,1,0,3:0:0:0:
372,84,49894,1,0,3:0:0:0:
423,75,49977,1,0,3:0:0:0:
335,317,50227,86,0,P|327:220|458:205,1,240,2|0,0:0|0:0,0:0:0:0:
120,238,50727,5,4,0:0:0:0:
247,331,50894,1,0,0:0:0:0:
83,157,51060,85,0,1:0:0:0:
210,250,51227,1,0,0:0:0:0:
65,313,51394,5,8,0:3:0:0:
286,218,51560,1,0,0:0:0:0:
289,187,51644,1,0,0:0:0:0:
276,159,51727,1,0,1:0:0:0:
274,302,51894,1,0,0:0:0:0:
313,78,52060,85,0,0:0:0:0:
186,171,52227,1,0,0:0:0:0:
403,66,52394,5,0,1:0:0:0:
276,159,52560,1,0,0:0:0:0:
258,2,52727,1,8,0:3:0:0:
206,218,52894,85,0,0:0:0:0:
46,65,53060,1,0,1:0:0:0:
258,2,53227,2,0,P|277:55|260:117,1,120,0|0,0:0|0:0,0:0:0:0:
94,171,53560,5,0,0:3:0:0:
117,14,53727,1,0,1:0:0:0:
162,218,53894,85,0,0:0:0:0:
185,61,54060,1,0,0:0:0:0:
230,265,54227,5,0,0:0:0:0:
253,108,54394,1,0,1:0:0:0:
298,312,54560,86,0,P|352:368|452:328,1,180,0|0,0:3|0:0,0:0:0:0:
441,342,54894,1,0,0:0:0:0:
239,384,55060,5,0,1:0:0:0:
264,241,55227,2,0,P|345:248|375:293,1,120,0|4,0:0|0:3,0:0:0:0:
155,231,55560,85,0,3:0:0:0:
146,222,55644,1,0,3:0:0:0:
148,210,55727,1,0,1:0:0:0:
159,204,55810,1,0,3:0:0:0:
170,208,55894,1,0,3:0:0:0:
173,220,55977,1,0,3:0:0:0:
166,230,56060,5,4,0:0:0:0:
39,137,56227,1,0,0:0:0:0:
203,311,56394,85,0,1:0:0:0:
76,218,56560,1,0,0:0:0:0:
220,154,56727,5,8,0:3:0:0:
96,322,56894,1,0,0:0:0:0:
68,339,56977,1,0,0:0:0:0:
38,342,57060,1,0,1:0:0:0:
149,185,57227,1,0,0:0:0:0:
299,290,57394,85,0,0:0:0:0:
426,197,57560,1,0,0:0:0:0:
262,371,57727,5,0,1:0:0:0:
389,278,57894,1,0,0:0:0:0:
245,215,58060,85,8,0:3:0:0:
471,317,58227,1,0,0:0:0:0:
446,71,58394,2,0,P|403:122|411:184,1,120,0|0,1:0|0:0,0:0:0:0:
325,244,58727,6,0,P|311:159|210:136,1,180,4|0,0:1|0:0,0:0:0:0:
158,156,59060,2,0,P|115:148|78:86,1,120,0|0,1:0|0:0,0:0:0:0:
252,279,59394,86,0,P|307:245|277:146,1,180,4|0,0:0|0:0,0:0:0:0:
390,0,59727,2,0,P|337:24|320:79,1,120,0|0,1:0|0:0,0:0:0:0:
472,238,60060,5,4,1:0:0:0:
281,148,60227,1,0,1:0:0:0:
92,60,60394,1,0,1:0:0:0:
137,275,60560,85,0,1:0:0:0:
154,269,60644,1,0,0:0:0:0:
176,249,60727,1,4,0:0:0:0:
184,214,60810,1,0,0:0:0:0:
173,173,60894,1,0,3:0:0:0:
135,142,60977,1,0,3:0:0:0:
81,143,61060,1,0,3:0:0:0:
43,189,61144,1,0,3:0:0:0:
43,255,61227,1,0,3:0:0:0:
90,308,61310,1,0,3:0:0:0:
167,322,61394,6,0,B|256:337|256:337|304:330|323:285,1,180,4|0,0:0|0:0,0:0:0:0:
361,209,61727,86,0,B|320:236|322:284|322:284|354:369,1,180,0|2,1:0|0:0,0:0:0:0:
441,211,62060,6,0,P|397:138|313:150,1,180,8|0,0:3|0:0,0:0:0:0:
258,211,62394,1,0,1:0:0:0:
206,81,62560,2,0,L|230:144,1,60,0|0,0:0|0:0,0:0:0:0:
258,211,62727,86,0,P|255:271|159:324,1,180,0|0,0:0|0:0,0:0:0:0:
19,351,63060,2,0,P|40:297|94:274,1,120,0|2,1:0|0:0,0:0:0:0:
174,236,63310,1,0,0:0:0:0:
174,236,63394,6,0,B|158:189|111:178|111:178|21:187,1,180,0|0,0:3|0:0,0:0:0:0:
20,187,63727,1,0,1:0:0:0:
117,97,63894,2,0,P|128:69|125:39,1,60,0|0,0:0|0:0,0:0:0:0:
191,130,64060,86,0,P|275:141|318:68,1,180,0|0,2:0|2:0,2:2:0:0:
437,42,64394,2,0,P|402:88|411:146,1,120,0|2,1:0|0:0,0:0:0:0:
440,226,64727,5,8,0:3:0:0:
364,7,64894,1,0,0:0:0:0:
364,7,64977,1,0,0:0:0:0:
364,7,65060,1,0,1:0:0:0:
444,224,65227,1,0,0:0:0:0:
344,94,65394,85,4,0:1:0:0:
307,278,65560,1,0,0:0:0:0:
196,156,65727,5,0,1:0:0:0:
264,355,65894,1,0,0:0:0:0:
143,80,66060,85,2,0:0:0:0:
67,302,66227,1,0,0:0:0:0:
10,33,66394,5,0,1:0:0:0:
20,79,66477,85,0,0:0:0:0:
29,125,66560,5,0,3:0:0:0:
39,170,66644,85,0,3:0:0:0:
50,216,66727,6,0,B|79:254|128:248|128:248|210:211,1,180,4|0,0:0|0:0,0:0:0:0:
278,160,67060,86,0,B|229:166|210:211|210:211|201:301,1,180,0|2,1:0|0:0,0:0:0:0:
348,349,67394,6,0,P|362:267|284:237,1,180,8|0,0:3|0:0,0:0:0:0:
201,301,67727,1,0,1:0:0:0:
172,168,67894,2,0,P|192:189|201:218,1,60,0|0,0:0|0:0,0:0:0:0:
96,191,68060,86,0,P|120:106|222:106,1,180,0|0,0:0|0:0,0:0:0:0:
274,145,68394,2,0,P|327:121|348:67,1,120,0|2,1:0|0:0,0:0:0:0:
311,227,68644,1,0,0:0:0:0:
311,227,68727,6,0,B|292:272|321:311|321:311|395:363,1,180
395,363,69060,1,0,1:0:0:0:
415,211,69227,2,0,L|375:267,1,60,0|0,0:0|0:0,0:0:0:0:
247,347,69394,86,0,P|147:315|155:231,1,180,4|0,0:1|0:0,0:0:0:0:
103,111,69727,2,0,P|157:131|181:184,1,120,0|2,1:0|0:0,0:0:0:0:
56,264,70060,1,4,3:0:0:0:
418,138,70227,5,0,1:0:0:0:
215,278,70394,1,0,1:0:0:0:
227,74,70560,85,0,1:0:0:0:
439,379,70727,1,0,1:0:0:0:
12,264,72060,5,4,0:0:0:0:
141,221,72227,1,0,0:0:0:0:
226,190,72394,1,0,1:0:0:0:
268,175,72560,1,0,0:0:0:0:
28,136,72727,5,8,3:3:0:0:
137,98,72894,1,0,0:0:0:0:
212,72,73060,1,0,1:0:0:0:
254,57,73227,1,0,0:0:0:0:
112,259,73394,5,8,0:3:0:0:
196,230,73560,1,0,0:0:0:0:
263,206,73727,1,0,1:0:0:0:
305,191,73894,1,0,0:0:0:0:
88,268,74060,5,4,1:0:0:0:
346,176,74227,1,0,0:0:0:0:
170,93,74394,5,0,1:0:0:0:
261,352,74560,1,0,1:0:0:0:
292,20,74727,37,4,0:0:0:0:
249,149,74894,1,0,0:0:0:0:
218,234,75060,1,0,1:0:0:0:
203,276,75227,1,0,0:0:0:0:
380,132,75394,5,8,3:3:0:0:
342,241,75560,1,0,0:0:0:0:
316,316,75727,1,0,1:0:0:0:
301,358,75894,1,0,0:0:0:0:
212,152,76060,5,8,0:3:0:0:
182,236,76227,1,0,0:0:0:0:
158,303,76394,1,0,1:0:0:0:
143,345,76560,1,0,0:0:0:0:
60,170,76727,5,4,1:0:0:0:
318,262,76894,1,0,1:0:0:0:
236,87,77060,5,0,1:0:0:0:
214,102,77144,1,0,1:0:0:0:
223,128,77227,1,0,1:0:0:0:
250,128,77310,1,0,1:0:0:0:
258,102,77394,37,4,0:0:0:0:
299,233,77560,1,0,0:0:0:0:
330,318,77727,1,0,1:0:0:0:
345,360,77894,1,0,0:0:0:0:
172,104,78060,5,8,3:3:0:0:
210,213,78227,1,0,0:0:0:0:
236,288,78394,1,0,1:0:0:0:
251,330,78560,1,0,0:0:0:0:
320,36,78727,5,8,0:3:0:0:
350,120,78894,1,0,0:0:0:0:
374,187,79060,1,0,1:0:0:0:
389,229,79227,1,0,0:0:0:0:
308,4,79394,5,4,1:0:0:0:
400,262,79560,1,0,0:0:0:0:
225,180,79727,5,0,1:0:0:0:
484,89,79894,1,0,3:0:0:0:
64,136,80060,37,4,0:0:0:0:
323,227,80227,1,0,0:0:0:0:
63,135,80394,2,0,P|56:204|135:270,1,180,0|0,1:0|0:0,0:0:0:0:
160,80,80727,5,0,0:0:0:0:
367,153,80894,1,0,0:0:0:0:
159,80,81060,2,0,B|160:172|160:172|233:219,1,180,0|0,1:0|0:0,0:0:0:0:
248,28,81394,5,4,0:1:0:0:
408,88,81560,1,0,0:0:0:0:
252,32,81727,2,0,L|388:80,1,120,0|0,1:0|0:0,0:0:0:0:
233,104,81977,1,0,0:0:0:0:
180,52,82060,6,0,L|123:32,1,60,4|0,3:0|0:0,0:0:0:0:
288,156,82227,2,0,L|344:175,1,60,0|0,1:0|0:0,0:0:0:0:
130,164,82394,6,0,L|186:183,1,60,0|0,1:0|0:0,0:0:0:0:
373,164,82560,2,0,L|316:144,1,60,0|0,1:0|0:0,0:0:0:0:
178,95,82727,5,4,1:0:0:0:
130,164,82894,1,0,3:0:0:0:
130,196,82977,1,0,3:0:0:0:
140,222,83060,1,0,3:0:0:0:
206,272,83227,1,0,3:0:0:0:
235,274,83310,1,0,3:0:0:0:
263,267,83394,1,0,3:0:0:0:
318,203,83560,1,0,3:0:0:0:
303,119,83727,1,0,3:0:0:0:
285,97,83810,1,0,3:0:0:0:
260,80,83894,1,0,3:0:0:0:
173,73,84060,85,0,3:0:0:0:
148,90,84144,1,0,3:0:0:0:
128,112,84227,1,0,3:0:0:0:
114,138,84310,1,0,3:0:0:0:
108,167,84394,1,0,3:0:0:0:
108,197,84477,1,0,3:0:0:0:
119,225,84560,1,0,3:0:0:0:
134,250,84644,1,0,3:0:0:0:
155,271,84727,1,0,3:0:0:0:
181,284,84810,1,0,3:0:0:0:
266,287,84977,1,0,3:0:0:0:
292,274,85060,1,0,3:0:0:0:
338,205,85227,1,0,3:0:0:0:
349,121,85394,5,0,3:0:0:0:
292,61,85560,1,0,3:0:0:0:
266,48,85644,1,0,3:0:0:0:
235,43,85727,1,0,3:0:0:0:
154,62,85894,1,0,3:0:0:0:
99,126,86060,1,0,3:0:0:0:
95,211,86227,1,0,3:0:0:0:
105,238,86310,1,0,3:0:0:0:
121,261,86394,1,0,3:0:0:0:
194,307,86560,1,0,3:0:0:0:
277,322,86727,85,4,1:0:0:0:
303,311,86810,1,0,3:0:0:0:
361,252,86977,1,0,3:0:0:0:
373,227,87060,1,4,3:2:0:0:
376,143,87227,1,0,3:0:0:0:
367,115,87310,1,0,3:0:0:0:
353,91,87394,1,0,1:0:0:0:
287,36,87560,1,0,3:0:0:0:
258,26,87644,1,0,3:0:0:0:
229,23,87727,1,4,3:2:0:0:
198,26,87810,1,0,3:0:0:0:
170,34,87894,1,4,3:0:0:0:
59,214,88060,5,4,1:0:0:0:
68,243,88144,1,0,3:0:0:0:
87,268,88227,1,0,3:0:0:0:
112,286,88310,1,0,3:0:0:0:
141,295,88394,1,0,3:0:0:0:
172,294,88477,1,0,3:0:0:0:
201,284,88560,1,0,3:0:0:0:
224,265,88644,1,0,3:0:0:0:
242,241,88727,1,0,3:0:0:0:
250,212,88810,1,0,3:0:0:0:
249,183,88894,1,0,3:0:0:0:
239,155,88977,1,0,3:0:0:0:
173,104,89144,1,0,3:0:0:0:
144,104,89227,1,0,3:0:0:0:
64,126,89394,85,0,3:0:0:0:
38,206,89560,1,0,3:0:0:0:
74,283,89727,1,0,3:0:0:0:
152,315,89894,1,0,3:0:0:0:
231,286,90060,1,0,3:0:0:0:
269,211,90227,1,0,3:0:0:0:
248,131,90394,1,0,3:0:0:0:
178,86,90560,1,0,3:0:0:0:
95,79,90727,5,0,3:0:0:0:
35,138,90894,1,0,3:0:0:0:
21,221,91060,1,0,3:0:0:0:
30,250,91144,1,0,3:0:0:0:
46,276,91227,1,0,3:0:0:0:
113,329,91394,1,0,3:0:0:0:
143,335,91477,1,0,3:0:0:0:
173,333,91560,1,0,3:0:0:0:
202,326,91644,1,0,3:0:0:0:
229,312,91727,1,0,3:0:0:0:
280,246,91894,1,0,3:0:0:0:
303,164,92060,85,4,1:0:0:0:
263,91,92227,1,0,3:0:0:0:
191,50,92394,1,4,0:2:0:0:
107,54,92560,1,0,3:0:0:0:
37,100,92727,1,0,1:0:0:0:
2,177,92894,1,0,3:0:0:0:
0,208,92977,1,0,3:0:0:0:
5,238,93060,1,4,3:2:0:0:
16,267,93144,1,0,3:0:0:0:
33,293,93227,1,0,3:0:0:0:
54,316,93310,1,0,3:0:0:0:
79,331,93394,1,4,1:0:0:0:
255,98,93560,5,0,3:0:0:0:
287,73,93644,1,0,3:0:0:0:
326,59,93727,1,0,1:0:0:0:
429,92,93894,1,0,3:0:0:0:
456,197,94060,1,0,3:0:0:0:
440,235,94144,1,0,3:0:0:0:
412,268,94227,1,0,3:0:0:0:
374,286,94310,1,0,3:0:0:0:
331,286,94394,1,0,1:0:0:0:
240,228,94560,1,0,3:0:0:0:
219,122,94727,85,0,3:0:0:0:
295,45,94894,1,0,3:0:0:0:
337,38,94977,1,0,3:0:0:0:
377,42,95060,1,0,1:0:0:0:
415,59,95144,1,0,3:0:0:0:
447,87,95227,1,0,3:0:0:0:
476,189,95394,1,0,3:0:0:0:
448,256,95505,1,0,3:0:0:0:
390,298,95616,1,0,3:0:0:0:
318,304,95727,1,0,1:0:0:0:
230,241,95894,1,0,3:0:0:0:
195,138,96060,5,0,3:0:0:0:
209,100,96144,1,0,3:0:0:0:
234,66,96227,1,0,3:0:0:0:
266,39,96310,1,0,3:0:0:0:
305,23,96394,1,0,1:0:0:0:
346,19,96477,1,0,3:0:0:0:
388,26,96560,1,0,3:0:0:0:
425,43,96644,1,0,3:0:0:0:
492,128,96810,1,0,3:0:0:0:
497,168,96894,1,0,3:0:0:0:
493,210,96977,1,0,3:0:0:0:
476,249,97060,1,0,1:0:0:0:
393,318,97227,1,0,3:0:0:0:
287,337,97394,85,4,1:0:0:0:
247,318,97477,1,0,3:0:0:0:
180,232,97644,1,0,3:0:0:0:
172,190,97727,1,4,1:2:0:0:
172,149,97810,1,0,3:0:0:0:
184,107,97894,1,0,3:0:0:0:
204,72,97977,1,0,3:0:0:0:
232,42,98060,1,0,1:0:0:0:
266,19,98144,1,0,3:0:0:0:
306,4,98227,1,0,3:0:0:0:
347,0,98310,1,0,3:0:0:0:
388,7,98394,1,4,1:2:0:0:
479,64,98560,1,0,3:0:0:0:
153,292,98727,5,4,1:0:0:0:
95,202,98894,1,0,3:0:0:0:
137,103,99060,1,0,1:0:0:0:
242,80,99227,1,0,3:0:0:0:
320,155,99394,1,0,3:0:0:0:
320,228,99505,1,0,3:0:0:0:
277,287,99616,1,0,3:0:0:0:
208,307,99727,1,0,1:0:0:0:
115,252,99894,1,0,3:0:0:0:
99,212,99977,1,0,3:0:0:0:
99,170,100060,85,0,3:0:0:0:
153,77,100227,1,0,3:0:0:0:
192,64,100310,1,0,3:0:0:0:
234,63,100394,1,0,1:0:0:0:
274,77,100477,1,0,3:0:0:0:
308,103,100560,1,0,3:0:0:0:
333,138,100644,1,0,3:0:0:0:
345,179,100727,1,0,3:0:0:0:
336,251,100838,1,0,3:0:0:0:
290,307,100949,1,0,3:0:0:0:
223,332,101060,1,0,1:0:0:0:
116,311,101227,1,0,3:0:0:0:
84,284,101310,1,0,3:0:0:0:
66,246,101394,5,0,3:0:0:0:
56,205,101477,1,0,3:0:0:0:
62,165,101560,1,0,3:0:0:0:
76,125,101644,1,0,3:0:0:0:
100,91,101727,1,0,1:0:0:0:
133,66,101810,1,0,3:0:0:0:
173,49,101894,1,0,3:0:0:0:
278,61,102060,1,0,3:0:0:0:
314,85,102144,1,0,3:0:0:0:
341,118,102227,1,0,3:0:0:0:
358,158,102310,1,0,3:0:0:0:
349,267,102477,1,0,3:0:0:0:
326,302,102560,1,0,3:0:0:0:
242,369,102727,85,4,1:0:0:0:
202,373,102810,1,0,3:0:0:0:
159,364,102894,1,0,3:0:0:0:
120,347,102977,1,0,3:0:0:0:
89,321,103060,1,4,1:2:0:0:
63,288,103144,1,0,3:0:0:0:
47,251,103227,1,0,3:0:0:0:
46,145,103394,1,0,1:0:0:0:
64,106,103477,1,0,3:0:0:0:
91,76,103560,1,0,3:0:0:0:
125,53,103644,1,0,3:0:0:0:
165,41,103727,2,0,P|214:39|350:137,1,180,4|0,0:2|3:0,3:3:0:0:
411,97,104060,86,0,P|337:116|307:211,1,180,4|0,0:1|0:0,0:0:0:0:
163,181,104560,85,0,0:0:0:0:
163,181,104644,1,0,0:0:0:0:
163,181,104727,2,0,P|218:235|197:332,1,180,8|0,0:3|0:0,0:0:0:0:
322,302,105227,85,0,1:0:0:0:
322,302,105310,1,0,1:0:0:0:
322,302,105394,2,0,P|345:358|379:378,1,90.0000034332277,4|0,0:0|0:0,0:0:0:0:
479,147,105727,5,0,1:0:0:0:
373,197,105894,1,0,3:0:0:0:
285,107,106060,5,0,3:0:0:0:
168,162,106227,1,4,3:0:0:0:
196,315,106394,5,0,1:3:0:0:
69,375,106560,1,0,3:0:0:0:
0,174,106727,86,0,P|74:193|104:288,1,180,4|0,0:1|1:0,0:0:0:0:
104,283,107227,1,0,0:0:0:0:
274,192,107394,2,0,L|184:202,1,90.0000034332277,8|0,0:3|0:0,0:0:0:0:
354,279,107727,85,0,1:0:0:0:
341,94,107894,1,0,3:0:0:0:
389,310,108060,5,4,1:0:0:0:
305,63,108227,1,0,1:0:0:0:
470,144,108394,5,0,1:0:0:0:
224,229,108560,1,0,1:0:0:0:
358,148,108727,5,0,1:2:0:0:
357,222,108894,1,2,0:0:0:0:
314,163,109060,1,2,0:0:0:0:
384,184,109227,1,2,0:0:0:0:
315,208,109394,1,4,0:0:0:0:
247,216,110727,21,0,0:3:0:0:
164,213,112060,5,2,0:0:0:0:
82,210,113394,5,0,3:0:0:0:
82,210,114060,6,0,B|35:160|79:78|193:103|195:211|165:279|98:331,1,270.000010299683,4|0,0:0|3:0,0:0:0:0:
141,282,114644,1,0,3:0:0:0:
124,296,114727,6,0,L|26:307,1,90.0000034332277,4|0,0:1|0:0,0:0:0:0:
277,347,115060,2,0,L|179:358,1,90.0000034332277,0|0,3:0|0:0,0:0:0:0:
354,230,115394,86,0,L|256:241,1,90.0000034332277,0|0,3:0|0:0,0:0:0:0:
512,278,115727,2,0,L|414:289,1,90.0000034332277,0|0,3:0|0:0,0:0:0:0:
100,127,116060,6,0,L|198:115,1,90.0000034332277,4|0,0:0|0:0,0:0:0:0:
412,178,116394,2,0,L|314:189,1,90.0000034332277,8|0,3:0|0:0,0:0:0:0:
0,279,116727,86,0,L|98:268,1,90.0000034332277,0|0,3:0|0:0,0:0:0:0:
512,26,117060,2,0,L|414:37,1,90.0000034332277,0|0,3:0|0:0,0:0:0:0:
276,384,117394,85,4,0:1:0:0:
311,254,117560,1,0,0:0:0:0:
210,163,117727,1,0,1:0:0:0:
245,33,117894,1,0,0:0:0:0:
224,195,118060,85,0,1:0:0:0:
69,154,118227,1,0,3:0:0:0:
110,0,118394,1,0,1:0:0:0:
264,40,118560,1,0,0:0:0:0:
4,196,118727,85,4,1:2:0:0:
336,0,118894,1,0,1:0:0:0:
268,264,119060,85,0,1:0:0:0:
236,216,119227,86,0,P|297:218|326:280,1,135.000005149841
189,311,119560,2,0,P|203:200|314:185,1,240,2|0,0:0|0:0,0:0:0:0:
393,359,120060,21,4,0:0:0:0:
266,266,120227,1,0,0:0:0:0:
390,227,120394,85,0,1:0:0:0:
297,355,120560,1,0,0:0:0:0:
512,194,120727,5,8,0:3:0:0:
393,359,120894,1,0,0:0:0:0:
366,373,120977,1,0,0:0:0:0:
336,375,121060,1,0,1:0:0:0:
171,256,121227,1,0,0:0:0:0:
146,357,121394,85,0,0:0:0:0:
273,264,121560,1,0,0:0:0:0:
144,225,121727,5,0,1:0:0:0:
237,352,121894,1,0,0:0:0:0:
144,225,122060,1,8,0:3:0:0:
81,379,122227,85,0,0:0:0:0:
246,258,122394,1,0,1:0:0:0:
58,174,122560,2,0,P|45:239|76:300,1,120,0|0,0:0|0:0,0:0:0:0:
198,352,122894,5,0,0:0:0:0:
247,135,123060,1,0,1:0:0:0:
334,338,123227,1,0,0:0:0:0:
144,225,123394,1,0,0:0:0:0:
364,206,123560,2,0,P|286:218|250:197,1,120,0|0,0:0|1:0,0:0:0:0:
48,56,123894,86,0,P|157:36|201:138,1,240,2|2,0:0|0:0,0:0:0:0:
140,228,124394,1,0,1:0:0:0:
288,20,124560,1,0,0:0:0:0:
209,309,124727,5,4,0:3:0:0:
393,184,124894,1,0,3:0:0:0:
387,172,124977,1,0,3:0:0:0:
375,170,125060,1,0,1:0:0:0:
365,178,125144,1,0,3:0:0:0:
365,190,125227,1,0,3:0:0:0:
375,196,125310,1,0,3:0:0:0:
387,194,125394,85,4,0:0:0:0:
260,101,125560,1,0,0:0:0:0:
424,275,125727,5,0,1:0:0:0:
297,182,125894,1,0,0:0:0:0:
442,119,126060,85,8,0:3:0:0:
221,214,126227,1,0,0:0:0:0:
218,245,126310,1,0,0:0:0:0:
231,273,126394,1,0,1:0:0:0:
408,198,126560,1,0,0:0:0:0:
117,259,126727,5,0,0:0:0:0:
299,181,126894,2,0,P|259:137|185:138,1,120,2|0,0:0|1:0,0:0:0:0:
145,340,127227,2,0,P|221:301|221:215,1,180,2|0,0:0|0:0,0:0:0:0:
221,215,127560,1,0,0:0:0:0:
271,383,127727,1,0,1:0:0:0:
201,131,127894,1,0,0:0:0:0:
416,257,128060,86,0,P|339:218|339:132,1,180,4|0,0:1|0:0,0:0:0:0:
432,7,128394,2,0,P|403:40|331:41,1,120,0|0,1:0|0:0,0:0:0:0:
208,5,128644,1,0,0:0:0:0:
171,0,128727,2,0,P|118:24|101:79,1,120,4|0,0:0|0:0,0:0:0:0:
262,125,129060,1,0,1:0:0:0:
78,274,129227,6,0,P|159:248|167:164,1,180,4|0,1:0|0:0,0:0:0:0:
167,164,129560,1,0,1:0:0:0:
287,223,129727,86,0,P|258:288|275:334,1,120,0|0,1:0|1:0,0:0:0:0:
296,349,129977,1,0,0:0:0:0:
331,353,130060,1,4,0:0:0:0:
370,337,130144,1,0,0:0:0:0:
393,295,130227,1,0,3:0:0:0:
385,241,130310,1,0,3:0:0:0:
360,185,130394,1,0,3:0:0:0:
372,120,130477,1,0,3:0:0:0:
433,82,130560,1,0,3:0:0:0:
507,108,130644,1,0,3:0:0:0:
512,191,130727,6,0,B|493:236|445:243|445:243|356:228,1,180,4|0,0:0|0:0,0:0:0:0:
277,196,131060,86,0,B|325:189|355:228|355:228|387:312,1,180,0|2,1:0|0:0,0:0:0:0:
214,246,131394,6,0,P|202:161|273:114,1,180,8|0,0:3|0:0,0:0:0:0:
273,114,131727,1,0,1:0:0:0:
142,96,131894,2,0,L|70:85,1,60,0|0,0:0|0:0,0:0:0:0:
357,131,132060,86,0,P|428:84|416:0,1,180,0|0,0:0|0:0,0:0:0:0:
273,114,132394,2,0,P|285:181|326:212,1,120,0|2,1:0|0:0,0:0:0:0:
443,232,132644,1,0,0:0:0:0:
443,232,132727,6,0,P|378:208|361:316,1,180,0|0,0:0|0:0,0:0:0:0:
340,292,133060,1,0,1:0:0:0:
361,71,133227,2,0,L|357:131,1,60,0|0,0:0|0:0,0:0:0:0:
256,322,133394,86,0,P|176:289|171:204,1,180,0|0,2:0|2:0,2:2:0:0:
171,204,133727,1,0,1:0:0:0:
17,232,133894,2,0,L|76:237,1,60,2|0,0:0|0:0,0:0:0:0:
319,267,134060,5,8,0:3:0:0:
220,115,134227,1,0,0:0:0:0:
220,115,134310,1,0,0:0:0:0:
220,115,134394,1,0,1:0:0:0:
76,237,134560,1,0,0:0:0:0:
272,332,134727,85,4,1:0:0:0:
103,313,134894,1,0,0:0:0:0:
332,88,135060,5,0,1:0:0:0:
113,61,135227,1,0,0:0:0:0:
335,252,135394,85,4,0:0:0:0:
68,219,135560,1,0,0:0:0:0:
230,3,135727,5,0,1:0:0:0:
222,70,135810,85,0,0:0:0:0:
214,137,135894,5,0,3:0:0:0:
206,204,135977,85,0,3:0:0:0:
197,271,136060,6,0,B|219:314|268:316|268:316|355:294,1,180,4|0,0:0|0:0,0:0:0:0:
431,255,136394,86,0,B|382:252|356:293|356:293|331:380,1,180,0|2,1:0|0:0,0:0:0:0:
233,202,136727,6,0,P|148:208|121:288,1,180,8|0,0:3|0:0,0:0:0:0:
162,354,137060,1,0,1:0:0:0:
0,184,137227,2,0,P|28:193|57:190,1,60,0|0,0:0|0:0,0:0:0:0:
217,112,137394,86,0,P|301:118|328:198,1,180,0|0,0:0|0:0,0:0:0:0:
152,164,137727,2,0,P|133:108|156:54,1,120,0|2,1:0|0:0,0:0:0:0:
355,63,137977,1,0,0:0:0:0:
377,86,138060,6,0,P|461:79|488:0,1,180
416,177,138394,1,0,1:0:0:0:
185,48,138560,1,0,0:0:0:0:
156,54,138644,1,0,0:0:0:0:
134,74,138727,86,0,P|125:158|200:198,1,180,4|0,0:1|0:0,0:0:0:0:
385,166,139060,2,0,P|363:220|310:246,1,120,0|2,1:0|0:0,0:0:0:0:
256,40,139394,5,4,3:3:0:0:
172,296,139560,1,0,1:0:0:0:
256,20,139727,85,0,1:0:0:0:
332,344,139894,1,0,1:0:0:0:
256,0,140060,5,0,1:0:0:0:
136,320,142060,53,0,3:0:0:0:
136,320,142144,1,0,3:0:0:0:
136,320,142227,86,0,P|165:325|193:317,1,60,0|0,1:0|0:0,0:0:0:0:
392,272,142394,86,0,P|354:269|323:249,1,75,0|0,1:0|0:0,0:0:0:0:
60,212,142560,86,0,P|102:197|133:165,1,90.0000034332277,0|0,1:0|0:0,0:0:0:0:
368,132,142727,85,4,0:2:0:0:
239,89,142894,1,0,0:0:0:0:
154,58,143060,1,0,1:0:0:0:
112,43,143227,1,0,0:0:0:0:
339,127,143394,5,8,3:3:0:0:
231,166,143560,1,0,0:0:0:0:
156,192,143727,1,0,1:0:0:0:
114,207,143894,1,0,0:0:0:0:
388,276,144060,5,8,0:3:0:0:
304,246,144227,1,0,0:0:0:0:
237,222,144394,1,0,1:0:0:0:
195,207,144560,1,0,0:0:0:0:
376,185,144727,5,4,1:1:0:0:
118,277,144894,1,0,0:0:0:0:
200,102,145060,5,0,1:0:0:0:
291,361,145227,1,0,1:0:0:0:
324,32,145394,37,4,0:0:0:0:
281,161,145560,1,0,0:0:0:0:
250,246,145727,1,0,1:0:0:0:
235,288,145894,1,0,0:0:0:0:
88,108,146060,5,8,3:0:0:0:
126,217,146227,1,0,0:0:0:0:
152,292,146394,1,0,1:0:0:0:
167,334,146560,1,0,0:0:0:0:
364,152,146727,5,8,0:3:0:0:
334,236,146894,1,0,0:0:0:0:
310,303,147060,1,0,1:0:0:0:
295,345,147227,1,0,0:0:0:0:
204,192,147394,5,4,1:0:0:0:
462,284,147560,1,0,1:0:0:0:
382,102,147727,5,0,1:0:0:0:
358,169,147810,1,0,1:0:0:0:
334,236,147894,1,0,1:0:0:0:
310,303,147977,1,0,1:0:0:0:
286,370,148060,37,4,0:0:0:0:
243,241,148227,1,0,0:0:0:0:
212,156,148394,1,0,1:0:0:0:
197,114,148560,1,0,0:0:0:0:
412,272,148727,5,8,3:0:0:0:
450,163,148894,1,0,0:0:0:0:
476,88,149060,1,0,1:0:0:0:
491,46,149227,1,0,0:0:0:0:
326,250,149394,5,8,0:3:0:0:
296,166,149560,1,0,0:0:0:0:
272,99,149727,1,0,1:0:0:0:
257,57,149894,1,0,0:0:0:0:
428,212,150060,5,4,1:0:0:0:
170,120,150227,1,0,0:0:0:0:
343,36,150394,5,0,1:0:0:0:
252,295,150560,1,0,1:0:0:0:
43,71,150727,53,4,1:0:0:0:
170,120,150894,1,0,1:0:0:0:
255,151,151060,1,4,0:0:0:0:
297,166,151227,1,0,0:0:0:0:
24,304,151394,5,0,1:0:0:0:
133,266,151560,1,0,1:0:0:0:
208,240,151727,1,4,0:0:0:0:
250,225,151894,1,0,0:0:0:0:
106,173,152060,5,4,1:0:0:0:
326,252,152227,1,0,0:0:0:0:
248,0,152394,6,0,P|263:76|355:76,1,180.000006866455,4|0,1:0|1:0,0:0:0:0:
384,64,152644,1,0,1:0:0:0:
424,60,152727,1,8,1:3:0:0:
464,88,152810,1,0,3:0:0:0:
472,139,152894,1,0,3:0:0:0:
432,188,152977,1,0,3:0:0:0:
368,180,153060,1,0,1:0:0:0:
300,204,153144,1,0,3:0:0:0:
272,277,153227,1,0,3:0:0:0:
300,354,153310,1,0,3:0:0:0:
387,383,153394,6,0,B|416:392|477:378|574:335|539:224|446:227|426:293,1,300,4|0,1:0|0:0,0:0:0:0:
300,354,153727,85,0,3:0:0:0:
300,354,153810,1,0,3:0:0:0:
299,353,153894,2,0,B|264:338|219:278|162:165|281:90|364:164|331:240,1,360.000013732911,4|0,1:0|0:0,0:0:0:0:
137,320,154227,5,0,3:0:0:0:
137,320,154310,1,0,3:0:0:0:
137,320,154394,2,0,B|93:321|15:280|-101:187|-12:49|113:86|116:183,1,420.000004005432,4|0,1:0|0:0,0:0:0:0:
231,315,154727,85,0,3:0:0:0:
231,315,154810,1,0,3:0:0:0:
231,315,154894,2,0,B|280:308|359:246|471:119|344:-17|211:49|227:158,1,480,4|0,1:0|0:0,0:0:0:0:
244,229,155227,1,0,3:0:0:0:
314,241,155310,1,0,3:0:0:0:
384,253,155394,5,4,1:2:0:0:
454,265,155727,85,0,1:0:0:0:
224,272,156060,38,0,B|155:243|94:190|153:101|217:112|248:168|248:168|265:75|397:62|406:212|354:248|256:280|313:362|313:362|452:312|488:160|431:47|329:-16|209:11|209:11|96:44|36:137|31:254|94:370|239:368|239:368,1,1720,4|2,1:0|0:0,0:0:0:0:
