osu file format v14

[General]
AudioFilename: audio.mp3
AudioLeadIn: 0
PreviewTime: 82076
Countdown: 0
SampleSet: Soft
StackLeniency: 0.4
Mode: 0
LetterboxInBreaks: 0
WidescreenStoryboard: 1

[Editor]
Bookmarks: 34763,45430,50727,68727,82763,92060,104096,148144
DistanceSpacing: 0.5
BeatDivisor: 4
GridSize: 4
TimelineZoom: 1.8

[Metadata]
Title:One Room Sugar Life
TitleUnicode:ワンルームシュガーライフ
Artist:Nanawo Akari
ArtistUnicode:ナナヲアカリ
Creator:Fushimi Rio
Version:Hard
Source:ハッピーシュガーライフ
Tags:anime opening happy sugar life ezo’la ナユタン星人 ナユタセイジ sony music associated records 野良いぬ 鍵空とみやき Icekalt Gust Bellicose Misure J-pop Japanese pop
BeatmapID:1742193
BeatmapSetID:818245

[Difficulty]
HPDrainRate:6
CircleSize:4
OverallDifficulty:6.5
ApproachRate:8
SliderMultiplier:1.6
SliderTickRate:1

[Events]
//Background and Video events
0,0,"bg.jpg",0,0
//Break Periods
2,109593,113310
//Storyboard Layer 0 (Background)
//Storyboard Layer 1 (Fail)
//Storyboard Layer 2 (Pass)
//Storyboard Layer 3 (Foreground)
//Storyboard Layer 4 (Overlay)
//Storyboard Sound Samples

[TimingPoints]
61,333.333333333333,4,2,0,50,1,0
1394,-100,4,2,1,70,0,0
10727,-100,4,2,1,80,0,0
12727,-100,4,2,1,100,0,0
24060,-100,4,2,1,70,0,0
28394,-100,4,2,1,80,0,0
34727,-100,4,2,1,80,0,0
45394,-100,4,2,1,80,0,0
50227,-100,4,2,1,70,0,0
50727,-100,4,2,1,100,0,1
70727,-100,4,2,1,100,0,0
82727,-100,4,2,1,80,0,0
104060,-100,4,2,1,80,0,0
118727,-100,4,2,1,100,0,0
120060,-100,4,2,1,100,0,1
140060,-100,4,2,1,100,0,0
156060,-100,4,2,1,100,0,0
157394,-100,4,2,1,80,0,0
158727,-100,4,2,1,60,0,0
160060,-100,4,2,1,40,0,0
161394,-100,4,2,1,20,0,0
162727,-100,4,2,1,10,0,0
163227,-100,4,2,1,5,0,0

[Colours]
Combo1 : 128,128,255
Combo2 : 255,128,255
Combo3 : 95,48,95
Combo4 : 48,48,95

[HitObjects]
304,217,560,6,0,P|272:161|176:165,2,160,2|0|0,0:0|0:0|0:0,0:0:0:0:
337,301,1394,2,0,L|402:254,1,80,6|0,0:0|0:0,0:0:0:0:
488,215,1727,2,0,L|422:261,1,80,0|2,0:3|0:0,0:0:0:0:
163,219,2227,6,0,P|120:157|48:160,2,80,0|0|0,0:0|0:0|0:0,0:0:0:0:
197,304,2727,2,0,L|272:251,1,80,2|0,0:0|0:0,0:0:0:0:
348,218,3060,2,0,L|282:264,1,80,0|2,0:0|0:0,0:0:0:0:
55,341,3560,6,0,P|48:264|-15:231,2,80,0|2|0,0:0|0:0|0:0,0:0:0:0:
66,97,4227,6,0,P|72:173|136:206,2,80,0|2|0,0:0|0:0|0:0,0:0:0:0:
206,83,4727,2,0,L|131:136,1,80,0|0,0:0|0:0,0:0:0:0:
225,89,5060,2,0,L|291:43,1,80,2|0,0:0|0:0,0:0:0:0:
255,173,5394,6,0,P|298:235|375:232,2,160,0|0|0,0:0|0:0|0:0,0:0:0:0:
255,173,6227,1,0,0:0:0:0:
335,161,6394,2,0,P|347:122|342:78,1,80,4|0,0:1|0:0,0:0:0:0:
428,164,6727,6,0,L|494:118,1,80,4|0,0:1|0:0,0:0:0:0:
433,267,7060,2,0,L|499:221,1,80,2|0,3:2|0:0,0:0:0:0:
191,139,7560,6,0,P|181:99|155:63,2,80,0|2|0,0:0|3:2|0:0,0:0:0:0:
284,142,8060,2,0,L|350:96,1,80,0|0,0:0|0:0,0:0:0:0:
289,245,8394,2,0,L|355:199,1,80,2|0,3:2|0:0,0:0:0:0:
90,254,8894,6,0,P|62:224|21:206,2,80,0|2|0,0:0|3:2|0:0,0:0:0:0:
183,257,9394,2,0,L|315:165,1,160,0|0,1:0|3:0,0:0:0:0:
314,165,9894,1,0,0:0:0:0:
402,194,10060,1,0,1:0:0:0:
402,194,10227,2,0,P|431:167|448:131,2,80,0|0|0,0:0|3:0|1:3,0:0:0:0:
313,202,10727,5,4,0:3:0:0:
254,113,10894,1,4,1:3:0:0:
239,187,11060,5,0,1:0:0:0:
328,127,11227,1,0,1:0:0:0:
233,80,11394,1,0,1:0:0:0:
233,80,12060,6,0,L|187:14,1,80,4|0,1:0|3:0,0:0:0:0:
196,163,12394,2,0,L|150:97,1,80,0|0,1:0|3:0,0:0:0:0:
15,30,12727,5,0,1:0:0:0:
74,119,12894,1,0,1:0:0:0:
89,45,13060,5,0,1:0:0:0:
0,105,13227,1,0,1:0:0:0:
94,151,13394,6,0,P|154:154|211:136,1,120,4|0,0:2|0:0,0:0:0:0:
211,136,13727,2,0,P|242:106|254:72,1,80,0|0,1:0|0:0,0:0:0:0:
336,26,14060,6,0,P|332:85|351:142,1,120,8|0,3:0|0:0,0:0:0:0:
351,142,14394,2,0,P|381:173|415:185,1,80,0|0,1:0|0:0,0:0:0:0:
460,267,14727,6,0,P|400:263|343:282,1,120,0|0,1:0|0:0,0:0:0:0:
344,282,15060,2,0,P|313:312|301:346,1,80,0|0,1:0|0:0,0:0:0:0:
221,360,15394,5,4,1:1:0:0:
162,271,15560,1,0,0:0:0:0:
236,285,15727,5,0,1:0:0:0:
147,345,15894,1,0,1:0:0:0:
141,238,16060,6,0,P|168:184|212:144,1,120,4|0,0:0|0:0,0:0:0:0:
212,144,16394,2,0,P|253:132|288:138,1,80,0|0,1:0|0:0,0:0:0:0:
332,32,16727,6,0,P|364:82|377:140,1,120,8|0,3:0|0:0,0:0:0:0:
377,140,17060,2,0,P|366:181|343:209,1,80,0|0,1:0|0:0,0:0:0:0:
413,299,17394,6,0,P|353:302|296:284,1,120,8|0,0:3|0:0,0:0:0:0:
297,284,17727,2,0,P|266:254|254:220,1,80,0|0,1:0|0:0,0:0:0:0:
182,144,18060,6,0,P|192:102|215:74,2,80,4|0|0,1:0|1:0|1:0,0:0:0:0:
197,159,18477,1,0,1:0:0:0:
197,159,18560,1,0,1:0:0:0:
197,159,18644,1,0,1:0:0:0:
197,159,18727,6,0,P|156:203|103:231,1,120,4|0,0:0|0:0,0:0:0:0:
104,231,19060,2,0,P|60:231|28:216,1,80,0|0,1:0|0:0,0:0:0:0:
222,261,19394,6,0,P|263:305|316:333,1,120,8|0,3:0|0:0,0:0:0:0:
315,333,19727,2,0,P|359:333|391:318,1,80,0|0,1:0|0:0,0:0:0:0:
507,304,20060,6,0,P|466:260|413:232,1,120,8|0,0:3|0:0,0:0:0:0:
414,232,20394,2,0,P|370:232|338:247,1,80,0|0,1:0|0:0,0:0:0:0:
276,195,20727,5,4,1:0:0:0:
187,254,20894,1,0,0:0:0:0:
202,180,21060,5,0,1:0:0:0:
262,269,21227,1,0,1:0:0:0:
155,275,21394,5,4,1:0:0:0:
162,282,21560,1,0,1:0:0:0:
162,282,21727,2,0,L|77:276,1,80,4|0,0:0|0:0,0:0:0:0:
134,175,22060,5,0,1:0:0:0:
134,175,22227,1,0,1:0:0:0:
134,175,22394,2,0,L|49:169,1,80,4|0,0:0|0:0,0:0:0:0:
98,21,22727,5,4,1:0:0:0:
148,89,22894,1,0,1:0:0:0:
148,89,23060,2,0,L|233:95,1,80,0|0,1:0|1:0,0:0:0:0:
307,120,23394,2,0,L|349:123,3,40,0|0|0|0,1:0|3:0|3:0|3:0,0:0:0:0:
358,133,23727,2,0,L|400:136,3,40,0|0|0|0,3:0|3:0|3:0|3:0,0:0:0:0:
417,137,24060,6,0,P|467:179|439:270,1,160,4|0,0:0|0:0,0:0:0:0:
355,263,24560,1,0,0:3:0:0:
355,263,24727,2,0,L|275:263,1,80,0|4,0:0|3:0,0:0:0:0:
202,321,25060,2,0,L|122:321,1,80,8|8,3:3|0:3,0:0:0:0:
63,263,25394,6,0,P|41:190|94:137,1,160,4|0,0:0|0:0,0:0:0:0:
193,54,25894,1,0,3:0:0:0:
193,54,25977,1,0,3:0:0:0:
193,54,26060,2,0,L|113:54,1,80,8|0,3:0|3:0,0:0:0:0:
290,136,26394,2,0,L|210:136,1,80,4|0,3:0|0:0,0:0:0:0:
367,95,26727,5,4,0:0:0:0:
367,95,26894,2,0,L|447:95,1,80,0|0,0:0|0:0,0:0:0:0:
494,217,27227,2,0,P|421:239|368:186,1,160,0|4,0:0|3:0,0:0:0:0:
367,184,27727,1,8,3:0:0:0:
327,289,27894,1,8,0:3:0:0:
327,289,28060,6,0,P|254:311|202:260,1,120,4|0,0:1|0:0,0:0:0:0:
205,276,28394,2,0,P|165:276|132:297,1,80,4|0,0:0|0:0,0:0:0:0:
48,328,28727,1,8,3:0:0:0:
48,308,28810,1,0,3:0:0:0:
48,288,28894,1,8,3:0:0:0:
48,268,28977,1,0,3:0:0:0:
48,248,29060,2,0,L|48:156,1,80,4|0,1:0|0:0,0:0:0:0:
8,80,29394,6,0,L|100:80,1,80,4|0,0:0|0:0,0:0:0:0:
164,52,29727,1,0,1:0:0:0:
192,128,29894,2,0,P|236:156|272:156,1,80,0|0,0:0|3:0,0:0:0:0:
408,144,30227,2,0,P|364:116|328:116,1,80,0|0,0:0|1:0,0:0:0:0:
344,200,30560,1,0,0:0:0:0:
428,232,30727,5,2,0:0:0:0:
428,232,30894,1,0,0:0:0:0:
464,304,31060,2,0,P|458:343|434:374,1,80,2|0,1:2|0:0,0:0:0:0:
376,304,31394,2,0,P|280:336|260:384,1,160,0|0,3:0|1:0,0:0:0:0:
216,284,31894,5,0,0:0:0:0:
156,336,32060,2,0,P|60:304|40:256,1,160,2|0,3:2|1:0,0:0:0:0:
112,220,32560,2,0,P|135:188|141:149,1,80,0|0,0:0|3:0,0:0:0:0:
108,80,32894,1,0,0:0:0:0:
108,80,33060,1,0,1:0:0:0:
32,108,33227,6,0,P|8:139|2:178,1,80,0|12,0:0|3:3,0:0:0:0:
84,248,33560,1,0,0:0:0:0:
84,248,33727,2,0,P|140:212|148:124,1,160,0|4,1:0|3:0,0:0:0:0:
208,284,34227,5,0,1:0:0:0:
208,284,34394,5,0,1:0:0:0:
208,284,34560,5,0,1:0:0:0:
208,284,34727,6,0,P|264:316|304:308,1,80,4|0,1:0|0:0,0:0:0:0:
316,332,34977,2,0,P|317:271|376:229,1,120,0|0,3:0|3:0,0:0:0:0:
500,260,35394,6,0,P|444:292|404:284,1,80,0|0,3:0|0:0,0:0:0:0:
392,308,35644,2,0,P|393:247|452:205,1,120,0|0,3:0|3:0,0:0:0:0:
504,132,36060,6,0,L|424:112,1,80,0|0,3:0|3:0,0:0:0:0:
388,124,36310,2,0,L|308:104,1,80,0|0,3:0|3:0,0:0:0:0:
272,120,36560,1,0,3:0:0:0:
176,124,36727,6,0,L|37:89,2,120,0|0|0,3:0|3:0|3:0,0:0:0:0:
360,100,37394,6,0,P|304:132|264:124,1,80,0|0,3:0|0:0,0:0:0:0:
252,148,37644,2,0,P|250:87|191:45,1,120,0|0,3:0|3:0,0:0:0:0:
129,155,38060,5,0,3:0:0:0:
149,151,38144,1,0,3:0:0:0:
166,141,38227,1,0,3:0:0:0:
176,123,38310,2,0,P|174:65|132:25,1,120,0|0,3:0|3:0,0:0:0:0:
50,171,38727,6,0,P|67:206|99:229,1,80,4|0,1:0|0:0,0:0:0:0:
181,201,39060,2,0,P|198:236|230:259,1,80,4|0,0:0|0:0,0:0:0:0:
312,231,39394,2,0,P|329:266|361:289,1,80,0|0,1:0|0:0,0:0:0:0:
443,261,39727,2,0,P|460:296|492:319,1,80,4|0,0:0|0:0,0:0:0:0:
463,180,40060,6,0,P|407:148|367:156,1,80,4|0,1:0|3:0,0:0:0:0:
355,132,40310,2,0,P|353:192|294:234,1,120,0|0,3:0|3:0,0:0:0:0:
171,204,40727,6,0,P|227:171|267:180,1,80,0|0,3:0|3:0,0:0:0:0:
279,156,40977,2,0,P|277:216|218:258,1,120,0|0,3:0|3:0,0:0:0:0:
113,309,41394,6,0,L|113:257,3,40,0|0|0|0,3:0|3:0|0:0|3:0,0:0:0:0:
78,249,41727,2,0,P|45:193|54:153,1,80,0|0,3:0|0:0,0:0:0:0:
16,106,42060,6,0,P|72:74|112:82,1,80,0|0,3:0|3:0,0:0:0:0:
237,145,42394,2,0,P|181:112|141:121,1,80,0|0,3:0|3:0,0:0:0:0:
149,120,42644,1,0,0:0:0:0:
135,134,42727,6,0,P|135:198|162:229,1,80,0|0,3:0|0:0,0:0:0:0:
158,309,43060,2,0,P|214:276|254:285,1,80,0|0,3:0|3:0,0:0:0:0:
246,284,43310,1,0,3:0:0:0:
254,265,43394,6,0,P|310:232|350:241,1,80,0|0,3:0|3:0,0:0:0:0:
362,217,43644,2,0,P|360:277|301:319,1,120,0|0,3:0|3:0,0:0:0:0:
438,189,44060,6,0,P|471:166|511:163,1,80,4|8,1:0|0:3,0:0:0:0:
309,148,44394,2,0,P|342:125|382:122,1,80,4|8,0:0|0:3,0:0:0:0:
180,109,44727,2,0,P|213:86|253:83,1,80,4|0,1:0|0:0,0:0:0:0:
51,69,45060,2,0,P|84:46|124:43,1,80,4|0,0:0|0:0,0:0:0:0:
160,189,45394,6,0,L|0:189,1,160,4|0,0:1|0:0,0:0:0:0:
129,277,45894,1,0,0:0:0:0:
129,277,45977,1,0,0:0:0:0:
129,277,46060,2,0,L|49:277,1,80,0|0,0:0|0:0,0:0:0:0:
10,362,46394,2,0,L|90:362,1,80,0|0,0:0|3:0,0:0:0:0:
110,362,46644,1,0,3:0:0:0:
129,363,46727,6,0,P|189:342|214:254,1,160,4|0,0:0|1:0,0:0:0:0:
296,207,47227,1,0,3:0:0:0:
296,207,47394,2,0,P|310:252|342:277,1,80,0|0,0:0|0:0,0:0:0:0:
422,273,47727,2,0,P|453:238|459:198,1,80,0|0,1:0|0:0,0:0:0:0:
318,124,48060,5,0,1:0:0:0:
318,124,49394,1,0,1:0:0:0:
318,124,49477,1,0,3:0:0:0:
318,124,49560,2,0,L|267:107,3,40,0|0|0|0,3:0|3:0|3:0|3:0,0:0:0:0:
242,97,49894,6,0,P|198:100|168:195,1,120,0|0,3:0|0:0,0:0:0:0:
157,198,50227,2,0,L|0:159,1,160,2|0,0:0|0:0,0:0:0:0:
176,290,50727,6,0,L|241:243,1,80,4|0,0:0|0:0,0:0:0:0:
327,197,51060,2,0,L|262:244,1,80,0|0,1:0|0:0,0:0:0:0:
264,328,51394,1,8,0:3:0:0:
349,360,51560,1,0,0:0:0:0:
349,360,51644,1,0,0:0:0:0:
349,360,51727,2,0,L|414:313,1,80,0|0,1:0|0:0,0:0:0:0:
473,181,52060,6,0,L|408:228,1,80,0|0,0:0|0:0,0:0:0:0:
322,273,52394,2,0,L|387:226,1,80,0|0,1:0|0:0,0:0:0:0:
384,136,52727,1,8,0:3:0:0:
300,111,52894,2,0,L|235:158,2,80,0|0|0,0:0|1:0|0:0,0:0:0:0:
296,10,53394,5,0,0:0:0:0:
229,56,53560,2,0,P|166:53|141:33,1,80,0|0,0:3|1:0,0:0:0:0:
112,125,53894,2,0,P|72:129|40:153,1,80,0|0,0:0|0:0,0:0:0:0:
76,251,54227,2,0,P|115:246|147:222,1,80,0|0,0:0|1:0,0:0:0:0:
194,145,54560,6,0,P|269:154|288:227,1,160,0|0,0:3|0:0,0:0:0:0:
288,312,55060,2,0,L|392:312,1,80,0|0,1:0|0:0,0:0:0:0:
132,264,55394,2,0,L|236:264,1,80,4|0,0:3|3:0,0:0:0:0:
288,226,55727,1,0,1:0:0:0:
291,208,55810,1,0,3:0:0:0:
289,188,55894,1,0,3:0:0:0:
281,170,55977,1,0,3:0:0:0:
269,154,56060,6,0,L|204:107,1,80,4|0,0:0|0:0,0:0:0:0:
118,61,56394,2,0,L|183:108,1,80,0|0,1:0|0:0,0:0:0:0:
181,198,56727,1,8,0:3:0:0:
96,230,56894,1,0,0:0:0:0:
96,230,56977,1,0,0:0:0:0:
96,230,57060,2,0,L|31:183,1,80,0|0,1:0|0:0,0:0:0:0:
181,198,57394,6,0,L|246:245,1,80,0|0,0:0|0:0,0:0:0:0:
332,290,57727,2,0,L|267:243,1,80,0|0,1:0|0:0,0:0:0:0:
270,156,58060,1,8,0:3:0:0:
354,128,58227,1,0,0:0:0:0:
354,128,58394,2,0,L|419:175,1,80,0|0,1:0|0:0,0:0:0:0:
480,344,58727,6,0,P|406:326|391:252,1,160,4|0,0:1|1:0,0:0:0:0:
274,326,59227,1,0,0:0:0:0:
274,326,59394,2,0,P|256:290|260:251,1,80,4|0,0:0|0:0,0:0:0:0:
174,223,59727,2,0,P|192:188|188:148,1,80,0|0,1:0|0:0,0:0:0:0:
251,79,60060,5,4,1:0:0:0:
251,79,60227,1,0,1:0:0:0:
344,134,60394,2,0,P|291:153|272:186,1,80,0|0,1:0|1:0,0:0:0:0:
348,218,60727,2,0,P|400:198|420:166,1,80,4|0,0:0|3:0,0:0:0:0:
424,162,60977,1,0,3:0:0:0:
428,142,61060,2,0,L|428:94,3,40,0|0|0|0,3:0|3:0|3:0|3:0,0:0:0:0:
388,101,61394,6,0,P|329:96|292:52,1,120,4|0,0:0|0:0,0:0:0:0:
252,52,61727,2,0,L|172:52,1,80,0|2,1:0|0:0,0:0:0:0:
32,152,62060,6,0,P|76:114|81:55,1,120,8|0,0:3|0:0,0:0:0:0:
81,55,62394,1,0,1:0:0:0:
172,60,62560,2,0,L|252:60,1,80,0|0,0:0|0:0,0:0:0:0:
172,152,62894,2,0,L|252:152,1,80,0|0,0:0|1:0,0:0:0:0:
392,248,63227,1,2,0:0:0:0:
392,248,63394,6,0,P|347:210|342:151,1,120,0|0,0:3|0:0,0:0:0:0:
341,152,63727,1,0,1:0:0:0:
252,156,63894,2,0,L|172:156,1,80,0|0,0:0|2:0,2:2:0:0:
252,248,64227,2,0,L|172:248,1,80,0|0,0:0|1:0,0:0:0:0:
65,322,64560,1,2,0:0:0:0:
65,322,64727,6,0,P|83:287|81:247,2,80,8|0|0,0:3|0:0|1:0,0:0:0:0:
136,368,65227,1,0,0:0:0:0:
204,320,65394,2,0,L|284:320,1,80,4|0,0:1|0:0,0:0:0:0:
376,296,65727,2,0,L|456:296,1,80,0|0,1:0|0:0,0:0:0:0:
240,224,66060,2,0,L|320:224,1,80,2|0,0:0|0:0,0:0:0:0:
384,168,66394,1,0,1:0:0:0:
404,92,66560,1,0,3:0:0:0:
404,92,66644,1,0,3:0:0:0:
404,92,66727,6,0,P|345:96|307:141,1,120,4|0,0:0|0:0,0:0:0:0:
267,141,67060,2,0,L|187:141,1,80,0|2,1:0|0:0,0:0:0:0:
47,237,67394,6,0,P|91:199|96:140,1,120,8|0,0:3|0:0,0:0:0:0:
96,140,67727,1,0,1:0:0:0:
187,145,67894,2,0,L|267:145,1,80,0|0,0:0|0:0,0:0:0:0:
187,237,68227,2,0,L|267:237,1,80,0|0,0:0|1:0,0:0:0:0:
352,236,68560,1,2,0:0:0:0:
352,348,68727,6,0,P|389:303|448:298,1,120,0|0,0:0|0:0,0:0:0:0:
447,297,69060,1,0,1:0:0:0:
444,208,69227,2,0,L|444:128,1,80,0|4,0:0|0:1,0:0:0:0:
352,208,69560,2,0,L|352:128,1,80,0|0,0:0|1:0,0:0:0:0:
260,44,69894,6,0,L|260:124,1,80,2|4,0:0|3:0,0:0:0:0:
188,264,70227,5,0,1:0:0:0:
277,205,70394,1,0,1:0:0:0:
203,190,70560,5,0,1:0:0:0:
263,279,70727,1,0,1:0:0:0:
263,279,72060,6,0,P|323:282|380:264,1,120,4|0,0:0|0:0,0:0:0:0:
380,264,72394,2,0,P|411:234|423:200,1,80,0|0,1:0|0:0,0:0:0:0:
336,184,72727,6,0,P|339:124|321:67,1,120,8|0,3:3|0:0,0:0:0:0:
321,67,73060,2,0,P|291:36|257:24,1,80,0|0,1:0|0:0,0:0:0:0:
241,111,73394,6,0,P|181:108|124:126,1,120,8|0,0:3|0:0,0:0:0:0:
124,126,73727,2,0,P|93:156|81:190,1,80,0|0,1:0|0:0,0:0:0:0:
148,272,74060,5,4,1:0:0:0:
236,212,74227,1,0,0:0:0:0:
163,197,74394,5,0,1:0:0:0:
222,287,74560,1,0,1:0:0:0:
269,191,74727,6,0,P|272:131|254:74,1,120,4|0,0:0|0:0,0:0:0:0:
254,74,75060,2,0,P|224:43|190:31,1,80,0|0,1:0|0:0,0:0:0:0:
360,132,75394,6,0,P|387:78|431:38,1,120,8|0,3:3|0:0,0:0:0:0:
431,38,75727,2,0,P|472:26|507:32,1,80,0|0,1:0|0:0,0:0:0:0:
512,144,76060,6,0,P|484:197|440:237,1,120,8|0,0:3|0:0,0:0:0:0:
441,238,76394,2,0,P|399:249|364:243,1,80,0|0,1:0|0:0,0:0:0:0:
277,281,76727,6,0,P|246:250|234:216,2,80,4|0|0,1:0|1:0|1:0,0:0:0:0:
292,296,77144,1,0,1:0:0:0:
292,296,77227,1,0,1:0:0:0:
292,296,77310,1,0,1:0:0:0:
292,296,77394,6,0,P|241:328|183:341,1,120,4|0,0:0|0:0,0:0:0:0:
183,341,77727,2,0,P|141:330|113:307,1,80,0|0,1:0|0:0,0:0:0:0:
23,168,78060,6,0,P|82:165|140:183,1,120,8|0,3:3|0:0,0:0:0:0:
140,183,78394,2,0,P|171:212|183:247,1,80,0|0,1:0|0:0,0:0:0:0:
271,269,78727,6,0,P|268:209|286:151,1,120,8|0,0:3|0:0,0:0:0:0:
286,152,79060,2,0,P|315:120|350:108,1,80,0|0,1:0|0:0,0:0:0:0:
436,188,79394,5,4,1:0:0:0:
365,268,79560,1,0,0:0:0:0:
359,192,79727,5,0,1:0:0:0:
440,263,79894,1,0,3:0:0:0:
338,296,80060,5,4,0:0:0:0:
345,303,80227,1,0,0:0:0:0:
345,303,80394,2,0,L|260:297,1,80,0|0,1:0|0:0,0:0:0:0:
334,200,80727,5,0,0:0:0:0:
334,200,80894,1,0,0:0:0:0:
334,200,81060,2,0,L|249:194,1,80,0|0,1:0|0:0,0:0:0:0:
192,72,81394,5,4,0:1:0:0:
167,165,81560,1,0,0:0:0:0:
167,165,81727,2,0,L|82:159,1,80,0|0,1:0|0:0,0:0:0:0:
67,158,81977,1,0,0:0:0:0:
46,156,82060,6,0,P|15:180|2:217,1,80,4|0,3:0|1:0,0:0:0:0:
86,253,82394,5,0,1:0:0:0:
10,309,82560,5,0,1:0:0:0:
90,257,82727,6,0,P|128:286|168:288,1,80,4|0,1:0|3:0,0:0:0:0:
178,285,82977,1,0,3:0:0:0:
186,302,83060,2,0,P|224:331|264:333,1,80,0|0,3:0|3:0,0:0:0:0:
274,330,83310,1,0,3:0:0:0:
282,347,83394,2,0,P|320:376|360:378,1,80,0|0,3:0|3:0,0:0:0:0:
414,309,83727,2,0,P|389:256|333:239,1,120,0|0,3:0|0:0,0:0:0:0:
296,248,84060,6,0,L|227:264,3,40,0|0|0|0,3:0|3:0|3:0|3:0,0:0:0:0:
223,234,84394,2,0,L|154:250,3,40,0|0|0|0,3:0|3:0|3:0|3:0,0:0:0:0:
145,254,84727,1,0,3:0:0:0:
141,273,84810,2,0,P|111:298|72:305,1,80,0|0,3:0|3:0,0:0:0:0:
34,293,85060,2,0,P|8:263|1:224,1,80,0|0,3:0|3:0,0:0:0:0:
81,131,85394,6,0,P|110:156|149:163,1,80,0|0,3:0|3:0,0:0:0:0:
170,162,85644,1,0,3:0:0:0:
186,151,85727,2,0,P|211:121|218:82,1,80,0|0,3:0|3:0,0:0:0:0:
309,134,86060,2,0,P|338:108|377:101,1,80,0|0,3:0|3:0,0:0:0:0:
398,103,86310,1,0,3:0:0:0:
414,114,86394,2,0,P|439:143|446:182,1,80,0|0,3:0|3:0,0:0:0:0:
442,312,86727,6,0,P|409:289|392:253,1,80,4|0,1:0|0:0,0:0:0:0:
311,281,87060,2,0,P|278:258|261:222,1,80,4|0,3:2|3:0,0:0:0:0:
180,251,87394,2,0,P|147:228|130:192,1,80,0|0,1:0|3:0,0:0:0:0:
49,221,87727,2,0,P|16:198|0:162,1,80,4|4,3:2|3:0,0:0:0:0:
36,327,88060,6,0,L|85:317,3,40,4|0|0|0,1:0|3:0|3:0|3:0,0:0:0:0:
110,299,88394,2,0,L|159:289,3,40,0|0|0|0,3:0|3:0|3:0|3:0,0:0:0:0:
182,269,88727,2,0,L|231:259,3,40,0|0|0|0,3:0|3:0|3:0|3:0,0:0:0:0:
256,241,89060,2,0,L|305:231,3,40,0|0|0|0,0:0|3:0|3:0|0:0,0:0:0:0:
332,219,89394,5,0,3:0:0:0:
332,219,89560,1,0,3:0:0:0:
240,166,89727,1,0,3:0:0:0:
240,166,89894,1,0,3:0:0:0:
139,116,90060,1,0,3:0:0:0:
139,116,90227,1,0,3:0:0:0:
47,63,90394,1,0,3:0:0:0:
47,63,90560,1,0,3:0:0:0:
143,119,90727,6,0,P|187:100|208:66,1,80,0|0,3:0|3:0,0:0:0:0:
298,42,91060,1,0,3:0:0:0:
292,62,91144,1,0,3:0:0:0:
292,83,91227,2,0,P|305:120|335:145,1,80,0|0,3:0|3:0,0:0:0:0:
354,151,91477,1,0,3:0:0:0:
373,151,91560,1,0,3:0:0:0:
450,122,91727,2,0,P|467:85|463:45,1,80,0|0,3:0|3:0,0:0:0:0:
441,230,92060,6,0,P|408:253|391:289,1,80,4|0,1:0|3:0,0:0:0:0:
310,261,92394,2,0,P|277:284|260:320,1,80,4|0,0:2|3:0,0:0:0:0:
179,291,92727,2,0,P|146:314|129:350,1,80,0|0,1:0|3:0,0:0:0:0:
48,321,93060,2,0,P|15:344|-1:380,1,80,4|0,3:2|3:0,0:0:0:0:
93,240,93394,6,0,P|74:196|40:175,1,80,4|0,1:0|3:0,0:0:0:0:
30,170,93644,1,0,3:0:0:0:
14,157,93727,2,0,P|0:120|6:81,1,80,0|0,1:0|3:0,0:0:0:0:
116,54,94060,1,0,3:0:0:0:
123,72,94144,2,0,P|153:97|192:103,1,80,0|0,3:0|3:0,0:0:0:0:
213,107,94394,2,0,P|243:131|257:168,1,80,0|0,1:0|3:0,0:0:0:0:
199,302,94727,6,0,P|223:271|260:257,1,80,0|0,3:0|3:0,0:0:0:0:
280,261,94977,1,0,3:0:0:0:
298,268,95060,2,0,L|318:315,2,40,0|0|0,1:0|3:0|3:0,0:0:0:0:
363,177,95394,2,0,L|391:242,2,53.3333333333333,0|0|0,3:0|3:0|3:0,0:0:0:0:
344,127,95727,2,0,P|368:96|405:82,1,80,0|0,1:0|3:0,0:0:0:0:
290,42,96060,6,0,L|249:29,3,40,0|0|0|0,3:0|3:0|3:0|3:0,0:0:0:0:
213,42,96394,2,0,L|172:29,2,40,0|0|0,1:0|3:0|3:0,0:0:0:0:
226,79,96644,2,0,P|221:143|179:177,1,120,0|0,3:0|3:0,0:0:0:0:
93,227,97060,2,0,P|87:187|102:151,1,80,0|0,1:0|3:0,0:0:0:0:
172,255,97394,6,0,P|222:280|285:258,1,120,4|0,1:0|3:0,0:0:0:0:
312,236,97727,2,0,L|320:275,3,40,4|0|0|0,1:2|3:0|3:0|3:0,0:0:0:0:
342,205,98060,2,0,L|351:245,3,40,0|0|0|0,1:0|3:0|3:0|3:0,0:0:0:0:
372,174,98394,2,0,L|394:269,1,80,4|0,1:2|3:0,0:0:0:0:
456,141,98727,5,4,1:0:0:0:
456,141,98894,1,0,3:0:0:0:
376,84,99060,1,0,1:0:0:0:
376,84,99227,1,0,3:0:0:0:
285,133,99394,2,0,L|229:162,2,53.3333333333333,0|0|0,3:0|3:0|3:0,0:0:0:0:
287,78,99727,2,0,B|278:40|278:40|292:2,1,80,0|0,1:0|3:0,0:0:0:0:
292,2,99977,1,0,3:0:0:0:
291,2,100060,5,0,3:0:0:0:
413,70,100227,1,0,3:0:0:0:
413,70,100310,1,0,3:0:0:0:
413,70,100394,2,0,L|406:127,3,40,0|0|0|0,1:0|3:0|3:0|3:0,0:0:0:0:
424,146,100727,2,0,P|421:191|377:233,1,106.666666666667,0|0,3:0|3:0,0:0:0:0:
335,262,101060,2,0,P|298:247|259:253,1,80,0|0,1:0|3:0,0:0:0:0:
244,266,101310,1,0,3:0:0:0:
234,284,101394,6,0,L|227:341,3,40,0|0|0|0,3:0|3:0|3:0|3:0,0:0:0:0:
198,349,101727,2,0,L|191:292,2,40,0|0|0,1:0|3:0|3:0,0:0:0:0:
97,234,102060,2,0,L|90:177,2,40,0|0|0,3:0|3:0|3:0,0:0:0:0:
102,254,102310,1,0,3:0:0:0:
112,272,102394,2,0,P|148:286|187:280,1,80,0|0,1:0|3:0,0:0:0:0:
251,174,102727,6,0,L|246:213,3,40,4|0|0|0,1:0|3:0|3:0|3:0,0:0:0:0:
283,198,103060,2,0,P|319:212|358:206,1,80,4|0,1:2|3:0,0:0:0:0:
407,142,103394,2,0,P|401:102|376:72,1,80,0|0,1:0|3:0,0:0:0:0:
358,63,103644,1,0,3:0:0:0:
338,57,103727,2,0,P|298:62|268:87,1,80,4|0,0:2|0:0,3:3:0:0:
209,174,104060,6,0,L|49:174,1,160,4|0,0:1|0:0,0:0:0:0:
178,86,104560,1,0,0:0:0:0:
178,86,104644,1,0,0:0:0:0:
178,86,104727,2,0,L|98:86,1,80,8|0,0:3|0:0,0:0:0:0:
59,1,105060,2,0,L|139:1,1,80,0|0,0:0|1:0,0:0:0:0:
159,1,105310,1,0,1:0:0:0:
178,0,105394,6,0,P|238:21|263:109,1,160,4|0,0:0|1:0,0:0:0:0:
263,107,105894,1,0,3:0:0:0:
333,180,106060,2,0,L|366:92,1,80,0|4,3:0|3:0,0:0:0:0:
383,25,106394,1,0,1:3:0:0:
383,25,106560,1,0,3:0:0:0:
456,94,106727,6,0,L|427:168,1,80,4|0,0:1|0:0,0:0:0:0:
394,250,107060,2,0,P|417:290|454:307,1,80,0|0,1:0|0:0,0:0:0:0:
333,180,107394,2,0,L|304:254,1,80,8|0,0:3|0:0,0:0:0:0:
226,226,107727,2,0,L|197:300,1,80,0|0,1:0|3:0,0:0:0:0:
76,225,108060,5,4,1:0:0:0:
44,324,108227,1,0,1:0:0:0:
8,259,108394,5,0,1:0:0:0:
111,288,108560,1,0,1:0:0:0:
84,185,108727,2,0,L|41:29,2,160,0|2|4,1:2|0:0|0:0,0:0:0:0:
364,249,114060,6,0,P|404:197|380:103,1,160,4|0,0:0|0:0,0:0:0:0:
316,52,114560,1,0,3:0:0:0:
316,52,114644,1,0,3:0:0:0:
316,52,114727,6,0,L|236:52,1,80,4|0,0:1|0:0,0:0:0:0:
145,96,115060,2,0,L|65:96,1,80,0|0,3:0|0:0,0:0:0:0:
301,143,115394,2,0,L|221:143,1,80,0|0,3:0|0:0,0:0:0:0:
162,211,115727,2,0,L|82:211,1,80,0|0,3:0|0:0,0:0:0:0:
104,338,116060,6,0,L|184:338,1,80,4|0,0:0|0:0,0:0:0:0:
243,270,116394,2,0,L|323:270,1,80,8|0,3:0|0:0,0:0:0:0:
87,223,116727,2,0,L|167:223,1,80,0|0,3:0|0:0,0:0:0:0:
258,179,117060,2,0,L|338:179,1,80,0|0,3:0|0:0,0:0:0:0:
423,133,117394,6,0,P|445:100|450:61,1,80,4|0,0:1|0:0,0:0:0:0:
329,21,117727,2,0,P|312:57|314:97,1,80,0|0,1:0|0:0,0:0:0:0:
402,250,118060,5,0,1:0:0:0:
427,136,118227,1,0,3:0:0:0:
472,205,118394,5,0,1:0:0:0:
356,182,118560,1,0,0:0:0:0:
394,293,118727,5,4,1:2:0:0:
347,158,118894,1,0,1:0:0:0:
254,263,119060,1,0,1:0:0:0:
182,205,119227,6,0,P|208:153|265:143,1,120,0|0,0:0|0:0,0:0:0:0:
227,133,119560,2,0,L|70:94,1,160,2|0,0:0|0:0,0:0:0:0:
237,51,120060,6,0,L|314:70,1,80,4|0,0:0|0:0,0:0:0:0:
405,106,120394,2,0,L|327:86,1,80,0|0,1:0|0:0,0:0:0:0:
264,142,120727,1,8,0:3:0:0:
293,227,120894,1,0,0:0:0:0:
293,227,120977,1,0,0:0:0:0:
293,227,121060,2,0,L|370:246,1,80,0|0,1:0|0:0,0:0:0:0:
228,292,121394,6,0,L|150:272,1,80,0|0,0:0|0:0,0:0:0:0:
60,237,121727,2,0,L|137:256,1,80,0|0,1:0|0:0,0:0:0:0:
203,197,122060,1,8,0:3:0:0:
172,116,122227,1,0,0:0:0:0:
172,116,122394,2,0,L|94:96,2,80,0|0|0,1:0|0:0|0:0,0:0:0:0:
203,197,122894,5,0,0:0:0:0:
203,197,123060,2,0,P|244:168|257:135,1,80,0|0,1:0|0:0,0:0:0:0:
355,155,123394,1,0,0:0:0:0:
355,155,123560,2,0,P|333:109|338:75,1,80,0|0,0:0|1:0,0:0:0:0:
439,169,123894,6,0,P|394:232|316:236,1,160,2|2,0:0|0:0,0:0:0:0:
329,330,124394,1,0,1:0:0:0:
241,294,124560,2,0,P|195:299|164:325,1,80,0|4,0:0|0:3,0:0:0:0:
80,311,124894,1,0,3:0:0:0:
60,311,124977,1,0,3:0:0:0:
40,311,125060,2,0,L|0:311,3,40,0|0|0|0,1:0|3:0|3:0|3:0,0:0:0:0:
37,295,125394,6,0,L|114:275,1,80,4|0,0:0|0:0,0:0:0:0:
205,240,125727,2,0,L|127:259,1,80,0|0,1:0|0:0,0:0:0:0:
64,200,126060,1,8,0:3:0:0:
93,119,126227,1,0,0:0:0:0:
93,119,126310,1,0,0:0:0:0:
93,119,126394,2,0,L|170:99,1,80,0|0,1:0|0:0,0:0:0:0:
252,167,126727,5,0,0:0:0:0:
252,167,126894,2,0,L|329:186,1,80,2|0,0:0|1:0,0:0:0:0:
420,222,127227,2,0,L|342:202,1,80,2|0,0:0|0:0,0:0:0:0:
285,262,127560,1,0,0:0:0:0:
308,343,127727,2,0,L|385:362,1,80,0|0,1:0|0:0,0:0:0:0:
446,232,128060,6,0,P|455:170|380:120,2,160,4|0|4,0:1|1:0|0:0,0:0:0:0:
371,261,128894,1,0,0:0:0:0:
432,315,129060,1,0,1:0:0:0:
367,265,129227,6,0,P|326:236|313:203,1,80,4|0,1:0|0:0,0:0:0:0:
228,232,129560,1,0,1:0:0:0:
228,232,129727,2,0,P|187:203|174:170,1,80,0|0,1:0|1:0,0:0:0:0:
173,156,129977,1,0,0:0:0:0:
174,134,130060,2,0,L|201:105,3,40,4|0|0|0,0:0|0:0|3:0|3:0,0:0:0:0:
135,146,130394,2,0,L|107:174,3,40,0|0|0|0,3:0|3:0|3:0|3:0,0:0:0:0:
77,202,130727,6,0,P|82:261|126:298,1,120,4|0,0:0|0:0,0:0:0:0:
166,299,131060,2,0,L|246:299,1,80,0|2,1:0|0:0,0:0:0:0:
384,384,131394,6,0,P|379:325|335:288,1,120,8|0,0:3|0:0,0:0:0:0:
334,287,131727,1,0,1:0:0:0:
246,293,131894,2,0,L|166:293,1,80,0|0,0:0|0:0,0:0:0:0:
166,205,132227,2,0,L|246:205,1,80,0|0,0:0|1:0,0:0:0:0:
335,208,132560,5,2,0:0:0:0:
335,208,132644,1,0,0:0:0:0:
335,208,132727,2,0,P|330:149|286:112,1,120,0|0,0:0|0:0,0:0:0:0:
285,111,133060,1,0,1:0:0:0:
197,117,133227,2,0,L|117:117,1,80,0|0,0:0|2:0,2:2:0:0:
117,29,133560,2,0,L|197:29,1,80,0|0,0:0|1:0,0:0:0:0:
287,31,133894,5,2,0:0:0:0:
287,31,134060,2,0,L|367:31,2,80,8|0|0,0:3|0:0|1:0,0:0:0:0:
287,122,134560,1,0,0:0:0:0:
365,169,134727,6,0,L|445:169,1,80,4|0,1:0|0:0,0:0:0:0:
190,217,135060,2,0,L|270:217,1,80,0|0,1:0|0:0,0:0:0:0:
199,130,135394,2,0,L|279:130,1,80,4|0,0:0|0:0,0:0:0:0:
14,156,135727,2,0,L|94:156,1,80,0|0,1:0|3:0,0:0:0:0:
112,164,135977,1,0,3:0:0:0:
129,172,136060,6,0,P|118:114|155:62,1,120,4|0,0:0|0:0,0:0:0:0:
186,46,136394,2,0,L|266:46,1,80,0|2,1:0|0:0,0:0:0:0:
177,236,136727,6,0,P|209:186|198:129,1,120,8|0,0:3|0:0,0:0:0:0:
198,129,137060,1,0,1:0:0:0:
293,132,137227,2,0,L|373:132,1,80,0|0,0:0|0:0,0:0:0:0:
373,220,137560,2,0,L|293:220,1,80,0|0,0:0|1:0,0:0:0:0:
204,224,137894,5,2,0:0:0:0:
204,224,138060,2,0,P|172:273|182:330,1,120,0|0,0:0|0:0,0:0:0:0:
183,330,138394,1,0,1:0:0:0:
88,327,138560,2,0,L|8:327,1,80,0|4,0:0|0:1,0:0:0:0:
8,239,138894,2,0,L|88:239,1,80,0|0,0:0|1:0,0:0:0:0:
282,239,139227,2,0,L|362:239,1,80,2|4,0:0|3:3,0:0:0:0:
512,232,139560,5,0,1:0:0:0:
423,291,139727,1,0,1:0:0:0:
437,217,139894,5,0,1:0:0:0:
497,306,140060,1,0,1:0:0:0:
437,217,142060,5,0,3:0:0:0:
437,217,142144,1,0,3:0:0:0:
437,217,142227,1,0,1:0:0:0:
497,306,142394,1,0,1:0:0:0:
512,232,142560,5,0,1:0:0:0:
423,291,142727,6,0,P|363:294|306:276,1,120,4|0,0:2|0:0,0:0:0:0:
306,276,143060,2,0,P|275:246|263:212,1,80,0|0,1:0|0:0,0:0:0:0:
130,101,143394,6,0,P|162:151|175:209,1,120,8|0,3:3|0:0,0:0:0:0:
175,209,143727,2,0,P|164:250|141:278,1,80,0|0,1:0|0:0,0:0:0:0:
39,177,144060,6,0,P|35:117|54:60,1,120,8|0,0:3|0:0,0:0:0:0:
54,61,144394,2,0,P|84:30|118:18,1,80,0|0,1:0|0:0,0:0:0:0:
205,116,144727,5,4,1:1:0:0:
116,175,144894,1,0,0:0:0:0:
130,101,145060,5,0,1:0:0:0:
190,190,145227,1,0,1:0:0:0:
237,95,145394,6,0,P|286:61|345:49,1,120,4|0,0:0|0:0,0:0:0:0:
344,49,145727,2,0,P|385:59|413:82,1,80,0|0,1:0|0:0,0:0:0:0:
345,140,146060,6,0,P|349:200|330:257,1,120,8|0,3:0|0:0,0:0:0:0:
330,256,146394,2,0,P|300:287|266:299,1,80,0|0,1:0|0:0,0:0:0:0:
251,210,146727,6,0,P|197:183|157:138,1,120,8|0,0:3|0:0,0:0:0:0:
157,139,147060,2,0,P|145:97|151:62,1,80,0|0,1:0|0:0,0:0:0:0:
49,183,147394,2,0,P|60:141|54:106,2,80,4|0|0,1:0|1:0|1:0,0:0:0:0:
49,183,147810,1,0,1:0:0:0:
49,183,147894,1,0,1:0:0:0:
49,183,147977,1,0,1:0:0:0:
64,197,148060,6,0,P|103:242|156:269,1,120,4|0,0:0|0:0,0:0:0:0:
156,269,148394,2,0,P|195:271|232:255,1,80,0|0,1:0|0:0,0:0:0:0:
336,302,148727,6,0,P|317:245|320:185,1,120,8|0,3:0|0:0,0:0:0:0:
320,185,149060,2,0,P|338:149|370:126,1,80,0|0,1:0|0:0,0:0:0:0:
179,81,149394,6,0,P|238:84|295:66,1,120,8|0,0:3|0:0,0:0:0:0:
295,66,149727,2,0,P|324:39|338:1,1,80,0|0,1:0|0:0,0:0:0:0:
451,173,150060,5,4,1:0:0:0:
392,84,150227,1,0,0:0:0:0:
377,159,150394,5,0,1:0:0:0:
466,99,150560,1,0,1:0:0:0:
472,206,150727,6,0,P|444:259|400:299,1,120,4|0,1:0|0:0,0:0:0:0:
400,298,151060,2,0,P|362:310|323:304,1,80,4|0,0:0|0:0,0:0:0:0:
224,209,151394,6,0,P|170:236|130:280,1,120,0|0,1:0|0:0,0:0:0:0:
131,280,151727,2,0,P|119:317|125:357,1,80,4|0,0:0|0:0,0:0:0:0:
314,223,152060,6,0,P|317:163|299:106,1,120,4|0,1:0|0:0,0:0:0:0:
299,106,152394,2,0,P|272:76|234:62,1,80,4|0,1:0|1:0,0:0:0:0:
101,131,152727,1,8,1:3:0:0:
101,131,152810,1,0,3:0:0:0:
101,131,152894,1,0,3:0:0:0:
101,131,152977,1,0,3:0:0:0:
101,131,153060,2,0,P|130:104|144:66,1,80,0|0,1:0|3:0,0:0:0:0:
220,152,153394,6,0,L|239:239,1,80,4|0,1:0|0:0,0:0:0:0:
299,306,153727,5,0,3:0:0:0:
299,306,153810,1,0,3:0:0:0:
299,306,153894,2,0,L|318:393,1,80,4|0,1:0|0:0,0:0:0:0:
388,296,154227,5,0,3:0:0:0:
392,293,154310,1,0,3:0:0:0:
396,290,154394,2,0,L|415:203,1,80,4|0,1:0|0:0,0:0:0:0:
475,142,154727,5,0,3:0:0:0:
479,139,154810,1,0,3:0:0:0:
483,136,154894,2,0,L|502:49,1,80,4|0,1:0|0:0,0:0:0:0:
500,57,155144,1,0,3:0:0:0:
500,57,155227,1,0,1:0:0:0:
397,90,155394,5,4,1:2:0:0:
216,0,155727,5,0,1:0:0:0:
229,202,156060,5,4,1:0:0:0:
256,192,156144,12,2,163227,0:0:0:0:
