osu file format v14

[General]
AudioFilename: audio.mp3
AudioLeadIn: 0
PreviewTime: 109400
Countdown: 0
SampleSet: Normal
StackLeniency: 0.7
Mode: 1
LetterboxInBreaks: 0
WidescreenStoryboard: 1

[Editor]
Bookmarks: 13400,24067,29400,34734,72067,82734,93400,104067,142734
DistanceSpacing: 0.6
BeatDivisor: 4
GridSize: 4
TimelineZoom: 1.7

[Metadata]
Title:One Room Sugar Life
TitleUnicode:ワンルームシュガーライフ
Artist:Nanawo Akari
ArtistUnicode:ナナヲアカリ
Creator:[R]
Version:Momo's Oni
Source:ハッピーシュガーライフ
Tags:Naverlyn yuki_momoiro722 blackbn blackbq happy sugar life op opening anime japanese j-pop jpop
BeatmapID:3540756
BeatmapSetID:1732205

[Difficulty]
HPDrainRate:5.5
CircleSize:2
OverallDifficulty:5.5
ApproachRate:10
SliderMultiplier:1.4
SliderTickRate:1

[Events]
//Background and Video events
0,0,"BG.jpg",0,0
//Break Periods
//Storyboard Layer 0 (Background)
//Storyboard Layer 1 (Fail)
//Storyboard Layer 2 (Pass)
//Storyboard Layer 3 (Foreground)
//Storyboard Layer 4 (Overlay)
//Storyboard Sound Samples

[TimingPoints]
1401,333.333333333333,4,1,0,80,1,0
1401,-111.111111111111,4,1,0,80,0,0
12817,-108.695652173913,4,1,0,80,0,0
12900,-106.382978723404,4,1,0,80,0,0
13067,-104.166666666667,4,1,0,80,0,0
13234,-102.040816326531,4,1,0,80,0,0
13400,-100,4,1,0,80,0,0
23567,-102.040816326531,4,1,0,80,0,0
23650,-104.166666666667,4,1,0,80,0,0
23734,-106.382978723404,4,1,0,80,0,0
23900,-108.695652173913,4,1,0,80,0,0
24067,-111.111111111111,4,1,0,80,0,0
29067,-105.263157894737,4,1,0,80,0,0
29400,-100,4,1,0,80,0,0
44567,-102.040816326531,4,1,0,80,0,0
44734,-104.166666666667,4,1,0,80,0,0
45067,-106.382978723404,4,1,0,80,0,0
45234,-108.695652173913,4,1,0,80,0,0
45400,-111.111111111111,4,1,0,80,0,0
49400,-84.7457627118644,4,1,0,80,0,0
50734,-90.9090909090909,4,1,0,80,0,1
70734,-90.9090909090909,4,1,0,80,0,0
70817,-100,4,1,0,80,0,0
103234,-102.040816326531,4,1,0,80,0,0
103400,-106.382978723404,4,1,0,80,0,0
103734,-104.166666666667,4,1,0,80,0,0
103900,-108.695652173913,4,1,0,80,0,0
104067,-111.111111111111,4,1,0,80,0,0
109484,-125,4,1,0,80,0,0
117567,-121.951219512195,4,1,0,80,0,0
117734,-119.047619047619,4,1,0,80,0,0
117900,-116.279069767442,4,1,0,80,0,0
118067,-113.636363636364,4,1,0,80,0,0
118234,-111.111111111111,4,1,0,80,0,0
118400,-108.695652173913,4,1,0,80,0,0
118567,-106.382978723404,4,1,0,80,0,0
118734,-104.166666666667,4,1,0,80,0,0
118900,-102.040816326531,4,1,0,80,0,0
119067,-100,4,1,0,80,0,0
120067,-90.9090909090909,4,1,0,80,0,1
140067,-90.9090909090909,4,1,0,80,0,0
140150,-100,4,1,0,80,0,0
156150,-100,4,1,0,75,0,0
156734,-100,4,1,0,70,0,0
157400,-100,4,1,0,65,0,0
158067,-100,4,1,0,60,0,0
158734,-100,4,1,0,55,0,0
159400,-100,4,1,0,50,0,0
160067,-100,4,1,0,45,0,0
160734,-100,4,1,0,40,0,0
161400,-100,4,1,0,35,0,0
162067,-100,4,1,0,30,0,0
162734,-100,4,1,0,25,0,0
163400,-100,4,1,0,20,0,0

[HitObjects]
160,96,1401,1,4,0:0:0:0:
352,96,1567,1,8,0:0:0:0:
160,96,1734,1,0,0:0:0:0:
352,96,1900,1,8,0:0:0:0:
352,96,2234,1,8,0:0:0:0:
160,96,2400,1,0,0:0:0:0:
160,96,2734,1,0,0:0:0:0:
352,96,2900,1,8,0:0:0:0:
160,96,3067,1,0,0:0:0:0:
352,96,3234,1,8,0:0:0:0:
352,96,3567,1,8,0:0:0:0:
352,96,3734,1,8,0:0:0:0:
160,96,3900,1,0,0:0:0:0:
160,96,4234,1,0,0:0:0:0:
352,96,4400,1,8,0:0:0:0:
160,96,4567,1,0,0:0:0:0:
352,96,4734,1,8,0:0:0:0:
160,96,4900,1,0,0:0:0:0:
352,96,5067,1,8,0:0:0:0:
352,96,5234,1,8,0:0:0:0:
160,96,5400,1,0,0:0:0:0:
352,96,5734,1,8,0:0:0:0:
160,96,6067,1,0,0:0:0:0:
160,96,6234,1,0,0:0:0:0:
160,96,6317,1,0,0:0:0:0:
352,96,6400,1,8,0:0:0:0:
160,96,6567,1,0,0:0:0:0:
352,288,6734,1,12,0:0:0:0:
160,96,6900,1,0,0:0:0:0:
160,96,7067,1,0,0:0:0:0:
352,96,7234,1,8,0:0:0:0:
160,96,7567,1,0,0:0:0:0:
352,96,7734,1,8,0:0:0:0:
160,96,7900,1,0,0:0:0:0:
352,96,8067,1,8,0:0:0:0:
352,96,8234,1,8,0:0:0:0:
160,96,8400,1,0,0:0:0:0:
160,96,8567,1,0,0:0:0:0:
160,96,8900,1,0,0:0:0:0:
352,96,9067,1,8,0:0:0:0:
160,96,9234,1,0,0:0:0:0:
352,96,9400,1,8,0:0:0:0:
352,96,9734,1,8,0:0:0:0:
160,96,9900,1,0,0:0:0:0:
352,96,10067,1,8,0:0:0:0:
352,96,10234,1,8,0:0:0:0:
160,96,10400,1,0,0:0:0:0:
352,96,10567,1,8,0:0:0:0:
160,96,10734,1,0,0:0:0:0:
352,96,10900,1,8,0:0:0:0:
352,96,11067,1,8,0:0:0:0:
352,96,11234,1,8,0:0:0:0:
352,96,11400,1,8,0:0:0:0:
352,96,12067,1,8,0:0:0:0:
352,96,12150,1,8,0:0:0:0:
160,96,12234,1,0,0:0:0:0:
160,96,12317,1,0,0:0:0:0:
352,96,12400,1,8,0:0:0:0:
160,96,12567,1,0,0:0:0:0:
352,96,12734,1,8,0:0:0:0:
160,96,12817,1,0,0:0:0:0:
352,96,12900,1,8,0:0:0:0:
352,96,13067,1,8,0:0:0:0:
352,96,13234,1,8,0:0:0:0:
160,288,13400,5,4,0:0:0:0:
352,96,13734,1,8,0:0:0:0:
160,96,13900,1,0,0:0:0:0:
352,96,14067,1,8,0:0:0:0:
352,96,14150,1,8,0:0:0:0:
160,96,14234,1,0,0:0:0:0:
352,96,14400,1,8,0:0:0:0:
160,96,14567,1,0,0:0:0:0:
352,96,14734,1,8,0:0:0:0:
352,96,15067,1,8,0:0:0:0:
160,96,15234,1,0,0:0:0:0:
352,96,15400,1,8,0:0:0:0:
160,96,15484,1,0,0:0:0:0:
352,96,15567,1,8,0:0:0:0:
352,96,15734,1,8,0:0:0:0:
160,96,15900,1,0,0:0:0:0:
352,96,16067,1,8,0:0:0:0:
352,96,16400,1,8,0:0:0:0:
160,96,16567,1,0,0:0:0:0:
352,96,16734,1,8,0:0:0:0:
160,96,16817,1,0,0:0:0:0:
160,96,16900,1,0,0:0:0:0:
352,96,17067,1,8,0:0:0:0:
160,96,17234,1,0,0:0:0:0:
160,96,17317,1,0,0:0:0:0:
352,96,17400,1,8,0:0:0:0:
160,96,17567,1,0,0:0:0:0:
352,96,17734,1,8,0:0:0:0:
352,96,17900,1,8,0:0:0:0:
160,96,17984,1,0,0:0:0:0:
352,96,18067,1,8,0:0:0:0:
352,96,18234,1,8,0:0:0:0:
160,96,18317,1,0,0:0:0:0:
352,96,18400,1,8,0:0:0:0:
352,96,18484,1,8,0:0:0:0:
160,96,18567,1,0,0:0:0:0:
352,288,18734,1,12,0:0:0:0:
160,96,18984,1,0,0:0:0:0:
352,96,19067,1,8,0:0:0:0:
160,96,19234,1,0,0:0:0:0:
352,96,19400,1,8,0:0:0:0:
160,96,19567,1,0,0:0:0:0:
160,96,19650,1,0,0:0:0:0:
352,96,19734,1,8,0:0:0:0:
352,96,19900,1,8,0:0:0:0:
160,96,20067,1,0,0:0:0:0:
160,96,20317,1,0,0:0:0:0:
352,96,20400,1,8,0:0:0:0:
160,96,20567,1,0,0:0:0:0:
352,96,20734,1,8,0:0:0:0:
160,96,20817,1,0,0:0:0:0:
352,96,20900,1,8,0:0:0:0:
160,96,21067,1,0,0:0:0:0:
352,96,21234,1,8,0:0:0:0:
160,96,21400,1,0,0:0:0:0:
160,96,21567,1,0,0:0:0:0:
352,288,21734,1,12,0:0:0:0:
352,96,22067,1,8,0:0:0:0:
352,96,22150,1,8,0:0:0:0:
160,96,22234,1,0,0:0:0:0:
352,288,22400,1,12,0:0:0:0:
160,96,22650,1,0,0:0:0:0:
160,96,22734,1,0,0:0:0:0:
352,96,22900,1,8,0:0:0:0:
352,96,23067,1,8,0:0:0:0:
160,96,23234,1,0,0:0:0:0:
160,96,23317,1,0,0:0:0:0:
352,96,23400,1,8,0:0:0:0:
352,96,23567,1,8,0:0:0:0:
352,96,23650,1,8,0:0:0:0:
352,96,23734,1,8,0:0:0:0:
160,96,23900,1,0,0:0:0:0:
352,288,24067,5,12,0:0:0:0:
160,96,24400,1,0,0:0:0:0:
352,96,24567,1,8,0:0:0:0:
160,96,24734,1,0,0:0:0:0:
352,96,24900,1,8,0:0:0:0:
352,96,25067,1,8,0:0:0:0:
160,96,25234,1,0,0:0:0:0:
352,288,25400,1,12,0:0:0:0:
352,96,25734,1,8,0:0:0:0:
352,96,25900,1,8,0:0:0:0:
352,96,25984,1,8,0:0:0:0:
160,96,26067,1,0,0:0:0:0:
160,96,26234,1,0,0:0:0:0:
160,96,26400,1,0,0:0:0:0:
352,96,26567,1,8,0:0:0:0:
160,288,26734,1,4,0:0:0:0:
160,96,27067,1,0,0:0:0:0:
352,96,27234,1,8,0:0:0:0:
160,96,27400,1,0,0:0:0:0:
352,96,27567,1,8,0:0:0:0:
352,96,27734,1,8,0:0:0:0:
352,96,27900,1,8,0:0:0:0:
160,288,28067,1,4,0:0:0:0:
352,96,28234,1,8,0:0:0:0:
352,96,28400,1,8,0:0:0:0:
160,96,28567,1,0,0:0:0:0:
352,96,28734,1,8,0:0:0:0:
352,96,28817,1,8,0:0:0:0:
160,96,28900,1,0,0:0:0:0:
352,288,29067,1,12,0:0:0:0:
352,288,29400,5,12,0:0:0:0:
352,96,29734,1,8,0:0:0:0:
352,96,29900,1,8,0:0:0:0:
352,96,29984,1,8,0:0:0:0:
160,96,30067,1,0,0:0:0:0:
352,96,30234,1,8,0:0:0:0:
160,96,30400,1,0,0:0:0:0:
160,96,30567,1,0,0:0:0:0:
160,96,30650,1,0,0:0:0:0:
352,96,30734,1,8,0:0:0:0:
160,96,30900,1,0,0:0:0:0:
352,96,31067,1,8,0:0:0:0:
160,96,31234,1,0,0:0:0:0:
160,96,31317,1,0,0:0:0:0:
160,96,31400,1,0,0:0:0:0:
160,96,31567,1,0,0:0:0:0:
352,96,31734,1,8,0:0:0:0:
352,96,31900,1,8,0:0:0:0:
160,96,31984,1,0,0:0:0:0:
352,96,32067,1,8,0:0:0:0:
352,96,32150,1,8,0:0:0:0:
160,96,32234,1,0,0:0:0:0:
352,96,32400,1,8,0:0:0:0:
352,96,32567,1,8,0:0:0:0:
352,96,32900,1,8,0:0:0:0:
352,96,32984,1,8,0:0:0:0:
160,96,33067,1,0,0:0:0:0:
352,96,33234,1,8,0:0:0:0:
160,96,33400,1,0,0:0:0:0:
352,96,33567,1,8,0:0:0:0:
160,96,33650,1,0,0:0:0:0:
352,96,33734,1,8,0:0:0:0:
352,96,33900,1,8,0:0:0:0:
160,96,34067,1,0,0:0:0:0:
352,96,34234,1,8,0:0:0:0:
352,96,34400,1,8,0:0:0:0:
352,96,34567,1,8,0:0:0:0:
160,288,34734,5,4,0:0:0:0:
352,96,35067,1,8,0:0:0:0:
160,96,35234,1,0,0:0:0:0:
352,96,35400,1,8,0:0:0:0:
352,96,35484,1,8,0:0:0:0:
160,96,35650,1,0,0:0:0:0:
352,96,35734,1,8,0:0:0:0:
160,96,35900,1,0,0:0:0:0:
352,96,36067,1,8,0:0:0:0:
352,96,36317,1,8,0:0:0:0:
352,96,36400,1,8,0:0:0:0:
160,96,36484,1,0,0:0:0:0:
352,96,36567,1,8,0:0:0:0:
352,96,36734,1,8,0:0:0:0:
160,96,36817,1,0,0:0:0:0:
160,96,36984,1,0,0:0:0:0:
352,96,37067,1,8,0:0:0:0:
352,96,37150,1,8,0:0:0:0:
160,96,37234,1,0,0:0:0:0:
352,96,37400,1,8,0:0:0:0:
160,96,37650,1,0,0:0:0:0:
352,96,37734,1,8,0:0:0:0:
160,96,37900,1,0,0:0:0:0:
352,96,38067,1,8,0:0:0:0:
160,96,38150,1,0,0:0:0:0:
160,96,38234,1,0,0:0:0:0:
352,96,38317,1,8,0:0:0:0:
160,96,38400,1,0,0:0:0:0:
352,96,38567,1,8,0:0:0:0:
352,96,38734,1,8,0:0:0:0:
160,96,38900,1,0,0:0:0:0:
352,96,39067,1,8,0:0:0:0:
160,96,39234,1,0,0:0:0:0:
352,96,39400,1,8,0:0:0:0:
160,96,39567,1,0,0:0:0:0:
160,96,39650,1,0,0:0:0:0:
352,96,39734,1,8,0:0:0:0:
352,96,39900,1,8,0:0:0:0:
160,288,40067,1,4,0:0:0:0:
352,96,40400,1,8,0:0:0:0:
160,96,40567,1,0,0:0:0:0:
352,96,40734,1,8,0:0:0:0:
160,96,40817,1,0,0:0:0:0:
160,96,40984,1,0,0:0:0:0:
352,96,41067,1,8,0:0:0:0:
352,96,41150,1,8,0:0:0:0:
160,96,41234,1,0,0:0:0:0:
352,96,41400,1,8,0:0:0:0:
160,96,41484,1,0,0:0:0:0:
160,96,41650,1,0,0:0:0:0:
352,96,41734,1,8,0:0:0:0:
160,96,41900,1,0,0:0:0:0:
160,96,41984,1,0,0:0:0:0:
352,96,42067,1,8,0:0:0:0:
160,96,42234,1,0,0:0:0:0:
352,96,42400,1,8,0:0:0:0:
352,96,42567,1,8,0:0:0:0:
160,96,42650,1,0,0:0:0:0:
352,96,42734,1,8,0:0:0:0:
352,96,42817,1,8,0:0:0:0:
160,96,42900,1,0,0:0:0:0:
352,96,43067,1,8,0:0:0:0:
160,96,43234,1,0,0:0:0:0:
160,96,43317,1,0,0:0:0:0:
352,96,43400,1,8,0:0:0:0:
160,96,43484,1,0,0:0:0:0:
352,96,43650,1,8,0:0:0:0:
352,96,43734,1,8,0:0:0:0:
160,96,43900,1,0,0:0:0:0:
160,96,43984,1,0,0:0:0:0:
352,96,44067,1,8,0:0:0:0:
352,96,44234,1,8,0:0:0:0:
160,96,44400,1,0,0:0:0:0:
160,96,44567,1,0,0:0:0:0:
352,288,44734,1,12,0:0:0:0:
352,96,45067,1,8,0:0:0:0:
352,96,45234,1,8,0:0:0:0:
160,288,45400,1,4,0:0:0:0:
160,96,45734,1,0,0:0:0:0:
352,96,45900,1,8,0:0:0:0:
352,96,45984,1,8,0:0:0:0:
160,96,46067,1,0,0:0:0:0:
352,96,46234,1,8,0:0:0:0:
160,96,46400,1,0,0:0:0:0:
352,96,46567,1,8,0:0:0:0:
160,96,46650,1,0,0:0:0:0:
352,288,46734,1,12,0:0:0:0:
160,96,47067,1,0,0:0:0:0:
352,96,47234,1,8,0:0:0:0:
160,96,47400,1,0,0:0:0:0:
352,96,47567,1,8,0:0:0:0:
352,96,47650,1,8,0:0:0:0:
352,96,47734,1,8,0:0:0:0:
160,96,47900,1,0,0:0:0:0:
352,288,48067,1,12,0:0:0:0:
228,188,49400,2,0,L|216:132,7,41.299998550568
160,288,50734,1,4,0:0:0:0:
352,96,50900,1,8,0:0:0:0:
160,96,51067,1,0,0:0:0:0:
352,96,51234,1,8,0:0:0:0:
352,96,51567,1,8,0:0:0:0:
160,96,51650,1,0,0:0:0:0:
352,96,51734,1,8,0:0:0:0:
352,96,51817,1,8,0:0:0:0:
160,96,51900,1,0,0:0:0:0:
352,96,52067,1,8,0:0:0:0:
160,96,52234,1,0,0:0:0:0:
160,96,52317,1,0,0:0:0:0:
352,96,52400,1,8,0:0:0:0:
352,96,52567,1,8,0:0:0:0:
160,96,52734,1,0,0:0:0:0:
160,96,52900,1,0,0:0:0:0:
160,96,52984,1,0,0:0:0:0:
352,96,53067,1,8,0:0:0:0:
352,96,53150,1,8,0:0:0:0:
160,96,53234,1,0,0:0:0:0:
160,96,53400,1,8,0:0:0:0:
160,96,53567,1,0,0:0:0:0:
352,96,53734,1,8,0:0:0:0:
160,96,53900,1,0,0:0:0:0:
160,96,53984,1,0,0:0:0:0:
352,96,54067,1,8,0:0:0:0:
352,96,54234,1,8,0:0:0:0:
160,96,54400,1,0,0:0:0:0:
352,96,54567,1,8,0:0:0:0:
352,96,54900,1,8,0:0:0:0:
160,96,55067,1,0,0:0:0:0:
352,96,55234,1,8,0:0:0:0:
160,96,55400,1,0,0:0:0:0:
352,96,55567,1,8,0:0:0:0:
160,96,55650,1,0,0:0:0:0:
352,96,55734,1,8,0:0:0:0:
352,96,55817,1,8,0:0:0:0:
160,96,55900,1,0,0:0:0:0:
352,288,56067,1,12,0:0:0:0:
160,96,56234,1,0,0:0:0:0:
352,96,56400,1,8,0:0:0:0:
352,96,56567,1,8,0:0:0:0:
352,96,56900,1,8,0:0:0:0:
352,96,56984,1,8,0:0:0:0:
160,96,57067,1,0,0:0:0:0:
352,96,57150,1,0,0:0:0:0:
160,96,57234,1,8,0:0:0:0:
352,96,57400,1,8,0:0:0:0:
160,96,57567,1,0,0:0:0:0:
352,96,57734,1,8,0:0:0:0:
352,96,57817,1,0,0:0:0:0:
352,96,57900,1,8,0:0:0:0:
160,96,58067,1,0,0:0:0:0:
352,96,58234,1,8,0:0:0:0:
160,96,58317,1,0,0:0:0:0:
352,96,58400,1,8,0:0:0:0:
352,96,58484,1,8,0:0:0:0:
160,96,58567,1,0,0:0:0:0:
352,96,58734,1,8,0:0:0:0:
160,96,58900,1,0,0:0:0:0:
352,288,59067,1,12,0:0:0:0:
352,96,59400,1,8,0:0:0:0:
352,96,59567,1,8,0:0:0:0:
160,288,59734,1,4,0:0:0:0:
352,96,59900,1,8,0:0:0:0:
352,96,60067,1,8,0:0:0:0:
160,96,60234,1,0,0:0:0:0:
352,96,60400,1,8,0:0:0:0:
160,96,60567,1,0,0:0:0:0:
352,96,60650,1,8,0:0:0:0:
352,96,60734,1,8,0:0:0:0:
160,96,60900,1,0,0:0:0:0:
352,96,61067,1,8,0:0:0:0:
352,96,61150,1,8,0:0:0:0:
352,96,61234,1,8,0:0:0:0:
160,96,61400,1,0,0:0:0:0:
352,288,61734,1,12,0:0:0:0:
160,96,61900,1,0,0:0:0:0:
352,96,62067,1,8,0:0:0:0:
160,96,62234,1,0,0:0:0:0:
160,96,62400,1,0,0:0:0:0:
160,96,62484,1,0,0:0:0:0:
352,96,62567,1,8,0:0:0:0:
352,96,62650,1,8,0:0:0:0:
160,96,62734,1,0,0:0:0:0:
352,96,62900,1,8,0:0:0:0:
160,96,63067,1,0,0:0:0:0:
352,96,63234,1,8,0:0:0:0:
160,96,63317,1,0,0:0:0:0:
352,96,63400,1,8,0:0:0:0:
160,96,63567,1,0,0:0:0:0:
352,96,63734,1,8,0:0:0:0:
352,96,63900,1,8,0:0:0:0:
160,96,64234,1,0,0:0:0:0:
352,96,64400,1,8,0:0:0:0:
160,96,64567,1,0,0:0:0:0:
160,96,64650,1,0,0:0:0:0:
352,96,64734,1,8,0:0:0:0:
160,96,64900,1,0,0:0:0:0:
352,96,65067,1,8,0:0:0:0:
352,96,65150,1,8,0:0:0:0:
352,96,65234,1,8,0:0:0:0:
160,96,65400,1,0,0:0:0:0:
352,96,65567,1,8,0:0:0:0:
160,96,65734,1,0,0:0:0:0:
160,96,65900,1,0,0:0:0:0:
352,96,66067,1,8,0:0:0:0:
160,96,66234,1,0,0:0:0:0:
160,96,66317,1,0,0:0:0:0:
352,96,66400,1,8,0:0:0:0:
160,96,66484,1,0,0:0:0:0:
160,96,66567,1,0,0:0:0:0:
352,96,66734,1,8,0:0:0:0:
352,288,67067,1,12,0:0:0:0:
160,96,67234,1,0,0:0:0:0:
160,96,67317,1,0,0:0:0:0:
352,96,67400,1,8,0:0:0:0:
352,96,67484,1,8,0:0:0:0:
160,96,67567,1,0,0:0:0:0:
352,96,67734,1,8,0:0:0:0:
352,96,67900,1,8,0:0:0:0:
352,96,68234,1,8,0:0:0:0:
160,96,68400,1,0,0:0:0:0:
352,96,68567,1,8,0:0:0:0:
160,96,68650,1,0,0:0:0:0:
352,96,68734,1,8,0:0:0:0:
352,96,68817,1,8,0:0:0:0:
160,96,68900,1,0,0:0:0:0:
352,96,69067,1,8,0:0:0:0:
352,96,69234,1,8,0:0:0:0:
160,288,69400,1,4,0:0:0:0:
352,96,69567,1,8,0:0:0:0:
352,96,69900,1,8,0:0:0:0:
160,96,70067,1,0,0:0:0:0:
160,96,70150,1,0,0:0:0:0:
352,96,70234,1,8,0:0:0:0:
160,96,70317,1,0,0:0:0:0:
352,96,70400,1,8,0:0:0:0:
352,96,70567,1,8,0:0:0:0:
160,288,70734,1,4,0:0:0:0:
160,288,72067,5,4,0:0:0:0:
352,96,72400,1,8,0:0:0:0:
160,96,72567,1,0,0:0:0:0:
352,96,72734,1,8,0:0:0:0:
352,96,72817,1,8,0:0:0:0:
160,96,72900,1,0,0:0:0:0:
352,96,73067,1,8,0:0:0:0:
160,96,73234,1,0,0:0:0:0:
352,96,73400,1,8,0:0:0:0:
352,96,73734,1,8,0:0:0:0:
160,96,73900,1,0,0:0:0:0:
352,96,74067,1,8,0:0:0:0:
160,96,74150,1,0,0:0:0:0:
352,96,74234,1,8,0:0:0:0:
352,96,74400,1,8,0:0:0:0:
160,96,74567,1,0,0:0:0:0:
352,96,74734,1,8,0:0:0:0:
352,96,75067,1,8,0:0:0:0:
160,96,75234,1,0,0:0:0:0:
352,96,75400,1,8,0:0:0:0:
160,96,75484,1,0,0:0:0:0:
160,96,75567,1,0,0:0:0:0:
352,96,75734,1,8,0:0:0:0:
160,96,75900,1,0,0:0:0:0:
160,96,75984,1,0,0:0:0:0:
352,96,76067,1,8,0:0:0:0:
160,96,76234,1,0,0:0:0:0:
352,96,76400,1,8,0:0:0:0:
352,96,76567,1,8,0:0:0:0:
160,96,76650,1,0,0:0:0:0:
352,96,76734,1,8,0:0:0:0:
352,96,76900,1,8,0:0:0:0:
160,96,76984,1,0,0:0:0:0:
352,96,77067,1,8,0:0:0:0:
352,96,77150,1,8,0:0:0:0:
160,96,77234,1,0,0:0:0:0:
352,288,77400,1,12,0:0:0:0:
352,96,77734,1,8,0:0:0:0:
160,96,77900,1,0,0:0:0:0:
352,96,78067,1,8,0:0:0:0:
160,96,78234,1,0,0:0:0:0:
160,96,78317,1,0,0:0:0:0:
352,96,78400,1,8,0:0:0:0:
352,96,78567,1,8,0:0:0:0:
160,96,78734,1,0,0:0:0:0:
352,96,79067,1,8,0:0:0:0:
160,96,79234,1,0,0:0:0:0:
352,96,79400,1,8,0:0:0:0:
160,96,79484,1,0,0:0:0:0:
352,96,79567,1,8,0:0:0:0:
160,96,79734,1,0,0:0:0:0:
352,96,79900,1,8,0:0:0:0:
160,96,80067,1,0,0:0:0:0:
160,96,80234,1,0,0:0:0:0:
352,288,80400,1,12,0:0:0:0:
352,96,80734,1,8,0:0:0:0:
352,96,80817,1,8,0:0:0:0:
160,96,80900,1,0,0:0:0:0:
352,288,81067,1,12,0:0:0:0:
160,96,81317,1,0,0:0:0:0:
160,96,81400,1,0,0:0:0:0:
352,96,81567,1,8,0:0:0:0:
352,96,81734,1,8,0:0:0:0:
160,96,81900,1,0,0:0:0:0:
160,96,81984,1,0,0:0:0:0:
352,96,82067,1,8,0:0:0:0:
352,96,82234,1,8,0:0:0:0:
160,96,82317,1,0,0:0:0:0:
352,96,82400,1,8,0:0:0:0:
160,96,82567,1,0,0:0:0:0:
352,288,82734,5,12,0:0:0:0:
352,96,83067,1,8,0:0:0:0:
160,96,83234,1,0,0:0:0:0:
352,96,83400,1,8,0:0:0:0:
352,96,83484,1,8,0:0:0:0:
160,96,83567,1,0,0:0:0:0:
352,96,83734,1,8,0:0:0:0:
160,96,83900,1,0,0:0:0:0:
352,96,84067,1,8,0:0:0:0:
160,96,84150,1,0,0:0:0:0:
352,96,84234,1,8,0:0:0:0:
160,96,84317,1,0,0:0:0:0:
352,96,84400,1,8,0:0:0:0:
160,96,84567,1,0,0:0:0:0:
352,96,84734,1,8,0:0:0:0:
352,96,84817,1,8,0:0:0:0:
160,96,84984,1,0,0:0:0:0:
352,96,85067,1,8,0:0:0:0:
160,96,85234,1,0,0:0:0:0:
352,96,85400,1,8,0:0:0:0:
160,96,85567,1,0,0:0:0:0:
160,96,85650,1,0,0:0:0:0:
352,96,85734,1,8,0:0:0:0:
160,96,85817,1,0,0:0:0:0:
160,96,85984,1,0,0:0:0:0:
160,96,86067,1,0,0:0:0:0:
160,96,86234,1,0,0:0:0:0:
160,96,86317,1,0,0:0:0:0:
352,96,86400,1,8,0:0:0:0:
160,96,86567,1,0,0:0:0:0:
352,96,86734,1,8,0:0:0:0:
160,96,86900,1,0,0:0:0:0:
352,96,87067,1,8,0:0:0:0:
160,96,87234,1,0,0:0:0:0:
352,96,87400,1,8,0:0:0:0:
352,96,87567,1,8,0:0:0:0:
160,96,87650,1,0,0:0:0:0:
352,96,87734,1,8,0:0:0:0:
352,96,87817,1,8,0:0:0:0:
352,96,87900,1,8,0:0:0:0:
160,288,88067,1,4,0:0:0:0:
352,96,88400,1,8,0:0:0:0:
160,96,88567,1,0,0:0:0:0:
160,96,88650,1,0,0:0:0:0:
352,96,88734,1,8,0:0:0:0:
160,96,88817,1,0,0:0:0:0:
160,96,88984,1,0,0:0:0:0:
352,96,89067,1,8,0:0:0:0:
160,96,89234,1,0,0:0:0:0:
160,96,89400,1,0,0:0:0:0:
352,96,89567,1,8,0:0:0:0:
352,96,89650,1,8,0:0:0:0:
160,96,89734,1,0,0:0:0:0:
352,96,89900,1,8,0:0:0:0:
352,96,89984,1,8,0:0:0:0:
160,96,90067,1,0,0:0:0:0:
352,96,90150,1,8,0:0:0:0:
352,96,90234,1,8,0:0:0:0:
160,96,90400,1,0,0:0:0:0:
352,96,90567,1,8,0:0:0:0:
160,96,90650,1,0,0:0:0:0:
160,96,90734,1,0,0:0:0:0:
352,96,90900,1,8,0:0:0:0:
160,96,91067,1,0,0:0:0:0:
352,96,91234,1,8,0:0:0:0:
352,96,91317,1,8,0:0:0:0:
160,96,91400,1,0,0:0:0:0:
160,96,91484,1,0,0:0:0:0:
352,96,91567,1,8,0:0:0:0:
160,96,91734,1,0,0:0:0:0:
352,96,91900,1,8,0:0:0:0:
352,96,91984,1,8,0:0:0:0:
160,96,92067,1,0,0:0:0:0:
160,96,92234,1,0,0:0:0:0:
352,96,92400,1,8,0:0:0:0:
160,96,92567,1,0,0:0:0:0:
160,96,92650,1,0,0:0:0:0:
352,96,92734,1,8,0:0:0:0:
160,96,92817,1,0,0:0:0:0:
160,96,92900,1,0,0:0:0:0:
352,96,93067,1,8,0:0:0:0:
160,96,93150,1,0,0:0:0:0:
352,96,93234,1,8,0:0:0:0:
160,288,93400,5,4,0:0:0:0:
352,96,93734,1,8,0:0:0:0:
160,96,93900,1,0,0:0:0:0:
352,96,94067,1,8,0:0:0:0:
352,96,94150,1,8,0:0:0:0:
160,96,94317,1,0,0:0:0:0:
352,96,94400,1,8,0:0:0:0:
352,96,94484,1,8,0:0:0:0:
160,96,94567,1,0,0:0:0:0:
352,96,94734,1,8,0:0:0:0:
160,96,94900,1,0,0:0:0:0:
160,96,94984,1,0,0:0:0:0:
352,96,95067,1,8,0:0:0:0:
160,96,95234,1,0,0:0:0:0:
352,96,95400,1,8,0:0:0:0:
160,96,95567,1,0,0:0:0:0:
352,96,95650,1,8,0:0:0:0:
160,96,95734,1,0,0:0:0:0:
160,96,95817,1,0,0:0:0:0:
352,96,95900,1,8,0:0:0:0:
352,96,96067,1,8,0:0:0:0:
160,96,96150,1,0,0:0:0:0:
160,96,96317,1,0,0:0:0:0:
352,96,96400,1,8,0:0:0:0:
160,96,96567,1,0,0:0:0:0:
160,96,96650,1,0,0:0:0:0:
352,96,96734,1,8,0:0:0:0:
352,96,96817,1,8,0:0:0:0:
160,96,96984,1,0,0:0:0:0:
352,96,97067,1,8,0:0:0:0:
160,96,97234,1,0,0:0:0:0:
352,96,97400,1,8,0:0:0:0:
160,96,97567,1,0,0:0:0:0:
352,96,97734,1,8,0:0:0:0:
160,96,97817,1,0,0:0:0:0:
160,96,97900,1,0,0:0:0:0:
352,96,98067,1,8,0:0:0:0:
160,96,98150,1,0,0:0:0:0:
160,96,98234,1,0,0:0:0:0:
160,96,98317,1,0,0:0:0:0:
352,96,98400,1,8,0:0:0:0:
160,96,98567,1,0,0:0:0:0:
352,288,98734,1,12,0:0:0:0:
352,96,99067,1,8,0:0:0:0:
160,96,99234,1,0,0:0:0:0:
352,96,99400,1,8,0:0:0:0:
160,96,99484,1,0,0:0:0:0:
160,96,99650,1,0,0:0:0:0:
352,96,99734,1,8,0:0:0:0:
352,96,99817,1,8,0:0:0:0:
160,96,99900,1,0,0:0:0:0:
352,96,100067,1,8,0:0:0:0:
160,96,100234,1,0,0:0:0:0:
160,96,100317,1,0,0:0:0:0:
352,96,100400,1,8,0:0:0:0:
160,96,100567,1,0,0:0:0:0:
160,96,100650,1,0,0:0:0:0:
352,96,100734,1,8,0:0:0:0:
352,96,100817,1,8,0:0:0:0:
160,96,100900,1,0,0:0:0:0:
352,96,101067,1,8,0:0:0:0:
160,96,101234,1,0,0:0:0:0:
352,96,101400,1,8,0:0:0:0:
160,96,101484,1,0,0:0:0:0:
352,96,101567,1,8,0:0:0:0:
352,96,101650,1,8,0:0:0:0:
160,96,101734,1,0,0:0:0:0:
352,96,101900,1,8,0:0:0:0:
160,96,102067,1,0,0:0:0:0:
160,96,102150,1,0,0:0:0:0:
160,96,102234,1,0,0:0:0:0:
352,288,102400,1,12,0:0:0:0:
160,96,102567,1,0,0:0:0:0:
160,96,102650,1,0,0:0:0:0:
352,96,102734,1,8,0:0:0:0:
160,96,102900,1,0,0:0:0:0:
352,96,103067,1,8,0:0:0:0:
160,96,103234,1,0,0:0:0:0:
352,288,103400,1,12,0:0:0:0:
160,96,103734,1,0,0:0:0:0:
352,96,103900,1,8,0:0:0:0:
160,288,104067,5,4,0:0:0:0:
160,96,104400,1,0,0:0:0:0:
352,96,104567,1,8,0:0:0:0:
160,96,104650,1,0,0:0:0:0:
160,96,104734,1,0,0:0:0:0:
352,96,104900,1,8,0:0:0:0:
160,96,105067,1,0,0:0:0:0:
352,96,105234,1,8,0:0:0:0:
352,96,105317,1,8,0:0:0:0:
160,288,105400,1,4,0:0:0:0:
160,96,105734,1,0,0:0:0:0:
352,96,105900,1,8,0:0:0:0:
160,96,106067,1,0,0:0:0:0:
352,96,106234,1,8,0:0:0:0:
352,96,106317,1,8,0:0:0:0:
160,96,106400,1,0,0:0:0:0:
160,96,106567,1,0,0:0:0:0:
352,288,106734,1,12,0:0:0:0:
352,96,107067,1,8,0:0:0:0:
352,96,107234,1,8,0:0:0:0:
160,96,107400,1,0,0:0:0:0:
160,96,107567,1,0,0:0:0:0:
352,96,107734,1,8,0:0:0:0:
352,96,107900,1,8,0:0:0:0:
160,96,108067,1,0,0:0:0:0:
160,96,108234,1,0,0:0:0:0:
160,96,108400,1,0,0:0:0:0:
160,96,108567,1,0,0:0:0:0:
160,96,108734,1,0,0:0:0:0:
352,288,109400,1,12,0:0:0:0:
160,96,110734,1,0,0:0:0:0:
352,96,112067,1,8,0:0:0:0:
352,96,113400,1,8,0:0:0:0:
352,288,114067,1,12,0:0:0:0:
352,96,114567,1,8,0:0:0:0:
352,96,114650,1,8,0:0:0:0:
160,288,114734,1,4,0:0:0:0:
160,96,115067,1,0,0:0:0:0:
352,96,115234,1,8,0:0:0:0:
160,96,115400,1,0,0:0:0:0:
160,96,115567,1,0,0:0:0:0:
352,96,115734,1,8,0:0:0:0:
160,96,115900,1,0,0:0:0:0:
352,96,116067,1,8,0:0:0:0:
160,96,116400,1,0,0:0:0:0:
352,96,116567,1,8,0:0:0:0:
160,96,116734,1,0,0:0:0:0:
160,96,116900,1,0,0:0:0:0:
352,96,117067,1,8,0:0:0:0:
352,96,117234,1,8,0:0:0:0:
160,96,117400,1,0,0:0:0:0:
160,96,117567,1,0,0:0:0:0:
352,96,117734,1,8,0:0:0:0:
160,96,117900,1,0,0:0:0:0:
352,96,118067,1,8,0:0:0:0:
160,96,118234,1,0,0:0:0:0:
352,288,118400,1,12,0:0:0:0:
352,96,118567,1,8,0:0:0:0:
160,96,118734,1,0,0:0:0:0:
160,96,118900,1,0,0:0:0:0:
160,96,119067,1,0,0:0:0:0:
160,288,120067,1,4,0:0:0:0:
352,96,120234,1,8,0:0:0:0:
160,96,120400,1,0,0:0:0:0:
352,96,120567,1,8,0:0:0:0:
352,96,120900,1,8,0:0:0:0:
160,96,120984,1,0,0:0:0:0:
352,96,121067,1,8,0:0:0:0:
352,96,121150,1,8,0:0:0:0:
160,96,121234,1,0,0:0:0:0:
352,96,121400,1,8,0:0:0:0:
160,96,121567,1,0,0:0:0:0:
160,96,121650,1,0,0:0:0:0:
352,96,121734,1,8,0:0:0:0:
352,96,121900,1,8,0:0:0:0:
160,96,122067,1,0,0:0:0:0:
352,96,122234,1,8,0:0:0:0:
160,96,122317,1,0,0:0:0:0:
352,96,122400,1,8,0:0:0:0:
352,96,122484,1,0,0:0:0:0:
352,96,122567,1,8,0:0:0:0:
160,96,122734,1,0,0:0:0:0:
160,96,122900,1,0,0:0:0:0:
352,96,123067,1,8,0:0:0:0:
160,96,123234,1,0,0:0:0:0:
160,96,123317,1,0,0:0:0:0:
352,96,123400,1,8,0:0:0:0:
352,96,123567,1,8,0:0:0:0:
160,96,123734,1,0,0:0:0:0:
352,96,123900,1,8,0:0:0:0:
352,96,124234,1,8,0:0:0:0:
160,96,124400,1,0,0:0:0:0:
352,96,124567,1,8,0:0:0:0:
160,96,124734,1,0,0:0:0:0:
352,96,124900,1,8,0:0:0:0:
160,96,124984,1,0,0:0:0:0:
352,96,125067,1,8,0:0:0:0:
352,96,125150,1,8,0:0:0:0:
160,96,125234,1,0,0:0:0:0:
352,288,125400,1,12,0:0:0:0:
160,96,125567,1,0,0:0:0:0:
352,96,125734,1,8,0:0:0:0:
352,96,125900,1,8,0:0:0:0:
352,96,126234,1,8,0:0:0:0:
352,96,126317,1,8,0:0:0:0:
160,96,126400,1,0,0:0:0:0:
352,96,126484,1,0,0:0:0:0:
160,96,126567,1,8,0:0:0:0:
352,96,126734,1,8,0:0:0:0:
160,96,126900,1,0,0:0:0:0:
352,96,127067,1,8,0:0:0:0:
352,96,127150,1,0,0:0:0:0:
352,96,127234,1,8,0:0:0:0:
160,96,127400,1,0,0:0:0:0:
352,96,127567,1,8,0:0:0:0:
160,96,127650,1,0,0:0:0:0:
352,96,127734,1,8,0:0:0:0:
352,96,127817,1,8,0:0:0:0:
160,96,127900,1,0,0:0:0:0:
352,96,128067,1,8,0:0:0:0:
160,96,128234,1,0,0:0:0:0:
352,288,128400,1,12,0:0:0:0:
352,96,128734,1,8,0:0:0:0:
352,96,128900,1,8,0:0:0:0:
160,288,129067,1,4,0:0:0:0:
352,96,129234,1,8,0:0:0:0:
352,96,129400,1,8,0:0:0:0:
160,96,129567,1,0,0:0:0:0:
352,96,129734,1,8,0:0:0:0:
160,96,129900,1,0,0:0:0:0:
352,96,129984,1,8,0:0:0:0:
352,96,130067,1,8,0:0:0:0:
160,96,130234,1,0,0:0:0:0:
352,96,130400,1,8,0:0:0:0:
352,96,130484,1,8,0:0:0:0:
352,96,130567,1,8,0:0:0:0:
160,96,130734,1,0,0:0:0:0:
352,288,131067,1,12,0:0:0:0:
160,96,131234,1,0,0:0:0:0:
352,96,131400,1,8,0:0:0:0:
160,96,131567,1,0,0:0:0:0:
160,96,131734,1,0,0:0:0:0:
160,96,131817,1,0,0:0:0:0:
352,96,131900,1,8,0:0:0:0:
352,96,131984,1,8,0:0:0:0:
160,96,132067,1,0,0:0:0:0:
352,96,132234,1,8,0:0:0:0:
160,96,132400,1,0,0:0:0:0:
352,96,132567,1,8,0:0:0:0:
160,96,132650,1,0,0:0:0:0:
352,96,132734,1,8,0:0:0:0:
160,96,132900,1,0,0:0:0:0:
352,96,133067,1,8,0:0:0:0:
352,96,133234,1,8,0:0:0:0:
160,96,133567,1,0,0:0:0:0:
352,96,133734,1,8,0:0:0:0:
160,96,133900,1,0,0:0:0:0:
160,96,133984,1,0,0:0:0:0:
352,96,134067,1,8,0:0:0:0:
160,96,134234,1,0,0:0:0:0:
352,96,134400,1,8,0:0:0:0:
352,96,134484,1,8,0:0:0:0:
352,96,134567,1,8,0:0:0:0:
160,96,134734,1,0,0:0:0:0:
352,96,134900,1,8,0:0:0:0:
160,96,135067,1,0,0:0:0:0:
160,96,135234,1,0,0:0:0:0:
352,96,135400,1,8,0:0:0:0:
160,96,135567,1,0,0:0:0:0:
352,96,135650,1,0,0:0:0:0:
352,96,135734,1,8,0:0:0:0:
160,96,135817,1,0,0:0:0:0:
160,96,135900,1,0,0:0:0:0:
352,96,136067,1,8,0:0:0:0:
352,288,136400,1,12,0:0:0:0:
160,96,136567,1,0,0:0:0:0:
160,96,136650,1,0,0:0:0:0:
352,96,136734,1,8,0:0:0:0:
352,96,136817,1,8,0:0:0:0:
160,96,136900,1,0,0:0:0:0:
352,96,137067,1,8,0:0:0:0:
352,96,137234,1,8,0:0:0:0:
352,96,137567,1,8,0:0:0:0:
160,96,137734,1,0,0:0:0:0:
352,96,137900,1,8,0:0:0:0:
160,96,137984,1,0,0:0:0:0:
352,96,138067,1,8,0:0:0:0:
352,96,138150,1,8,0:0:0:0:
160,96,138234,1,0,0:0:0:0:
352,96,138400,1,8,0:0:0:0:
352,96,138567,1,8,0:0:0:0:
160,288,138734,1,4,0:0:0:0:
352,96,138900,1,8,0:0:0:0:
352,96,139234,1,8,0:0:0:0:
160,96,139400,1,0,0:0:0:0:
160,96,139484,1,0,0:0:0:0:
352,96,139567,1,8,0:0:0:0:
160,96,139650,1,0,0:0:0:0:
352,96,139734,1,8,0:0:0:0:
352,96,139900,1,8,0:0:0:0:
160,288,140067,1,4,0:0:0:0:
160,96,142067,1,0,0:0:0:0:
160,96,142150,1,0,0:0:0:0:
352,96,142234,1,8,0:0:0:0:
352,96,142400,1,8,0:0:0:0:
352,96,142567,1,8,0:0:0:0:
160,288,142734,5,4,0:0:0:0:
352,96,143067,1,8,0:0:0:0:
160,96,143234,1,0,0:0:0:0:
352,96,143400,1,8,0:0:0:0:
352,96,143484,1,8,0:0:0:0:
160,96,143567,1,0,0:0:0:0:
352,96,143734,1,8,0:0:0:0:
160,96,143900,1,0,0:0:0:0:
352,96,144067,1,8,0:0:0:0:
352,96,144400,1,8,0:0:0:0:
160,96,144567,1,0,0:0:0:0:
352,96,144734,1,8,0:0:0:0:
160,96,144817,1,0,0:0:0:0:
352,96,144900,1,8,0:0:0:0:
352,96,145067,1,8,0:0:0:0:
160,96,145234,1,0,0:0:0:0:
352,96,145400,1,8,0:0:0:0:
352,96,145734,1,8,0:0:0:0:
160,96,145900,1,0,0:0:0:0:
352,96,146067,1,8,0:0:0:0:
352,96,146150,1,8,0:0:0:0:
160,96,146234,1,0,0:0:0:0:
352,96,146400,1,8,0:0:0:0:
160,96,146567,1,0,0:0:0:0:
160,96,146650,1,0,0:0:0:0:
352,96,146734,1,8,0:0:0:0:
160,96,146900,1,0,0:0:0:0:
352,96,147067,1,8,0:0:0:0:
352,96,147234,1,8,0:0:0:0:
160,96,147317,1,0,0:0:0:0:
352,96,147400,1,8,0:0:0:0:
352,96,147567,1,8,0:0:0:0:
160,96,147650,1,0,0:0:0:0:
352,96,147734,1,8,0:0:0:0:
352,96,147817,1,8,0:0:0:0:
160,96,147900,1,0,0:0:0:0:
352,288,148067,1,12,0:0:0:0:
352,96,148400,1,8,0:0:0:0:
160,96,148567,1,0,0:0:0:0:
352,96,148734,1,8,0:0:0:0:
160,96,148900,1,0,0:0:0:0:
352,96,148984,1,8,0:0:0:0:
160,96,149067,1,0,0:0:0:0:
352,96,149234,1,8,0:0:0:0:
160,96,149400,1,0,0:0:0:0:
352,96,149734,1,8,0:0:0:0:
160,96,149900,1,0,0:0:0:0:
352,96,150067,1,8,0:0:0:0:
160,96,150150,1,0,0:0:0:0:
352,96,150234,1,8,0:0:0:0:
160,96,150400,1,0,0:0:0:0:
352,96,150567,1,8,0:0:0:0:
160,96,150734,1,0,0:0:0:0:
352,96,151067,1,8,0:0:0:0:
160,96,151234,1,0,0:0:0:0:
352,96,151400,1,8,0:0:0:0:
352,96,151484,1,8,0:0:0:0:
160,96,151567,1,0,0:0:0:0:
352,96,151734,1,8,0:0:0:0:
160,96,151900,1,0,0:0:0:0:
352,96,151984,1,8,0:0:0:0:
352,96,152067,1,8,0:0:0:0:
160,96,152234,1,0,0:0:0:0:
352,288,152400,1,12,0:0:0:0:
160,96,152567,1,0,0:0:0:0:
160,96,152734,1,0,0:0:0:0:
352,96,152817,1,8,0:0:0:0:
160,96,152900,1,0,0:0:0:0:
352,288,153067,1,12,0:0:0:0:
160,96,153234,1,0,0:0:0:0:
352,288,153400,1,12,0:0:0:0:
160,96,153734,1,0,0:0:0:0:
160,96,153817,1,0,0:0:0:0:
352,288,153900,1,12,0:0:0:0:
160,96,154067,1,0,0:0:0:0:
160,96,154234,1,0,0:0:0:0:
352,288,154400,1,12,0:0:0:0:
160,96,154734,1,0,0:0:0:0:
160,96,154817,1,0,0:0:0:0:
352,288,154900,1,12,0:0:0:0:
160,96,155067,1,0,0:0:0:0:
160,96,155234,1,0,0:0:0:0:
352,288,155400,1,12,0:0:0:0:
352,288,155734,1,12,0:0:0:0:
160,288,156067,1,4,0:0:0:0:
256,192,156234,8,0,163400,0:0:0:0:
