osu file format v14

[General]
AudioFilename: audio.mp3
AudioLeadIn: 0
PreviewTime: 65986
Countdown: 0
SampleSet: Normal
StackLeniency: 0.7
Mode: 1
LetterboxInBreaks: 0
WidescreenStoryboard: 0

[Editor]
Bookmarks: 2756,12602,22448,34756,44602,54448,66756,76602,91371,101217,111063,133217,152910,162756,172602,183679
DistanceSpacing: 0.1
BeatDivisor: 4
GridSize: 32
TimelineZoom: 2.1

[Metadata]
Title:Love Me
TitleUnicode:ラブみ
Artist:Nanawo Akari
ArtistUnicode:ナナヲアカリ
Creator:gaston_2199
Version:Match!
Source:
Tags:Lovemi nanawoakari nanaoakari ANCHOR イシダレイジ Ishida Reiji イガラシ Igarashi ゆーまお Yumao 野良いぬ Nora Inu japanese pop j-pop rock j-rock female vocal
BeatmapID:3595965
BeatmapSetID:1757224

[Difficulty]
HPDrainRate:6
CircleSize:2
OverallDifficulty:6.5
ApproachRate:10
SliderMultiplier:1.4
SliderTickRate:1

[Events]
//Background and Video events
0,0,"BG.jpg",0,0
//Break Periods
//Storyboard Layer 0 (Background)
//Storyboard Layer 1 (Fail)
//Storyboard Layer 2 (Pass)
//Storyboard Layer 3 (Foreground)
//Storyboard Layer 4 (Overlay)
//Storyboard Sound Samples

[TimingPoints]
1525,307.692307692308,8,1,0,40,1,8
2756,307.692307692308,4,1,0,40,1,0
2756,-125,4,1,0,40,0,0
12063,-76.9230769230769,4,1,0,80,0,0
12599,-100,4,1,0,80,0,0
21063,-76.9230769230769,4,1,0,80,0,0
21217,-125,4,1,0,80,0,0
22448,-66.6666666666667,4,1,0,80,0,0
22756,-125,4,1,0,60,0,0
24909,-66.6666666666667,4,1,0,80,0,0
25217,-125,4,1,0,60,0,0
27371,-66.6666666666667,4,1,0,80,0,0
27679,-125,4,1,0,60,0,0
29830,-83.3333333333333,4,1,0,80,0,0
29907,-83.8564191317529,4,1,0,80,0,0
29983,-84.3758261476563,4,1,0,80,0,0
30137,-85.4373999733948,4,1,0,80,0,0
30291,-86.5103650102505,4,1,0,80,0,0
30368,-87.050773307875,4,1,0,80,0,0
30445,-87.5935826929741,4,1,0,80,0,0
30599,-88.6856445948614,4,1,0,80,0,0
30753,-89.7848082912586,4,1,0,80,0,0
30830,-90.336396930926,4,1,0,80,0,0
30907,-90.8889114144068,4,1,0,80,0,0
30983,-91.4348114877735,4,1,0,80,0,0
31060,-91.9880685821935,4,1,0,80,0,0
31214,-93.0932594879036,4,1,0,80,0,0
31368,-94.1929382405805,4,1,0,80,0,0
31522,-95.2813727385329,4,1,0,80,0,0
31599,-95.81904760681,4,1,0,80,0,0
31676,-96.3507687744608,4,1,0,80,0,0
31830,-97.3899354524481,4,1,0,80,0,0
31907,-97.8930919885335,4,1,0,80,0,0
31983,-98.3750430693577,4,1,0,80,0,0
32060,-98.8439397138289,4,1,0,80,0,0
32137,-99.2861457065464,4,1,0,80,0,0
32214,-99.6880191794454,4,1,0,80,0,0
32291,-100,4,1,0,80,0,0
32599,-94.5898471807483,4,1,0,80,0,0
32753,-92.0985120574654,4,1,0,80,0,0
32829,-90.9167651527942,4,1,0,80,0,0
32906,-89.75,4,1,0,80,0,0
33060,-87.50406239844,4,1,0,80,0,0
33214,-85.3677869372226,4,1,0,80,0,0
33368,-66.6666666666667,4,1,0,80,0,0
33525,-133.333333333333,4,1,0,80,0,0
34140,-133.333333333333,4,1,0,40,0,0
34756,-111.111111111111,4,1,0,70,0,0
42137,-105.260158431641,4,1,0,70,0,0
42291,-102.559831195513,4,1,0,70,0,0
42445,-99.994586107953,4,1,0,70,0,0
42522,-98.7594909635333,4,1,0,70,0,0
42599,-97.5545344108171,4,1,0,70,0,0
42753,-95.2307295694767,4,1,0,70,0,0
42906,-93.0291125214063,4,1,0,70,0,0
43060,-90.913565662532,4,1,0,70,0,0
43214,-88.8920974107229,4,1,0,70,0,0
43368,-86.9585687382298,4,1,0,70,0,0
43445,-86.023007777933,4,1,0,70,0,0
43522,-85.1073633766473,4,1,0,70,0,0
43676,-83.3333333333333,4,1,0,70,0,0
43983,-100,4,1,0,70,0,0
44060,-101.449275362319,4,1,0,70,0,0
44137,-102.941176470588,4,1,0,70,0,0
44214,-104.477611940299,4,1,0,70,0,0
44291,-106.060606060606,4,1,0,70,0,0
44368,-107.692307692308,4,1,0,70,0,0
44445,-109.375,4,1,0,70,0,0
44522,-111.111111111111,4,1,0,70,0,0
44599,-90.9090909090908,4,1,0,80,0,0
49063,-83.3333333333333,4,1,0,80,0,0
49140,-90.9090909090908,4,1,0,80,0,0
53214,-92.012400239083,4,1,0,80,0,0
53368,-93.1144859928256,4,1,0,80,0,0
53522,-94.2109952630054,4,1,0,80,0,0
53676,-95.2962142940697,4,1,0,80,0,0
53753,-95.8322719803403,4,1,0,80,0,0
53830,-96.3623751596345,4,1,0,80,0,0
53983,-97.3917289658906,4,1,0,80,0,0
54060,-97.8934736944845,4,1,0,80,0,0
54137,-98.3803194750936,4,1,0,80,0,0
54214,-98.8477113969791,4,1,0,80,0,0
54291,-99.2884850638596,4,1,0,80,0,0
54368,-99.6890456900382,4,1,0,80,0,0
54445,-90.9090909090909,4,1,0,80,0,0
56909,-111.111111111111,4,1,0,70,0,0
59371,-90.9090909090909,4,1,0,80,0,0
62137,-125,4,1,0,70,0,0
62291,-120.628544214707,4,1,0,70,0,0
62445,-115.392925016595,4,1,0,70,0,0
62599,-110.090249830026,4,1,0,70,0,0
62753,-104.929988616696,4,1,0,70,0,0
62907,-76.9230769230769,4,1,0,80,0,0
64294,-125,4,1,0,60,0,0
66140,-66.6666666666667,4,1,0,80,0,0
66756,-90.9090909090909,4,1,0,90,0,1
75368,-92.012400239083,4,1,0,90,0,1
75522,-93.1144859928256,4,1,0,90,0,1
75599,-93.6637567061368,4,1,0,90,0,1
75676,-94.2109952630054,4,1,0,90,0,1
75753,-94.755442266893,4,1,0,90,0,1
75830,-95.2962142940697,4,1,0,90,0,1
75907,-95.8322719803403,4,1,0,90,0,1
75983,-96.3555349205053,4,1,0,90,0,1
76060,-96.8782851323512,4,1,0,90,0,1
76137,-97.3917289658906,4,1,0,90,0,1
76214,-97.8934736944845,4,1,0,90,0,1
76291,-98.3803194750936,4,1,0,90,0,1
76368,-98.8477113969791,4,1,0,90,0,1
76445,-99.2884850638596,4,1,0,90,0,1
76522,-99.6890456900382,4,1,0,90,0,1
76602,-100,4,1,0,80,0,0
76909,-76.9230769230769,4,1,0,90,0,1
77063,-90.9090909090909,4,1,0,90,0,1
79525,-90.9090909090909,4,1,0,80,0,0
80140,-66.6666666666667,4,1,0,90,0,1
80291,-83.3333333333333,4,1,0,90,0,1
80445,-84.3752079395161,4,1,0,90,0,1
80522,-84.8948735851466,4,1,0,90,0,1
80599,-85.4128839396666,4,1,0,90,0,1
80753,-86.4409311239784,4,1,0,90,0,1
80907,-87.4519484163175,4,1,0,90,0,1
81060,-88.4290270219224,4,1,0,90,0,1
81137,-88.9056348837076,4,1,0,90,0,1
81214,-89.3683059275296,4,1,0,90,0,1
81291,-89.8126891408708,4,1,0,90,0,1
81368,-90.2319441082971,4,1,0,90,0,1
81445,-90.6131005859608,4,1,0,90,0,1
81522,-90.9090909090909,4,1,0,90,0,1
88909,-66.6666666666667,4,1,0,80,0,0
90140,-125,4,1,0,80,0,0
90903,-76.9230769230769,4,1,0,80,0,0
91365,-100,4,1,0,80,0,0
99832,-76.9230769230769,4,1,0,80,0,0
99986,-125,4,1,0,80,0,0
100909,-125,4,1,0,60,0,0
109756,-125,4,1,0,80,0,0
110602,-76.9230769230769,4,1,0,80,0,0
111063,-90.9090909090908,4,1,0,80,0,0
115525,-83.3333333333333,4,1,0,80,0,0
115576,-90.9090909090908,4,1,0,80,0,0
119676,-91.8380889183809,4,1,0,80,0,0
119829,-92.78004960783,4,1,0,80,0,0
119983,-93.7478832215674,4,1,0,80,0,0
120137,-94.7361215688959,4,1,0,80,0,0
120214,-95.2380952380952,4,1,0,80,0,0
120291,-95.7454168107921,4,1,0,80,0,0
120368,-96.2581722075393,4,1,0,80,0,0
120445,-96.7764491993567,4,1,0,80,0,0
120522,-97.3003374578178,4,1,0,80,0,0
120599,-97.8299286067718,4,1,0,80,0,0
120676,-98.365316275764,4,1,0,80,0,0
120753,-98.9065961552205,4,1,0,80,0,0
120829,-99.4467198390458,4,1,0,80,0,0
120906,-90.9090909090909,4,1,0,80,0,0
123364,-111.111111111111,4,1,0,70,0,0
125826,-90.9090909090909,4,1,0,80,0,0
128592,-125,4,1,0,70,0,0
128746,-120.628544214707,4,1,0,70,0,0
128900,-115.392925016595,4,1,0,70,0,0
129054,-110.090249830026,4,1,0,70,0,0
129208,-104.929988616696,4,1,0,70,0,0
129362,-76.9230769230769,4,1,0,80,0,0
130749,-125,4,1,0,60,0,0
132595,-66.6666666666667,4,1,0,80,0,0
133217,-90.9090909090909,4,1,0,90,0,1
141825,-92.012400239083,4,1,0,90,0,1
141979,-93.1144859928256,4,1,0,90,0,1
142056,-93.6637567061368,4,1,0,90,0,1
142133,-94.2109952630054,4,1,0,90,0,1
142210,-94.755442266893,4,1,0,90,0,1
142287,-95.2962142940697,4,1,0,90,0,1
142364,-95.8322719803403,4,1,0,90,0,1
142440,-96.3555349205053,4,1,0,90,0,1
142517,-96.8782851323512,4,1,0,90,0,1
142594,-97.3917289658906,4,1,0,90,0,1
142671,-97.8934736944845,4,1,0,90,0,1
142748,-98.3803194750936,4,1,0,90,0,1
142825,-98.8477113969791,4,1,0,90,0,1
142902,-99.2884850638596,4,1,0,90,0,1
142979,-99.6890456900382,4,1,0,90,0,1
143063,-100,4,1,0,80,0,0
143371,-76.9230769230769,4,1,0,90,0,1
143525,-90.9090909090909,4,1,0,90,0,1
145986,-90.9090909090909,4,1,0,90,0,0
146602,-66.6666666666667,4,1,0,90,0,1
146748,-83.3333333333333,4,1,0,90,0,1
146902,-84.3752079395161,4,1,0,90,0,1
146979,-84.8948735851466,4,1,0,90,0,1
147056,-85.4128839396666,4,1,0,90,0,1
147210,-86.4409311239784,4,1,0,90,0,1
147364,-87.4519484163175,4,1,0,90,0,1
147517,-88.4290270219224,4,1,0,90,0,1
147594,-88.9056348837076,4,1,0,90,0,1
147671,-89.3683059275296,4,1,0,90,0,1
147748,-89.8126891408708,4,1,0,90,0,1
147825,-90.2319441082971,4,1,0,90,0,1
147902,-90.6131005859608,4,1,0,90,0,1
147979,-90.9090909090909,4,1,0,90,0,1
150448,-83.3333333333333,4,1,0,90,0,1
150602,-90.9090909090909,4,1,0,90,0,1
150909,-83.3333333333333,4,1,0,90,0,1
151063,-90.9090909090909,4,1,0,90,0,1
151371,-83.3333333333333,4,1,0,90,0,1
151525,-83.3333333333333,4,1,0,90,0,0
151679,-90.9090909090909,4,1,0,80,0,0
152294,-125,4,1,0,80,0,0
152832,-90.9090909090909,4,1,0,80,0,0
161522,-91.8374113122472,4,1,0,80,0,0
161676,-92.7848864473772,4,1,0,80,0,0
161753,-93.2659932659933,4,1,0,80,0,0
161829,-93.7457695952349,4,1,0,80,0,0
161906,-94.2369190991359,4,1,0,80,0,0
161983,-94.7332421340629,4,1,0,80,0,0
162060,-95.2348208760228,4,1,0,80,0,0
162137,-95.7417392506567,4,1,0,80,0,0
162214,-96.2540829800542,4,1,0,80,0,0
162291,-96.7719396310788,4,1,0,80,0,0
162368,-97.2953986652617,4,1,0,80,0,0
162445,-97.8245514903235,4,1,0,80,0,0
162522,-98.3594915133868,4,1,0,80,0,0
162599,-98.900314195944,4,1,0,80,0,0
162676,-99.4471171106484,4,1,0,80,0,0
162756,-86.9565217391304,4,1,0,90,0,1
167522,-79.9999999999999,4,1,0,90,0,1
167599,-80.4023382645896,4,1,0,90,0,1
167676,-80.8087438868283,4,1,0,90,0,1
167753,-81.2192788572559,4,1,0,90,0,1
167829,-81.6285932164052,4,1,0,90,0,1
167906,-82.0475222448095,4,1,0,90,0,1
167983,-82.470773456604,4,1,0,90,0,1
168060,-82.8984140880164,4,1,0,90,0,1
168137,-83.3305127771196,4,1,0,90,0,1
168214,-83.7671396005579,4,1,0,90,0,1
168291,-84.2083661114341,4,1,0,90,0,1
168368,-84.6542653783997,4,1,0,90,0,1
168445,-85.1049120259946,4,1,0,90,0,1
168522,-85.5603822762814,4,1,0,90,0,1
168599,-86.0207539918241,4,1,0,90,0,1
168676,-86.4861067200617,4,1,0,90,0,1
168753,-79.9999999999999,4,1,0,90,0,1
168829,-80.397411595529,4,1,0,90,0,1
168906,-80.8040993299171,4,1,0,90,0,1
168983,-81.2149224166391,4,1,0,90,0,1
169060,-81.6299442527209,4,1,0,90,0,1
169137,-82.0492295377226,4,1,0,90,0,1
169214,-82.4728443073621,4,1,0,90,0,1
169291,-82.9008559681876,4,1,0,90,0,1
169368,-83.3333333333333,4,1,0,90,0,1
169445,-83.770346659402,4,1,0,90,0,1
169522,-84.2119676845131,4,1,0,90,0,1
169599,-84.6582696675614,4,1,0,90,0,1
169676,-85.1093274287295,4,1,0,90,0,1
169753,-85.5652173913043,4,1,0,90,0,1
169829,-86.0200013986991,4,1,0,90,0,1
169906,-86.485726339474,4,1,0,90,0,1
169983,-86.9565217391304,4,1,0,90,0,1
170137,-79.9999999999999,4,1,0,90,0,1
170214,-80.5374983639456,4,1,0,90,0,1
170291,-81.0822681951947,4,1,0,90,0,1
170368,-81.634458055101,4,1,0,90,0,1
170445,-82.194220579723,4,1,0,90,0,1
170522,-82.7617126204886,4,1,0,90,0,1
170599,-83.3370953907272,4,1,0,90,0,1
170676,-83.920534618357,4,1,0,90,0,1
170753,-84.5122007050313,4,1,0,90,0,1
170829,-85.1044211885113,4,1,0,90,0,1
170906,-85.7129590936527,4,1,0,90,0,1
170983,-86.3302623579478,4,1,0,90,0,1
171060,-86.9565217391304,4,1,0,90,0,1
171214,-76.9230769230768,4,1,0,90,0,1
171368,-90.9090909090909,4,1,0,90,0,1
171522,-85.0388059220278,4,1,0,90,0,1
171599,-81.7312659796571,4,1,0,90,0,1
171676,-78.465226760382,4,1,0,90,0,1
171753,-75.3003748368782,4,1,0,90,0,1
171829,-72.3043814285318,4,1,0,90,0,1
171906,-69.4115932170013,4,1,0,90,0,1
171983,-66.6666666666667,4,1,0,90,0,1
172602,-100,4,1,0,80,0,0
177832,-111.111111111111,4,1,0,70,0,0
182371,-125,4,1,0,60,0,0
183320,-66.6666666666667,4,1,0,90,0,0
183679,-90.9090909090909,4,1,0,90,0,1
192290,-92.012400239083,4,1,0,90,0,1
192444,-93.1144859928256,4,1,0,90,0,1
192521,-93.6637567061368,4,1,0,90,0,1
192598,-94.2109952630054,4,1,0,90,0,1
192675,-94.755442266893,4,1,0,90,0,1
192752,-95.2962142940697,4,1,0,90,0,1
192829,-95.8322719803403,4,1,0,90,0,1
192905,-96.3555349205053,4,1,0,90,0,1
192982,-96.8782851323512,4,1,0,90,0,1
193059,-97.3917289658906,4,1,0,90,0,1
193136,-97.8934736944845,4,1,0,90,0,1
193213,-98.3803194750936,4,1,0,90,0,1
193290,-98.8477113969791,4,1,0,90,0,1
193367,-99.2884850638596,4,1,0,90,0,1
193444,-99.6890456900382,4,1,0,90,0,1
193525,-100,4,1,0,80,0,0
193832,-76.9230769230769,4,1,0,90,0,1
193985,-90.9090909090909,4,1,0,90,0,1
196448,-90.9090909090909,4,1,0,90,0,0
197063,-66.6666666666667,4,1,0,90,0,1
197213,-83.3333333333333,4,1,0,90,0,1
197367,-84.3752079395161,4,1,0,90,0,1
197444,-84.8948735851466,4,1,0,90,0,1
197521,-85.4128839396666,4,1,0,90,0,1
197675,-86.4409311239784,4,1,0,90,0,1
197829,-87.4519484163175,4,1,0,90,0,1
197982,-88.4290270219224,4,1,0,90,0,1
198059,-88.9056348837076,4,1,0,90,0,1
198136,-89.3683059275296,4,1,0,90,0,1
198213,-89.8126891408708,4,1,0,90,0,1
198290,-90.2319441082971,4,1,0,90,0,1
198367,-90.6131005859608,4,1,0,90,0,1
198444,-90.9090909090909,4,1,0,90,0,1
205832,-66.6666666666667,4,1,0,80,0,0
207063,-125,4,1,0,80,0,0
209371,-83.3333333333333,4,1,0,80,0,0
209525,-100,4,1,0,80,0,0
210140,-66.6666666666667,4,1,0,80,0,0

[HitObjects]
256,192,2756,5,8,0:0:0:0:
256,192,2909,1,0,0:0:0:0:
256,192,2986,1,0,0:0:0:0:
256,192,3063,1,8,0:0:0:0:
256,192,3217,1,8,0:0:0:0:
256,192,3294,1,8,0:0:0:0:
256,192,3371,1,0,0:0:0:0:
256,192,3525,1,0,0:0:0:0:
256,192,3602,1,8,0:0:0:0:
256,192,3679,1,0,0:0:0:0:
256,192,3832,1,0,0:0:0:0:
256,192,3909,1,0,0:0:0:0:
256,192,3986,1,8,0:0:0:0:
256,192,4140,1,0,0:0:0:0:
256,192,4294,1,8,0:0:0:0:
256,192,4448,1,0,0:0:0:0:
256,192,4602,1,8,0:0:0:0:
256,192,4756,1,8,0:0:0:0:
256,192,4909,1,0,0:0:0:0:
256,192,5063,1,0,0:0:0:0:
256,192,5217,1,8,0:0:0:0:
256,192,5371,1,0,0:0:0:0:
256,192,5448,1,8,0:0:0:0:
256,192,5525,1,0,0:0:0:0:
256,192,5679,1,0,0:0:0:0:
256,192,5756,1,0,0:0:0:0:
256,192,5832,1,8,0:0:0:0:
256,192,5986,1,8,0:0:0:0:
256,192,6063,1,8,0:0:0:0:
256,192,6140,1,0,0:0:0:0:
256,192,6294,1,8,0:0:0:0:
256,192,6602,1,8,0:0:0:0:
256,192,6756,1,8,0:0:0:0:
256,192,6909,1,0,0:0:0:0:
256,192,6986,1,0,0:0:0:0:
256,192,7063,1,8,0:0:0:0:
256,192,7217,1,8,0:0:0:0:
256,192,7371,1,0,0:0:0:0:
256,192,7525,1,0,0:0:0:0:
256,192,7679,1,8,0:0:0:0:
256,192,7832,1,0,0:0:0:0:
256,192,7909,1,0,0:0:0:0:
256,192,7986,1,8,0:0:0:0:
256,192,8140,1,0,0:0:0:0:
256,192,8217,1,8,0:0:0:0:
256,192,8294,1,0,0:0:0:0:
256,192,8448,1,0,0:0:0:0:
256,192,8525,1,0,0:0:0:0:
256,192,8602,1,0,0:0:0:0:
256,192,8756,1,0,0:0:0:0:
256,192,8832,1,0,0:0:0:0:
256,192,8909,1,8,0:0:0:0:
256,192,9063,1,0,0:0:0:0:
256,192,9217,1,8,0:0:0:0:
256,192,9371,1,0,0:0:0:0:
256,192,9525,1,8,0:0:0:0:
256,192,9679,1,8,0:0:0:0:
256,192,9832,1,0,0:0:0:0:
256,192,9986,1,0,0:0:0:0:
256,192,10140,1,8,0:0:0:0:
256,192,10294,1,0,0:0:0:0:
256,192,10371,1,8,0:0:0:0:
256,192,10448,1,0,0:0:0:0:
256,192,10602,1,0,0:0:0:0:
256,192,10679,1,0,0:0:0:0:
256,192,10756,1,8,0:0:0:0:
256,192,10832,1,0,0:0:0:0:
256,192,10909,1,8,0:0:0:0:
256,192,10986,1,8,0:0:0:0:
256,192,11063,1,0,0:0:0:0:
256,192,11140,1,8,0:0:0:0:
256,192,11217,1,8,0:0:0:0:
256,192,11294,1,8,0:0:0:0:
256,192,12140,1,0,0:0:0:0:
256,192,12217,1,0,0:0:0:0:
256,192,12294,1,8,0:0:0:0:
256,192,12602,1,4,0:0:0:0:
256,192,12756,1,0,0:0:0:0:
256,192,12832,1,0,0:0:0:0:
256,192,12909,1,8,0:0:0:0:
256,192,13063,1,0,0:0:0:0:
256,192,13140,1,8,0:0:0:0:
256,192,13217,1,0,0:0:0:0:
256,192,13371,1,0,0:0:0:0:
256,192,13448,1,0,0:0:0:0:
256,192,13525,1,8,0:0:0:0:
256,192,13679,1,0,0:0:0:0:
256,192,13832,1,8,0:0:0:0:
256,192,13909,1,0,0:0:0:0:
256,192,13986,1,8,0:0:0:0:
256,192,14140,1,0,0:0:0:0:
256,192,14217,1,8,0:0:0:0:
256,192,14294,1,0,0:0:0:0:
256,192,14371,1,0,0:0:0:0:
256,192,14448,1,8,0:0:0:0:
256,192,14602,1,0,0:0:0:0:
256,192,14756,1,8,0:0:0:0:
256,160,14832,1,0,0:0:0:0:
256,192,14909,1,8,0:0:0:0:
256,192,15063,1,0,0:0:0:0:
256,192,15217,1,0,0:0:0:0:
256,192,15294,1,0,0:0:0:0:
256,192,15371,1,8,0:0:0:0:
256,192,15525,1,0,0:0:0:0:
256,192,15602,1,8,0:0:0:0:
256,192,15679,1,0,0:0:0:0:
256,192,15832,1,0,0:0:0:0:
256,192,15909,1,0,0:0:0:0:
256,192,15986,1,8,0:0:0:0:
256,192,16140,1,8,0:0:0:0:
256,192,16448,1,8,0:0:0:0:
256,192,16602,1,8,0:0:0:0:
256,192,16756,1,0,0:0:0:0:
256,192,16832,1,0,0:0:0:0:
256,192,16909,1,8,0:0:0:0:
256,192,17063,1,8,0:0:0:0:
256,192,17217,1,8,0:0:0:0:
256,192,17371,1,8,0:0:0:0:
256,192,17525,1,4,0:0:0:0:
255,184,17679,1,0,0:0:0:0:
255,183,17756,1,0,0:0:0:0:
256,192,17832,1,8,0:0:0:0:
256,192,17986,1,0,0:0:0:0:
256,192,18063,1,8,0:0:0:0:
256,192,18140,1,0,0:0:0:0:
256,192,18294,1,0,0:0:0:0:
256,192,18371,1,0,0:0:0:0:
256,192,18448,1,8,0:0:0:0:
256,192,18602,1,0,0:0:0:0:
256,192,18756,1,8,0:0:0:0:
256,192,18832,1,0,0:0:0:0:
256,192,18909,1,8,0:0:0:0:
256,192,19063,1,0,0:0:0:0:
256,192,19140,1,8,0:0:0:0:
256,192,19217,1,0,0:0:0:0:
256,192,19294,1,0,0:0:0:0:
256,192,19371,1,8,0:0:0:0:
256,192,19525,1,0,0:0:0:0:
256,192,19679,1,8,0:0:0:0:
256,160,19756,1,8,0:0:0:0:
256,192,19832,1,8,0:0:0:0:
224,128,19909,1,8,0:0:0:0:
256,192,19986,1,0,0:0:0:0:
256,192,20140,1,8,0:0:0:0:
256,192,20217,1,0,0:0:0:0:
256,192,20294,1,8,0:0:0:0:
256,192,20448,1,0,0:0:0:0:
256,192,20525,1,0,0:0:0:0:
256,192,20602,1,8,0:0:0:0:
256,160,20679,1,8,0:0:0:0:
256,192,20756,1,0,0:0:0:0:
256,192,20832,1,0,0:0:0:0:
256,192,20909,1,8,0:0:0:0:
256,192,21063,1,4,0:0:0:0:
236,225,21525,1,8,0:0:0:0:
256,192,21832,1,0,0:0:0:0:
256,192,21986,1,8,0:0:0:0:
256,160,22063,1,8,0:0:0:0:
256,192,22140,1,0,0:0:0:0:
256,160,22217,1,0,0:0:0:0:
256,192,22294,1,0,0:0:0:0:
256,192,22448,1,12,0:0:0:0:
256,128,22602,1,4,0:0:0:0:
224,160,24909,1,12,0:0:0:0:
224,160,25063,1,12,0:0:0:0:
256,192,27371,1,4,0:0:0:0:
256,192,27525,1,4,0:0:0:0:
224,192,28909,1,8,0:0:0:0:
224,192,28986,1,0,0:0:0:0:
224,192,29063,1,8,0:0:0:0:
224,192,29140,1,0,0:0:0:0:
224,192,29217,1,8,0:0:0:0:
192,160,29371,1,0,0:0:0:0:
222,138,29448,1,0,0:0:0:0:
192,160,29525,1,8,0:0:0:0:
192,160,29679,1,0,0:0:0:0:
192,160,29832,1,8,0:0:0:0:
224,160,29909,1,0,0:0:0:0:
224,192,29986,1,0,0:0:0:0:
224,192,30140,1,0,0:0:0:0:
224,192,30294,1,8,0:0:0:0:
224,160,30371,1,8,0:0:0:0:
224,192,30448,1,0,0:0:0:0:
224,128,30602,1,0,0:0:0:0:
224,192,30756,1,8,0:0:0:0:
224,128,30832,1,8,0:0:0:0:
224,192,30909,1,8,0:0:0:0:
224,96,30986,1,8,0:0:0:0:
224,192,31063,1,0,0:0:0:0:
224,192,31217,1,8,0:0:0:0:
224,192,31371,1,0,0:0:0:0:
224,128,31525,1,8,0:0:0:0:
224,128,31602,1,0,0:0:0:0:
224,192,31679,1,8,0:0:0:0:
224,192,31832,1,0,0:0:0:0:
224,192,31909,1,0,0:0:0:0:
224,192,31986,1,8,0:0:0:0:
224,192,32063,1,8,0:0:0:0:
224,192,32140,1,8,0:0:0:0:
224,192,32217,1,8,0:0:0:0:
224,192,32294,1,4,0:0:0:0:
224,192,32602,1,8,0:0:0:0:
224,192,32756,1,0,0:0:0:0:
224,192,32832,1,0,0:0:0:0:
224,192,32909,1,8,0:0:0:0:
224,192,33063,1,8,0:0:0:0:
224,192,33217,1,0,0:0:0:0:
224,192,33371,1,12,0:0:0:0:
256,192,34140,12,0,34602,0:0:0:0:
256,192,34756,5,4,0:0:0:0:
256,192,35063,1,8,0:0:0:0:
256,192,35217,1,0,0:0:0:0:
256,192,35371,1,8,0:0:0:0:
252,184,35525,1,0,0:0:0:0:
256,192,35679,1,8,0:0:0:0:
256,192,35986,1,0,0:0:0:0:
256,192,36294,1,8,0:0:0:0:
256,192,36448,1,0,0:0:0:0:
256,192,36756,1,0,0:0:0:0:
256,192,36909,1,8,0:0:0:0:
256,192,37217,1,0,0:0:0:0:
256,192,37525,1,8,0:0:0:0:
224,192,37679,1,0,0:0:0:0:
256,192,37832,1,8,0:0:0:0:
224,192,37986,1,8,0:0:0:0:
224,192,38140,1,0,0:0:0:0:
224,192,38294,1,0,0:0:0:0:
224,192,38448,1,8,0:0:0:0:
223,185,38602,1,0,0:0:0:0:
224,160,38909,1,8,0:0:0:0:
224,160,38986,1,8,0:0:0:0:
256,192,39063,1,0,0:0:0:0:
224,160,39217,1,8,0:0:0:0:
224,160,39371,1,8,0:0:0:0:
224,160,39525,1,0,0:0:0:0:
224,128,39602,1,0,0:0:0:0:
256,192,39679,1,8,0:0:0:0:
256,192,39986,1,8,0:0:0:0:
224,128,40140,1,0,0:0:0:0:
256,192,40294,1,8,0:0:0:0:
224,160,40448,1,0,0:0:0:0:
256,192,40602,1,8,0:0:0:0:
224,160,40756,1,8,0:0:0:0:
256,192,40909,1,0,0:0:0:0:
256,160,41063,1,0,0:0:0:0:
256,192,41217,1,8,0:0:0:0:
256,160,41371,1,0,0:0:0:0:
256,160,41679,1,0,0:0:0:0:
256,192,41832,1,8,0:0:0:0:
256,192,42140,1,8,0:0:0:0:
256,160,42294,1,0,0:0:0:0:
256,192,42448,1,0,0:0:0:0:
288,160,42525,1,0,0:0:0:0:
256,160,42602,1,8,0:0:0:0:
256,160,42756,1,0,0:0:0:0:
256,160,42909,1,0,0:0:0:0:
256,160,43063,1,8,0:0:0:0:
256,160,43217,1,0,0:0:0:0:
256,160,43371,1,8,0:0:0:0:
256,160,43448,1,8,0:0:0:0:
256,160,43525,1,0,0:0:0:0:
256,160,43679,1,12,0:0:0:0:
256,160,43986,1,0,0:0:0:0:
256,160,44063,1,0,0:0:0:0:
256,160,44140,1,8,0:0:0:0:
256,160,44217,1,0,0:0:0:0:
256,160,44294,1,8,0:0:0:0:
256,160,44371,1,8,0:0:0:0:
256,160,44448,1,0,0:0:0:0:
256,160,44525,1,0,0:0:0:0:
256,160,44602,1,8,0:0:0:0:
256,160,44679,1,8,0:0:0:0:
256,160,44756,1,0,0:0:0:0:
256,160,44832,1,8,0:0:0:0:
256,160,44909,1,8,0:0:0:0:
256,160,44986,1,8,0:0:0:0:
256,160,45063,1,0,0:0:0:0:
224,160,45140,1,0,0:0:0:0:
256,160,45217,1,8,0:0:0:0:
256,160,45294,1,0,0:0:0:0:
256,160,45371,1,8,0:0:0:0:
256,160,45448,1,0,0:0:0:0:
224,160,45525,1,8,0:0:0:0:
224,160,45679,1,0,0:0:0:0:
224,160,45832,1,8,0:0:0:0:
224,160,45909,1,8,0:0:0:0:
256,128,45986,1,0,0:0:0:0:
224,128,46063,1,0,0:0:0:0:
224,128,46140,1,8,0:0:0:0:
224,128,46217,1,0,0:0:0:0:
224,128,46294,1,0,0:0:0:0:
192,128,46371,1,0,0:0:0:0:
224,128,46448,1,8,0:0:0:0:
224,128,46602,1,8,0:0:0:0:
224,128,46679,1,8,0:0:0:0:
224,128,46756,1,0,0:0:0:0:
224,128,46909,1,8,0:0:0:0:
231,132,46986,1,0,0:0:0:0:
224,128,47063,1,8,0:0:0:0:
224,96,47217,1,0,0:0:0:0:
224,96,47371,1,8,0:0:0:0:
224,96,47448,1,0,0:0:0:0:
224,96,47525,1,8,0:0:0:0:
224,96,47602,1,8,0:0:0:0:
224,96,47679,1,0,0:0:0:0:
224,96,47832,1,8,0:0:0:0:
224,96,47909,1,0,0:0:0:0:
224,96,48063,1,0,0:0:0:0:
224,96,48140,1,8,0:0:0:0:
224,96,48294,1,8,0:0:0:0:
224,96,48371,1,8,0:0:0:0:
224,96,48448,1,0,0:0:0:0:
224,96,48525,1,8,0:0:0:0:
224,96,48602,1,0,0:0:0:0:
192,96,48679,1,0,0:0:0:0:
224,96,48756,1,8,0:0:0:0:
224,96,48909,1,0,0:0:0:0:
224,96,49063,1,12,0:0:0:0:
224,96,49217,1,0,0:0:0:0:
224,96,49371,1,0,0:0:0:0:
224,96,49448,1,0,0:0:0:0:
224,96,49525,1,8,0:0:0:0:
224,96,49602,1,0,0:0:0:0:
224,96,49679,1,8,0:0:0:0:
224,96,49756,1,8,0:0:0:0:
224,96,49832,1,0,0:0:0:0:
224,96,49909,1,8,0:0:0:0:
224,96,49986,1,0,0:0:0:0:
224,96,50063,1,0,0:0:0:0:
224,96,50140,1,8,0:0:0:0:
224,96,50217,1,0,0:0:0:0:
224,96,50294,1,8,0:0:0:0:
224,96,50371,1,0,0:0:0:0:
224,96,50448,1,8,0:0:0:0:
224,96,50602,1,0,0:0:0:0:
224,96,50679,1,8,0:0:0:0:
224,96,50756,1,8,0:0:0:0:
224,96,50832,1,8,0:0:0:0:
192,128,50909,1,0,0:0:0:0:
224,96,51063,1,8,0:0:0:0:
224,96,51140,1,0,0:0:0:0:
224,96,51217,1,8,0:0:0:0:
224,96,51294,1,0,0:0:0:0:
224,96,51371,1,8,0:0:0:0:
224,96,51525,1,8,0:0:0:0:
224,96,51602,1,8,0:0:0:0:
224,96,51679,1,0,0:0:0:0:
224,96,51832,1,0,0:0:0:0:
224,96,51909,1,8,0:0:0:0:
224,96,51986,1,0,0:0:0:0:
224,96,52140,1,8,0:0:0:0:
224,96,52294,1,0,0:0:0:0:
224,96,52371,1,0,0:0:0:0:
224,96,52448,1,8,0:0:0:0:
224,96,52602,1,0,0:0:0:0:
224,96,52756,1,8,0:0:0:0:
224,96,52832,1,8,0:0:0:0:
224,96,52909,1,8,0:0:0:0:
224,96,53063,1,4,0:0:0:0:
224,128,53371,1,0,0:0:0:0:
224,128,53525,1,8,0:0:0:0:
224,128,53679,1,0,0:0:0:0:
192,96,53756,1,0,0:0:0:0:
192,96,53832,1,8,0:0:0:0:
192,96,53986,1,0,0:0:0:0:
192,96,54063,1,0,0:0:0:0:
192,96,54140,1,8,0:0:0:0:
192,96,54217,1,8,0:0:0:0:
192,96,54294,1,8,0:0:0:0:
192,96,54371,1,8,0:0:0:0:
192,96,54448,1,4,0:0:0:0:
224,160,55525,1,12,0:0:0:0:
224,160,56909,1,4,0:0:0:0:
224,160,57063,1,8,0:0:0:0:
224,160,57371,1,8,0:0:0:0:
224,160,57525,1,0,0:0:0:0:
224,160,57679,1,8,0:0:0:0:
224,160,57986,1,0,0:0:0:0:
224,160,58140,1,8,0:0:0:0:
224,160,58294,1,0,0:0:0:0:
224,160,58448,1,8,0:0:0:0:
224,160,58525,1,8,0:0:0:0:
224,160,58602,1,0,0:0:0:0:
224,160,58679,1,0,0:0:0:0:
224,160,58756,1,12,0:0:0:0:
224,160,59063,1,8,0:0:0:0:
224,160,59140,1,8,0:0:0:0:
224,160,59217,1,8,0:0:0:0:
224,160,59294,1,8,0:0:0:0:
224,160,59371,1,4,0:0:0:0:
256,192,60448,1,12,0:0:0:0:
256,192,61679,1,0,0:0:0:0:
256,192,61756,1,0,0:0:0:0:
256,192,61832,1,12,0:0:0:0:
256,192,62140,1,0,0:0:0:0:
256,192,62294,1,0,0:0:0:0:
256,192,62448,1,0,0:0:0:0:
256,192,62602,1,0,0:0:0:0:
256,192,62756,1,0,0:0:0:0:
256,192,62909,1,12,0:0:0:0:
256,160,63217,1,4,0:0:0:0:
256,160,63525,1,12,0:0:0:0:
256,160,63679,1,12,0:0:0:0:
256,192,64294,1,12,0:0:0:0:
256,192,64525,1,0,0:0:0:0:
256,192,64756,1,0,0:0:0:0:
256,192,64909,1,8,0:0:0:0:
256,192,65217,1,0,0:0:0:0:
256,192,65371,1,8,0:0:0:0:
256,192,65525,1,0,0:0:0:0:
256,192,65832,1,8,0:0:0:0:
256,192,65986,1,0,0:0:0:0:
256,192,66063,1,0,0:0:0:0:
256,192,66140,1,12,0:0:0:0:
256,192,66294,1,12,0:0:0:0:
256,192,66756,1,12,0:0:0:0:
253,185,66909,1,0,0:0:0:0:
256,192,67063,1,8,0:0:0:0:
256,192,67217,1,0,0:0:0:0:
256,192,67294,1,0,0:0:0:0:
256,192,67371,1,8,0:0:0:0:
256,192,67525,1,0,0:0:0:0:
256,192,67679,1,8,0:0:0:0:
256,192,67832,1,8,0:0:0:0:
256,192,67909,1,0,0:0:0:0:
256,192,67986,1,8,0:0:0:0:
254,188,68063,1,8,0:0:0:0:
256,192,68140,1,0,0:0:0:0:
256,192,68294,1,8,0:0:0:0:
256,192,68448,1,8,0:0:0:0:
256,192,68525,1,0,0:0:0:0:
256,192,68602,1,8,0:0:0:0:
256,192,68679,1,0,0:0:0:0:
256,192,68756,1,8,0:0:0:0:
256,192,68832,1,8,0:0:0:0:
256,192,68909,1,0,0:0:0:0:
256,192,68986,1,0,0:0:0:0:
256,192,69063,1,8,0:0:0:0:
256,192,69217,1,0,0:0:0:0:
256,192,69294,1,0,0:0:0:0:
256,192,69371,1,0,0:0:0:0:
256,192,69525,1,8,0:0:0:0:
256,192,69679,1,8,0:0:0:0:
256,192,69756,1,8,0:0:0:0:
256,192,69832,1,0,0:0:0:0:
256,192,69909,1,0,0:0:0:0:
256,192,69986,1,8,0:0:0:0:
256,192,70140,1,0,0:0:0:0:
256,192,70294,1,8,0:0:0:0:
256,192,70371,1,8,0:0:0:0:
256,192,70448,1,8,0:0:0:0:
250,181,70525,1,8,0:0:0:0:
256,192,70602,1,0,0:0:0:0:
256,192,70756,1,8,0:0:0:0:
256,192,70909,1,0,0:0:0:0:
253,189,70986,1,0,0:0:0:0:
256,192,71063,1,8,0:0:0:0:
256,192,71217,1,0,0:0:0:0:
256,192,71371,1,8,0:0:0:0:
224,128,71448,1,8,0:0:0:0:
256,192,71525,1,0,0:0:0:0:
224,128,71602,1,0,0:0:0:0:
256,192,71679,1,12,0:0:0:0:
224,192,71986,1,8,0:0:0:0:
224,192,72140,1,8,0:0:0:0:
224,192,72294,1,0,0:0:0:0:
224,192,72448,1,8,0:0:0:0:
192,192,72525,1,0,0:0:0:0:
224,192,72602,1,8,0:0:0:0:
224,192,72756,1,4,0:0:0:0:
256,160,73063,1,0,0:0:0:0:
256,160,73217,1,8,0:0:0:0:
256,160,73371,1,0,0:0:0:0:
256,160,73448,1,0,0:0:0:0:
256,160,73525,1,8,0:0:0:0:
256,160,73602,1,8,0:0:0:0:
256,160,73679,1,0,0:0:0:0:
256,160,73832,1,8,0:0:0:0:
256,160,73986,1,8,0:0:0:0:
256,160,74063,1,8,0:0:0:0:
256,160,74140,1,0,0:0:0:0:
256,160,74294,1,0,0:0:0:0:
256,160,74448,1,8,0:0:0:0:
256,160,74602,1,0,0:0:0:0:
256,160,74679,1,0,0:0:0:0:
256,160,74756,1,8,0:0:0:0:
256,160,74832,1,8,0:0:0:0:
256,160,74909,1,0,0:0:0:0:
256,160,74986,1,8,0:0:0:0:
256,160,75063,1,0,0:0:0:0:
256,160,75217,1,12,0:0:0:0:
256,128,75525,1,0,0:0:0:0:
256,128,75602,1,0,0:0:0:0:
256,128,75679,1,8,0:0:0:0:
256,128,75756,1,0,0:0:0:0:
256,128,75832,1,0,0:0:0:0:
256,128,75909,1,0,0:0:0:0:
256,128,75986,1,8,0:0:0:0:
256,128,76063,1,0,0:0:0:0:
256,128,76140,1,8,0:0:0:0:
256,128,76217,1,8,0:0:0:0:
256,128,76294,1,0,0:0:0:0:
256,128,76371,1,8,0:0:0:0:
256,128,76448,1,0,0:0:0:0:
256,128,76525,1,8,0:0:0:0:
256,128,76602,1,0,0:0:0:0:
256,192,76909,1,12,0:0:0:0:
256,192,77063,1,0,0:0:0:0:
256,192,77140,1,0,0:0:0:0:
256,192,77217,1,8,0:0:0:0:
256,192,77371,1,0,0:0:0:0:
256,192,77525,1,8,0:0:0:0:
256,192,77679,1,0,0:0:0:0:
256,192,77756,1,8,0:0:0:0:
256,192,77832,1,0,0:0:0:0:
256,192,77909,1,8,0:0:0:0:
256,192,77986,1,0,0:0:0:0:
256,192,78140,1,8,0:0:0:0:
256,192,78294,1,8,0:0:0:0:
256,192,78371,1,0,0:0:0:0:
256,192,78448,1,8,0:0:0:0:
256,192,78525,1,8,0:0:0:0:
256,192,78602,1,0,0:0:0:0:
256,192,78679,1,0,0:0:0:0:
256,192,78756,1,8,0:0:0:0:
256,192,78832,1,0,0:0:0:0:
256,192,78909,1,8,0:0:0:0:
256,192,79063,1,0,0:0:0:0:
256,192,79140,1,8,0:0:0:0:
256,192,79217,1,0,0:0:0:0:
224,192,79294,1,0,0:0:0:0:
256,192,79371,1,8,0:0:0:0:
256,192,79525,1,4,0:0:0:0:
256,192,79832,1,4,0:0:0:0:
256,192,80140,1,12,0:0:0:0:
256,192,80448,1,0,0:0:0:0:
224,128,80525,1,0,0:0:0:0:
256,192,80602,1,8,0:0:0:0:
256,192,80756,1,0,0:0:0:0:
256,192,80909,1,8,0:0:0:0:
256,192,81063,1,0,0:0:0:0:
256,192,81140,1,0,0:0:0:0:
256,192,81217,1,8,0:0:0:0:
224,128,81294,1,8,0:0:0:0:
256,192,81371,1,8,0:0:0:0:
256,192,81448,1,8,0:0:0:0:
256,192,81525,1,0,0:0:0:0:
224,96,81679,1,0,0:0:0:0:
224,96,81756,1,0,0:0:0:0:
224,192,81832,1,8,0:0:0:0:
224,192,81986,1,0,0:0:0:0:
224,128,82140,1,8,0:0:0:0:
224,128,82294,1,8,0:0:0:0:
224,128,82371,1,0,0:0:0:0:
224,128,82448,1,8,0:0:0:0:
224,128,82602,1,0,0:0:0:0:
224,128,82756,1,8,0:0:0:0:
224,128,82909,1,0,0:0:0:0:
224,128,82986,1,0,0:0:0:0:
224,128,83063,1,8,0:0:0:0:
224,128,83217,1,0,0:0:0:0:
224,128,83371,1,8,0:0:0:0:
224,128,83448,1,8,0:0:0:0:
224,128,83525,1,0,0:0:0:0:
224,128,83602,1,0,0:0:0:0:
224,128,83679,1,8,0:0:0:0:
224,128,83756,1,0,0:0:0:0:
224,128,83832,1,0,0:0:0:0:
224,128,83909,1,0,0:0:0:0:
224,128,83986,1,8,0:0:0:0:
224,128,84140,1,0,0:0:0:0:
224,128,84217,1,0,0:0:0:0:
224,128,84294,1,0,0:0:0:0:
224,128,84448,1,8,0:0:0:0:
224,128,84602,1,0,0:0:0:0:
224,128,84679,1,8,0:0:0:0:
192,32,84756,1,0,0:0:0:0:
224,128,84832,1,0,0:0:0:0:
224,128,84909,1,8,0:0:0:0:
224,128,85063,1,0,0:0:0:0:
192,64,85140,1,0,0:0:0:0:
192,64,85217,1,0,0:0:0:0:
224,128,85371,1,8,0:0:0:0:
224,128,85525,1,0,0:0:0:0:
224,128,85602,1,0,0:0:0:0:
224,128,85679,1,8,0:0:0:0:
224,128,85756,1,0,0:0:0:0:
224,128,85832,1,8,0:0:0:0:
224,128,85909,1,8,0:0:0:0:
224,128,85986,1,0,0:0:0:0:
224,128,86063,1,0,0:0:0:0:
224,128,86140,1,8,0:0:0:0:
224,128,86217,1,0,0:0:0:0:
224,128,86294,1,0,0:0:0:0:
224,128,86371,1,0,0:0:0:0:
224,128,86448,1,8,0:0:0:0:
224,128,86602,1,0,0:0:0:0:
224,96,86679,1,0,0:0:0:0:
224,128,86756,1,0,0:0:0:0:
224,128,86909,1,8,0:0:0:0:
224,128,87063,1,0,0:0:0:0:
224,128,87140,1,8,0:0:0:0:
224,128,87217,1,0,0:0:0:0:
224,128,87294,1,0,0:0:0:0:
224,128,87371,1,8,0:0:0:0:
224,128,87525,1,0,0:0:0:0:
224,128,87679,1,8,0:0:0:0:
224,128,87756,1,0,0:0:0:0:
224,128,87832,1,0,0:0:0:0:
224,128,87909,1,0,0:0:0:0:
224,128,87986,1,8,0:0:0:0:
224,128,88140,1,0,0:0:0:0:
224,128,88294,1,8,0:0:0:0:
224,128,88371,1,8,0:0:0:0:
224,128,88448,1,0,0:0:0:0:
224,128,88525,1,0,0:0:0:0:
224,128,88602,1,8,0:0:0:0:
224,128,88679,1,8,0:0:0:0:
224,128,88756,1,8,0:0:0:0:
224,128,88832,1,8,0:0:0:0:
224,128,88909,1,4,0:0:0:0:
256,192,90909,1,0,0:0:0:0:
256,192,90986,1,0,0:0:0:0:
256,192,91063,1,8,0:0:0:0:
256,192,91371,1,4,0:0:0:0:
256,192,91525,1,0,0:0:0:0:
256,192,91602,1,0,0:0:0:0:
256,192,91679,1,8,0:0:0:0:
256,192,91832,1,0,0:0:0:0:
256,192,91909,1,8,0:0:0:0:
256,192,91986,1,0,0:0:0:0:
256,192,92140,1,0,0:0:0:0:
256,192,92217,1,0,0:0:0:0:
256,192,92294,1,8,0:0:0:0:
256,192,92448,1,0,0:0:0:0:
256,192,92602,1,8,0:0:0:0:
256,192,92679,1,0,0:0:0:0:
256,192,92756,1,8,0:0:0:0:
256,192,92909,1,0,0:0:0:0:
256,192,92986,1,8,0:0:0:0:
256,192,93063,1,0,0:0:0:0:
256,192,93140,1,0,0:0:0:0:
256,192,93217,1,8,0:0:0:0:
256,192,93371,1,0,0:0:0:0:
256,192,93525,1,8,0:0:0:0:
256,160,93602,1,0,0:0:0:0:
256,192,93679,1,8,0:0:0:0:
256,192,93832,1,0,0:0:0:0:
256,192,93986,1,0,0:0:0:0:
256,192,94063,1,0,0:0:0:0:
256,192,94140,1,8,0:0:0:0:
256,192,94294,1,0,0:0:0:0:
256,192,94371,1,8,0:0:0:0:
256,192,94448,1,0,0:0:0:0:
256,192,94602,1,0,0:0:0:0:
256,192,94679,1,0,0:0:0:0:
256,192,94756,1,8,0:0:0:0:
256,192,94909,1,8,0:0:0:0:
256,192,95217,1,8,0:0:0:0:
256,192,95371,1,8,0:0:0:0:
256,192,95525,1,0,0:0:0:0:
256,192,95602,1,0,0:0:0:0:
256,192,95679,1,8,0:0:0:0:
256,192,95832,1,8,0:0:0:0:
256,192,95986,1,8,0:0:0:0:
256,192,96140,1,8,0:0:0:0:
256,192,96294,1,4,0:0:0:0:
256,192,96448,1,0,0:0:0:0:
256,192,96525,1,0,0:0:0:0:
256,192,96602,1,8,0:0:0:0:
256,192,96756,1,0,0:0:0:0:
256,192,96832,1,8,0:0:0:0:
256,192,96909,1,0,0:0:0:0:
256,192,97063,1,0,0:0:0:0:
256,192,97140,1,0,0:0:0:0:
256,192,97217,1,8,0:0:0:0:
256,192,97371,1,0,0:0:0:0:
256,192,97525,1,8,0:0:0:0:
256,192,97602,1,0,0:0:0:0:
256,192,97679,1,8,0:0:0:0:
256,192,97832,1,0,0:0:0:0:
256,192,97909,1,8,0:0:0:0:
256,192,97986,1,0,0:0:0:0:
256,192,98063,1,0,0:0:0:0:
256,192,98140,1,8,0:0:0:0:
256,192,98294,1,0,0:0:0:0:
256,192,98448,1,8,0:0:0:0:
256,160,98525,1,8,0:0:0:0:
256,192,98602,1,0,0:0:0:0:
224,128,98679,1,0,0:0:0:0:
256,192,98756,1,8,0:0:0:0:
256,192,98909,1,8,0:0:0:0:
256,192,98986,1,8,0:0:0:0:
256,192,99063,1,0,0:0:0:0:
256,192,99217,1,8,0:0:0:0:
256,192,99371,1,0,0:0:0:0:
256,192,99473,1,0,0:0:0:0:
256,192,99576,1,0,0:0:0:0:
256,192,99679,1,8,0:0:0:0:
256,192,99832,1,4,0:0:0:0:
256,192,101217,1,0,0:0:0:0:
256,192,101730,1,8,0:0:0:0:
256,192,101832,1,0,0:0:0:0:
256,192,102038,1,8,0:0:0:0:
256,192,102345,1,0,0:0:0:0:
256,192,102653,1,8,0:0:0:0:
256,192,102756,1,0,0:0:0:0:
256,192,102961,1,0,0:0:0:0:
256,192,103063,1,8,0:0:0:0:
256,192,103268,1,0,0:0:0:0:
256,192,103576,1,8,0:0:0:0:
256,192,103679,1,0,0:0:0:0:
256,192,104191,1,0,0:0:0:0:
256,192,104294,1,8,0:0:0:0:
256,192,104499,1,0,0:0:0:0:
256,192,104807,1,8,0:0:0:0:
256,192,105114,1,0,0:0:0:0:
256,192,105217,1,8,0:0:0:0:
256,160,105320,1,0,0:0:0:0:
256,192,105422,1,0,0:0:0:0:
256,192,105525,1,8,0:0:0:0:
224,192,105730,1,8,0:0:0:0:
224,192,105832,1,0,0:0:0:0:
224,192,106038,1,0,0:0:0:0:
256,192,106140,1,8,0:0:0:0:
256,192,106653,1,8,0:0:0:0:
256,192,106756,1,0,0:0:0:0:
256,192,106961,1,8,0:0:0:0:
256,192,107268,1,0,0:0:0:0:
256,192,107576,1,0,0:0:0:0:
256,192,107679,1,8,0:0:0:0:
256,192,107884,1,0,0:0:0:0:
256,192,107986,1,8,0:0:0:0:
256,192,108191,1,0,0:0:0:0:
256,192,108499,1,0,0:0:0:0:
256,192,108602,1,8,0:0:0:0:
256,192,109114,1,0,0:0:0:0:
256,192,109217,1,8,0:0:0:0:
256,192,109422,1,0,0:0:0:0:
256,192,109730,1,8,0:0:0:0:
256,192,109832,12,0,110448,0:0:0:0:
256,160,110602,5,4,0:0:0:0:
256,160,110756,1,12,0:0:0:0:
256,160,111063,1,8,0:0:0:0:
256,160,111140,1,8,0:0:0:0:
256,160,111217,1,0,0:0:0:0:
224,128,111294,1,8,0:0:0:0:
256,160,111371,1,0,0:0:0:0:
256,128,111448,1,0,0:0:0:0:
256,160,111525,1,8,0:0:0:0:
224,160,111602,1,0,0:0:0:0:
256,160,111679,1,8,0:0:0:0:
256,160,111756,1,8,0:0:0:0:
256,160,111832,1,0,0:0:0:0:
256,160,111909,1,0,0:0:0:0:
224,160,111986,1,8,0:0:0:0:
224,160,112140,1,0,0:0:0:0:
224,160,112294,1,8,0:0:0:0:
224,160,112371,1,0,0:0:0:0:
256,128,112448,1,0,0:0:0:0:
224,128,112525,1,0,0:0:0:0:
224,128,112602,1,8,0:0:0:0:
224,128,112679,1,8,0:0:0:0:
256,128,112756,1,0,0:0:0:0:
224,128,112832,1,0,0:0:0:0:
224,128,112909,1,8,0:0:0:0:
224,128,113063,1,8,0:0:0:0:
224,128,113140,1,8,0:0:0:0:
224,128,113217,1,0,0:0:0:0:
224,128,113371,1,8,0:0:0:0:
231,132,113448,1,0,0:0:0:0:
224,128,113525,1,8,0:0:0:0:
224,96,113679,1,0,0:0:0:0:
224,96,113832,1,8,0:0:0:0:
224,96,113909,1,0,0:0:0:0:
224,96,113986,1,8,0:0:0:0:
224,96,114063,1,0,0:0:0:0:
224,96,114140,1,8,0:0:0:0:
224,96,114294,1,8,0:0:0:0:
224,96,114371,1,0,0:0:0:0:
224,96,114525,1,0,0:0:0:0:
224,96,114602,1,8,0:0:0:0:
224,96,114756,1,8,0:0:0:0:
224,96,114832,1,0,0:0:0:0:
224,96,114909,1,8,0:0:0:0:
224,96,114986,1,8,0:0:0:0:
254,100,115063,1,0,0:0:0:0:
254,100,115140,1,0,0:0:0:0:
224,96,115217,1,8,0:0:0:0:
224,96,115371,1,0,0:0:0:0:
224,96,115525,1,12,0:0:0:0:
224,96,115679,1,0,0:0:0:0:
224,96,115832,1,0,0:0:0:0:
224,96,115909,1,0,0:0:0:0:
224,96,115986,1,8,0:0:0:0:
224,96,116063,1,8,0:0:0:0:
224,96,116140,1,0,0:0:0:0:
224,96,116217,1,8,0:0:0:0:
224,96,116294,1,0,0:0:0:0:
224,96,116371,1,0,0:0:0:0:
224,96,116448,1,8,0:0:0:0:
224,96,116525,1,0,0:0:0:0:
224,96,116602,1,8,0:0:0:0:
224,96,116679,1,8,0:0:0:0:
224,96,116756,1,0,0:0:0:0:
224,96,116832,1,0,0:0:0:0:
224,96,116909,1,8,0:0:0:0:
224,96,117063,1,0,0:0:0:0:
224,96,117140,1,8,0:0:0:0:
224,96,117217,1,0,0:0:0:0:
224,96,117294,1,0,0:0:0:0:
224,64,117371,1,8,0:0:0:0:
192,64,117448,1,0,0:0:0:0:
224,96,117525,1,8,0:0:0:0:
224,96,117602,1,8,0:0:0:0:
224,96,117679,1,0,0:0:0:0:
224,96,117756,1,0,0:0:0:0:
224,96,117832,1,8,0:0:0:0:
224,96,117986,1,8,0:0:0:0:
224,96,118063,1,0,0:0:0:0:
224,96,118140,1,8,0:0:0:0:
224,96,118294,1,0,0:0:0:0:
224,96,118371,1,0,0:0:0:0:
224,96,118448,1,8,0:0:0:0:
224,96,118602,1,8,0:0:0:0:
224,96,118756,1,0,0:0:0:0:
224,96,118832,1,0,0:0:0:0:
224,96,118909,1,8,0:0:0:0:
224,96,119063,1,0,0:0:0:0:
224,96,119217,1,8,0:0:0:0:
224,96,119294,1,8,0:0:0:0:
224,96,119371,1,8,0:0:0:0:
224,96,119525,1,4,0:0:0:0:
224,128,119832,1,0,0:0:0:0:
224,128,119986,1,8,0:0:0:0:
224,128,120140,1,0,0:0:0:0:
192,96,120217,1,0,0:0:0:0:
192,96,120294,1,8,0:0:0:0:
192,96,120371,1,8,0:0:0:0:
192,96,120448,1,0,0:0:0:0:
192,96,120525,1,0,0:0:0:0:
192,96,120602,1,8,0:0:0:0:
192,96,120679,1,8,0:0:0:0:
192,96,120756,1,8,0:0:0:0:
192,96,120832,1,8,0:0:0:0:
192,96,120909,1,4,0:0:0:0:
224,160,121986,1,12,0:0:0:0:
224,160,123371,1,4,0:0:0:0:
224,160,123525,1,8,0:0:0:0:
224,160,123832,1,8,0:0:0:0:
224,160,123986,1,0,0:0:0:0:
224,160,124140,1,8,0:0:0:0:
224,160,124448,1,0,0:0:0:0:
224,160,124602,1,8,0:0:0:0:
224,160,124756,1,0,0:0:0:0:
224,160,124909,1,8,0:0:0:0:
224,160,124986,1,8,0:0:0:0:
224,160,125063,1,0,0:0:0:0:
224,160,125140,1,0,0:0:0:0:
224,160,125217,1,12,0:0:0:0:
224,160,125525,1,8,0:0:0:0:
224,160,125602,1,8,0:0:0:0:
224,160,125679,1,8,0:0:0:0:
224,160,125756,1,8,0:0:0:0:
224,160,125832,1,4,0:0:0:0:
256,192,126909,1,12,0:0:0:0:
256,192,128140,1,0,0:0:0:0:
256,192,128217,1,0,0:0:0:0:
256,192,128294,1,12,0:0:0:0:
256,192,128602,1,0,0:0:0:0:
256,192,128756,1,0,0:0:0:0:
256,192,128909,1,0,0:0:0:0:
256,192,129063,1,0,0:0:0:0:
256,192,129217,1,0,0:0:0:0:
256,192,129371,1,12,0:0:0:0:
256,160,129679,1,4,0:0:0:0:
256,160,129986,1,12,0:0:0:0:
256,160,130140,1,12,0:0:0:0:
256,192,130756,1,12,0:0:0:0:
256,192,131063,1,0,0:0:0:0:
256,192,131371,1,8,0:0:0:0:
267,153,131525,1,8,0:0:0:0:
256,192,131679,1,8,0:0:0:0:
256,192,131986,1,8,0:0:0:0:
251,141,132140,1,0,0:0:0:0:
256,192,132294,1,8,0:0:0:0:
256,192,132448,1,0,0:0:0:0:
256,192,132525,1,0,0:0:0:0:
256,192,132602,1,12,0:0:0:0:
256,192,132756,1,12,0:0:0:0:
256,192,133217,1,12,0:0:0:0:
252,185,133371,1,0,0:0:0:0:
256,192,133525,1,8,0:0:0:0:
256,192,133679,1,0,0:0:0:0:
256,192,133756,1,0,0:0:0:0:
256,192,133832,1,8,0:0:0:0:
256,192,133986,1,0,0:0:0:0:
256,192,134140,1,8,0:0:0:0:
256,192,134294,1,8,0:0:0:0:
256,192,134371,1,0,0:0:0:0:
256,192,134448,1,8,0:0:0:0:
256,192,134525,1,8,0:0:0:0:
256,192,134602,1,0,0:0:0:0:
256,192,134756,1,8,0:0:0:0:
256,192,134909,1,8,0:0:0:0:
256,192,134986,1,0,0:0:0:0:
256,192,135063,1,8,0:0:0:0:
256,192,135140,1,0,0:0:0:0:
256,192,135217,1,8,0:0:0:0:
256,192,135294,1,8,0:0:0:0:
256,192,135371,1,0,0:0:0:0:
256,192,135448,1,0,0:0:0:0:
256,192,135525,1,8,0:0:0:0:
256,192,135679,1,0,0:0:0:0:
256,192,135756,1,0,0:0:0:0:
256,192,135832,1,0,0:0:0:0:
256,192,135986,1,8,0:0:0:0:
256,192,136140,1,8,0:0:0:0:
256,192,136217,1,0,0:0:0:0:
255,191,136294,1,0,0:0:0:0:
254,188,136371,1,0,0:0:0:0:
256,192,136448,1,8,0:0:0:0:
256,192,136602,1,0,0:0:0:0:
256,192,136756,1,8,0:0:0:0:
256,192,136832,1,8,0:0:0:0:
256,192,136909,1,0,0:0:0:0:
250,181,136986,1,0,0:0:0:0:
256,192,137063,1,0,0:0:0:0:
256,192,137217,1,8,0:0:0:0:
256,192,137371,1,0,0:0:0:0:
254,188,137448,1,0,0:0:0:0:
256,192,137525,1,8,0:0:0:0:
256,192,137602,1,0,0:0:0:0:
256,192,137679,1,8,0:0:0:0:
256,192,137832,1,8,0:0:0:0:
256,192,137986,1,0,0:0:0:0:
256,192,138063,1,0,0:0:0:0:
256,192,138140,1,12,0:0:0:0:
224,192,138448,1,8,0:0:0:0:
224,192,138602,1,8,0:0:0:0:
224,192,138756,1,0,0:0:0:0:
224,192,138909,1,8,0:0:0:0:
192,192,138986,1,0,0:0:0:0:
224,192,139063,1,8,0:0:0:0:
224,192,139217,1,4,0:0:0:0:
256,160,139525,1,0,0:0:0:0:
256,160,139679,1,8,0:0:0:0:
256,160,139832,1,0,0:0:0:0:
256,160,139909,1,0,0:0:0:0:
256,160,139986,1,8,0:0:0:0:
256,160,140063,1,0,0:0:0:0:
256,160,140140,1,0,0:0:0:0:
256,160,140294,1,8,0:0:0:0:
256,160,140448,1,8,0:0:0:0:
256,160,140525,1,8,0:0:0:0:
256,160,140602,1,0,0:0:0:0:
256,160,140756,1,0,0:0:0:0:
256,160,140909,1,8,0:0:0:0:
256,160,141063,1,0,0:0:0:0:
256,160,141140,1,0,0:0:0:0:
256,160,141217,1,8,0:0:0:0:
256,160,141294,1,0,0:0:0:0:
256,160,141371,1,0,0:0:0:0:
256,160,141448,1,8,0:0:0:0:
256,160,141525,1,0,0:0:0:0:
256,160,141679,1,12,0:0:0:0:
256,128,141986,1,0,0:0:0:0:
256,128,142063,1,0,0:0:0:0:
256,128,142140,1,8,0:0:0:0:
256,128,142217,1,0,0:0:0:0:
256,128,142294,1,0,0:0:0:0:
256,128,142371,1,0,0:0:0:0:
256,128,142448,1,8,0:0:0:0:
256,128,142525,1,0,0:0:0:0:
256,128,142602,1,8,0:0:0:0:
256,128,142679,1,8,0:0:0:0:
256,128,142756,1,0,0:0:0:0:
256,128,142832,1,8,0:0:0:0:
256,128,142909,1,0,0:0:0:0:
256,128,142986,1,8,0:0:0:0:
256,128,143063,1,0,0:0:0:0:
256,192,143371,1,12,0:0:0:0:
256,192,143525,1,0,0:0:0:0:
256,192,143602,1,0,0:0:0:0:
256,192,143679,1,8,0:0:0:0:
256,192,143832,1,0,0:0:0:0:
256,192,143986,1,8,0:0:0:0:
256,192,144140,1,0,0:0:0:0:
256,192,144217,1,8,0:0:0:0:
256,192,144294,1,0,0:0:0:0:
256,192,144371,1,8,0:0:0:0:
256,192,144448,1,0,0:0:0:0:
256,192,144602,1,8,0:0:0:0:
256,192,144756,1,8,0:0:0:0:
256,192,144832,1,0,0:0:0:0:
256,192,144909,1,8,0:0:0:0:
256,192,144986,1,8,0:0:0:0:
256,192,145063,1,0,0:0:0:0:
256,192,145140,1,0,0:0:0:0:
256,192,145217,1,8,0:0:0:0:
256,192,145294,1,0,0:0:0:0:
256,192,145371,1,8,0:0:0:0:
256,192,145525,1,0,0:0:0:0:
256,192,145602,1,8,0:0:0:0:
256,192,145679,1,0,0:0:0:0:
224,192,145756,1,0,0:0:0:0:
256,192,145832,1,8,0:0:0:0:
256,192,145986,1,4,0:0:0:0:
256,192,146294,1,4,0:0:0:0:
256,192,146602,1,12,0:0:0:0:
256,192,146909,1,0,0:0:0:0:
224,128,146986,1,0,0:0:0:0:
256,192,147063,1,8,0:0:0:0:
256,192,147217,1,0,0:0:0:0:
256,192,147371,1,8,0:0:0:0:
256,192,147525,1,0,0:0:0:0:
256,192,147602,1,0,0:0:0:0:
256,192,147679,1,8,0:0:0:0:
224,128,147756,1,8,0:0:0:0:
256,192,147832,1,8,0:0:0:0:
256,192,147909,1,8,0:0:0:0:
256,192,147986,1,0,0:0:0:0:
224,96,148140,1,0,0:0:0:0:
224,96,148217,1,0,0:0:0:0:
224,192,148294,1,8,0:0:0:0:
224,192,148448,1,0,0:0:0:0:
224,128,148602,1,8,0:0:0:0:
224,128,148756,1,8,0:0:0:0:
224,128,148832,1,0,0:0:0:0:
224,128,148909,1,8,0:0:0:0:
224,128,149063,1,0,0:0:0:0:
224,128,149217,1,8,0:0:0:0:
224,128,149371,1,0,0:0:0:0:
224,128,149448,1,0,0:0:0:0:
224,128,149525,1,8,0:0:0:0:
224,128,149679,1,0,0:0:0:0:
224,128,149832,1,8,0:0:0:0:
224,128,149909,1,0,0:0:0:0:
224,128,149986,1,8,0:0:0:0:
224,128,150063,1,8,0:0:0:0:
224,128,150140,1,0,0:0:0:0:
224,128,150217,1,8,0:0:0:0:
224,128,150294,1,0,0:0:0:0:
224,128,150448,1,12,0:0:0:0:
224,128,150602,1,0,0:0:0:0:
224,128,150679,1,0,0:0:0:0:
224,128,150756,1,0,0:0:0:0:
224,128,150909,1,12,0:0:0:0:
224,128,151063,1,0,0:0:0:0:
224,128,151140,1,0,0:0:0:0:
192,32,151217,1,0,0:0:0:0:
224,128,151371,1,12,0:0:0:0:
256,128,151525,1,4,0:0:0:0:
256,192,152294,1,8,0:0:0:0:
256,192,152371,1,8,0:0:0:0:
256,192,152448,1,0,0:0:0:0:
256,192,152525,1,0,0:0:0:0:
256,192,152602,1,8,0:0:0:0:
256,192,152909,1,4,0:0:0:0:
256,160,153063,1,8,0:0:0:0:
256,192,153217,1,0,0:0:0:0:
256,160,153294,1,0,0:0:0:0:
256,192,153371,1,8,0:0:0:0:
256,192,153448,1,8,0:0:0:0:
256,192,153525,1,0,0:0:0:0:
256,160,153679,1,8,0:0:0:0:
256,160,153832,1,0,0:0:0:0:
256,160,153986,1,8,0:0:0:0:
256,160,154063,1,0,0:0:0:0:
256,160,154140,1,0,0:0:0:0:
256,192,154217,1,0,0:0:0:0:
256,160,154294,1,8,0:0:0:0:
256,160,154448,1,0,0:0:0:0:
256,160,154602,1,8,0:0:0:0:
256,160,154679,1,8,0:0:0:0:
256,160,154756,1,8,0:0:0:0:
242,170,154832,1,8,0:0:0:0:
256,160,154909,1,0,0:0:0:0:
250,106,154986,1,0,0:0:0:0:
256,160,155063,1,8,0:0:0:0:
256,160,155217,1,8,0:0:0:0:
256,160,155294,1,8,0:0:0:0:
256,160,155371,1,0,0:0:0:0:
256,160,155448,1,8,0:0:0:0:
256,160,155525,1,0,0:0:0:0:
256,160,155602,1,0,0:0:0:0:
256,160,155679,1,8,0:0:0:0:
256,160,155832,1,0,0:0:0:0:
256,160,155909,1,0,0:0:0:0:
256,160,155986,1,8,0:0:0:0:
256,160,156140,1,0,0:0:0:0:
256,160,156294,1,8,0:0:0:0:
256,160,156371,1,0,0:0:0:0:
256,160,156448,1,8,0:0:0:0:
256,160,156602,1,0,0:0:0:0:
256,160,156756,1,8,0:0:0:0:
256,160,156832,1,8,0:0:0:0:
256,160,156909,1,8,0:0:0:0:
256,160,156986,1,0,0:0:0:0:
262,153,157063,1,8,0:0:0:0:
256,160,157140,1,8,0:0:0:0:
247,138,157217,1,0,0:0:0:0:
247,138,157294,1,0,0:0:0:0:
256,160,157371,1,8,0:0:0:0:
256,160,157525,1,8,0:0:0:0:
256,160,157602,1,8,0:0:0:0:
192,224,157679,1,0,0:0:0:0:
192,224,157832,1,12,0:0:0:0:
247,138,157986,1,0,0:0:0:0:
256,160,158140,1,8,0:0:0:0:
256,160,158294,1,8,0:0:0:0:
256,160,158448,1,0,0:0:0:0:
256,160,158602,1,8,0:0:0:0:
256,160,158679,1,0,0:0:0:0:
256,160,158756,1,8,0:0:0:0:
256,160,158909,1,4,0:0:0:0:
256,160,159217,1,8,0:0:0:0:
256,160,159294,1,0,0:0:0:0:
256,160,159371,1,8,0:0:0:0:
256,160,159448,1,8,0:0:0:0:
256,160,159525,1,0,0:0:0:0:
256,160,159602,1,8,0:0:0:0:
256,160,159679,1,0,0:0:0:0:
256,160,159832,1,0,0:0:0:0:
256,160,159986,1,8,0:0:0:0:
256,160,160140,1,8,0:0:0:0:
256,160,160217,1,8,0:0:0:0:
256,160,160294,1,0,0:0:0:0:
256,160,160448,1,8,0:0:0:0:
256,160,160525,1,0,0:0:0:0:
256,160,160602,1,8,0:0:0:0:
256,160,160679,1,8,0:0:0:0:
256,160,160756,1,0,0:0:0:0:
256,160,160832,1,0,0:0:0:0:
256,160,160909,1,8,0:0:0:0:
256,160,160986,1,0,0:0:0:0:
256,160,161063,1,8,0:0:0:0:
256,160,161140,1,0,0:0:0:0:
256,160,161217,1,8,0:0:0:0:
256,160,161371,1,4,0:0:0:0:
256,160,161679,1,8,0:0:0:0:
256,160,161756,1,0,0:0:0:0:
256,160,161832,1,8,0:0:0:0:
256,160,161909,1,0,0:0:0:0:
256,160,161986,1,8,0:0:0:0:
256,160,162063,1,8,0:0:0:0:
256,160,162140,1,0,0:0:0:0:
256,160,162217,1,0,0:0:0:0:
256,160,162294,1,0,0:0:0:0:
256,160,162371,1,0,0:0:0:0:
264,148,162448,1,8,0:0:0:0:
256,160,162525,1,0,0:0:0:0:
264,148,162602,1,0,0:0:0:0:
256,160,162679,1,0,0:0:0:0:
256,160,162756,1,12,0:0:0:0:
256,160,162909,1,0,0:0:0:0:
256,160,163063,1,8,0:0:0:0:
256,160,163217,1,0,0:0:0:0:
256,160,163294,1,0,0:0:0:0:
256,160,163371,1,8,0:0:0:0:
253,157,163448,1,8,0:0:0:0:
256,160,163525,1,0,0:0:0:0:
253,157,163602,1,0,0:0:0:0:
256,160,163679,1,8,0:0:0:0:
256,160,163832,1,8,0:0:0:0:
256,160,163909,1,0,0:0:0:0:
256,160,163986,1,8,0:0:0:0:
224,128,164063,1,8,0:0:0:0:
256,160,164140,1,0,0:0:0:0:
256,160,164294,1,8,0:0:0:0:
256,160,164448,1,8,0:0:0:0:
256,160,164525,1,8,0:0:0:0:
256,160,164602,1,0,0:0:0:0:
256,160,164756,1,8,0:0:0:0:
224,128,164832,1,8,0:0:0:0:
256,160,164909,1,0,0:0:0:0:
224,128,164986,1,0,0:0:0:0:
224,128,165063,1,0,0:0:0:0:
224,128,165140,1,0,0:0:0:0:
256,160,165217,1,8,0:0:0:0:
256,160,165371,1,0,0:0:0:0:
256,160,165525,1,8,0:0:0:0:
256,160,165679,1,8,0:0:0:0:
224,160,165756,1,0,0:0:0:0:
256,160,165832,1,8,0:0:0:0:
256,160,165909,1,8,0:0:0:0:
224,128,165986,1,0,0:0:0:0:
256,160,166063,1,0,0:0:0:0:
256,160,166140,1,8,0:0:0:0:
256,160,166294,1,0,0:0:0:0:
256,160,166448,1,8,0:0:0:0:
256,160,166525,1,0,0:0:0:0:
256,160,166602,1,8,0:0:0:0:
256,160,166679,1,8,0:0:0:0:
256,160,166756,1,0,0:0:0:0:
224,128,166832,1,8,0:0:0:0:
224,96,166909,1,0,0:0:0:0:
224,128,166986,1,0,0:0:0:0:
264,148,167063,1,8,0:0:0:0:
256,160,167140,1,0,0:0:0:0:
256,160,167217,1,8,0:0:0:0:
256,160,167294,1,0,0:0:0:0:
256,160,167371,1,8,0:0:0:0:
256,160,167525,1,0,0:0:0:0:
256,160,167602,1,0,0:0:0:0:
256,160,167679,1,8,0:0:0:0:
256,128,167756,1,8,0:0:0:0:
256,160,167832,1,8,0:0:0:0:
256,160,167909,1,0,0:0:0:0:
256,160,167986,1,8,0:0:0:0:
264,148,168063,1,8,0:0:0:0:
256,160,168140,1,0,0:0:0:0:
256,160,168217,1,0,0:0:0:0:
256,160,168294,1,8,0:0:0:0:
256,160,168371,1,0,0:0:0:0:
256,160,168448,1,8,0:0:0:0:
256,160,168525,1,8,0:0:0:0:
256,160,168602,1,0,0:0:0:0:
256,160,168679,1,0,0:0:0:0:
256,160,168756,1,8,0:0:0:0:
224,128,168832,1,0,0:0:0:0:
256,160,168909,1,8,0:0:0:0:
249,142,168986,1,0,0:0:0:0:
264,148,169063,1,0,0:0:0:0:
256,160,169140,1,0,0:0:0:0:
256,160,169217,1,8,0:0:0:0:
256,160,169294,1,0,0:0:0:0:
256,160,169371,1,8,0:0:0:0:
256,160,169448,1,8,0:0:0:0:
256,160,169525,1,0,0:0:0:0:
256,160,169602,1,8,0:0:0:0:
256,160,169679,1,0,0:0:0:0:
256,160,169756,1,0,0:0:0:0:
256,160,169832,1,8,0:0:0:0:
264,148,169909,1,0,0:0:0:0:
256,160,169986,1,8,0:0:0:0:
256,160,170140,1,8,0:0:0:0:
264,148,170217,1,8,0:0:0:0:
224,128,170294,1,0,0:0:0:0:
224,160,170371,1,0,0:0:0:0:
256,160,170448,1,8,0:0:0:0:
264,148,170525,1,0,0:0:0:0:
256,160,170602,1,0,0:0:0:0:
256,160,170679,1,0,0:0:0:0:
256,160,170756,1,8,0:0:0:0:
256,160,170832,1,8,0:0:0:0:
264,148,170909,1,0,0:0:0:0:
256,160,170986,1,0,0:0:0:0:
264,148,171063,1,8,0:0:0:0:
256,160,171217,1,4,0:0:0:0:
256,160,171525,1,8,0:0:0:0:
256,160,171602,1,8,0:0:0:0:
256,160,171679,1,8,0:0:0:0:
256,160,171756,1,8,0:0:0:0:
256,160,171832,1,8,0:0:0:0:
256,160,171909,1,8,0:0:0:0:
256,160,171986,1,4,0:0:0:0:
256,160,172140,1,4,0:0:0:0:
256,160,172602,1,12,0:0:0:0:
256,160,173832,1,4,0:0:0:0:
256,160,175063,1,12,0:0:0:0:
256,160,176294,1,12,0:0:0:0:
256,160,176909,1,0,0:0:0:0:
256,160,177063,1,8,0:0:0:0:
256,160,177217,1,8,0:0:0:0:
256,160,177371,1,0,0:0:0:0:
256,160,177448,1,0,0:0:0:0:
256,160,177525,1,12,0:0:0:0:
256,160,177832,1,0,0:0:0:0:
256,160,177986,1,8,0:0:0:0:
256,160,178140,1,0,0:0:0:0:
256,160,178294,1,8,0:0:0:0:
256,160,178371,1,8,0:0:0:0:
256,160,178448,1,0,0:0:0:0:
256,160,178602,1,12,0:0:0:0:
256,160,178909,1,8,0:0:0:0:
256,160,179063,1,8,0:0:0:0:
256,160,179217,1,0,0:0:0:0:
256,160,179371,1,8,0:0:0:0:
256,160,179525,1,0,0:0:0:0:
224,96,179602,1,0,0:0:0:0:
256,160,179679,1,8,0:0:0:0:
256,160,179832,1,0,0:0:0:0:
256,160,179986,1,12,0:0:0:0:
256,160,180294,1,0,0:0:0:0:
256,160,180448,1,8,0:0:0:0:
256,160,180525,1,8,0:0:0:0:
256,160,180602,1,0,0:0:0:0:
256,160,180679,1,8,0:0:0:0:
256,160,180756,1,0,0:0:0:0:
256,160,180832,1,0,0:0:0:0:
256,160,180909,1,8,0:0:0:0:
256,160,181063,1,4,0:0:0:0:
256,192,181217,12,0,181832,0:0:0:0:
256,160,182448,5,12,0:0:0:0:
256,160,182756,1,0,0:0:0:0:
256,160,182909,1,0,0:0:0:0:
256,160,183063,1,8,0:0:0:0:
256,160,183217,1,0,0:0:0:0:
256,160,183294,1,0,0:0:0:0:
256,160,183371,1,12,0:0:0:0:
256,224,183679,1,12,0:0:0:0:
255,217,183832,1,0,0:0:0:0:
256,224,183986,1,8,0:0:0:0:
256,224,184140,1,0,0:0:0:0:
256,224,184217,1,0,0:0:0:0:
256,224,184294,1,8,0:0:0:0:
224,192,184371,1,0,0:0:0:0:
256,224,184448,1,0,0:0:0:0:
256,224,184602,1,8,0:0:0:0:
256,224,184756,1,8,0:0:0:0:
256,224,184832,1,0,0:0:0:0:
256,224,184909,1,8,0:0:0:0:
256,224,184986,1,8,0:0:0:0:
256,224,185063,1,0,0:0:0:0:
256,224,185217,1,8,0:0:0:0:
256,224,185371,1,8,0:0:0:0:
256,224,185448,1,0,0:0:0:0:
256,224,185525,1,8,0:0:0:0:
256,224,185602,1,0,0:0:0:0:
256,224,185679,1,8,0:0:0:0:
256,224,185756,1,8,0:0:0:0:
256,224,185832,1,0,0:0:0:0:
256,224,185909,1,0,0:0:0:0:
256,224,185986,1,8,0:0:0:0:
256,224,186140,1,0,0:0:0:0:
256,224,186217,1,0,0:0:0:0:
256,224,186294,1,0,0:0:0:0:
256,224,186448,1,8,0:0:0:0:
256,224,186602,1,8,0:0:0:0:
256,224,186679,1,8,0:0:0:0:
256,224,186756,1,0,0:0:0:0:
224,192,186832,1,0,0:0:0:0:
256,224,186909,1,8,0:0:0:0:
256,224,187063,1,0,0:0:0:0:
256,224,187217,1,8,0:0:0:0:
256,224,187294,1,8,0:0:0:0:
256,224,187371,1,8,0:0:0:0:
250,213,187448,1,8,0:0:0:0:
256,224,187525,1,0,0:0:0:0:
224,160,187602,1,0,0:0:0:0:
256,224,187679,1,8,0:0:0:0:
256,224,187832,1,0,0:0:0:0:
256,221,187909,1,0,0:0:0:0:
256,224,187986,1,8,0:0:0:0:
256,224,188140,1,0,0:0:0:0:
256,224,188294,1,8,0:0:0:0:
224,160,188371,1,8,0:0:0:0:
256,224,188448,1,0,0:0:0:0:
256,224,188525,1,0,0:0:0:0:
256,224,188602,1,12,0:0:0:0:
224,224,188909,1,8,0:0:0:0:
224,224,189063,1,8,0:0:0:0:
224,224,189217,1,0,0:0:0:0:
224,224,189371,1,8,0:0:0:0:
192,224,189448,1,0,0:0:0:0:
224,224,189525,1,8,0:0:0:0:
224,224,189679,1,4,0:0:0:0:
256,192,189986,1,0,0:0:0:0:
256,192,190140,1,8,0:0:0:0:
256,192,190294,1,0,0:0:0:0:
256,192,190371,1,0,0:0:0:0:
256,192,190448,1,8,0:0:0:0:
256,192,190525,1,8,0:0:0:0:
256,192,190602,1,0,0:0:0:0:
256,192,190756,1,8,0:0:0:0:
256,192,190909,1,8,0:0:0:0:
256,192,190986,1,8,0:0:0:0:
256,192,191063,1,0,0:0:0:0:
256,192,191217,1,0,0:0:0:0:
256,192,191371,1,8,0:0:0:0:
256,192,191525,1,0,0:0:0:0:
256,192,191602,1,0,0:0:0:0:
256,192,191679,1,8,0:0:0:0:
256,192,191756,1,8,0:0:0:0:
256,192,191832,1,0,0:0:0:0:
256,192,191909,1,8,0:0:0:0:
256,192,191986,1,0,0:0:0:0:
256,192,192140,1,12,0:0:0:0:
256,160,192448,1,0,0:0:0:0:
256,160,192525,1,0,0:0:0:0:
256,160,192602,1,8,0:0:0:0:
256,160,192679,1,0,0:0:0:0:
256,160,192756,1,0,0:0:0:0:
256,160,192832,1,0,0:0:0:0:
256,160,192909,1,8,0:0:0:0:
256,160,192986,1,0,0:0:0:0:
256,160,193063,1,8,0:0:0:0:
256,160,193140,1,8,0:0:0:0:
256,160,193217,1,0,0:0:0:0:
256,160,193294,1,8,0:0:0:0:
256,160,193371,1,0,0:0:0:0:
256,160,193448,1,8,0:0:0:0:
256,160,193525,1,0,0:0:0:0:
256,224,193832,1,12,0:0:0:0:
256,224,193986,1,0,0:0:0:0:
256,224,194063,1,0,0:0:0:0:
256,224,194140,1,8,0:0:0:0:
256,224,194294,1,0,0:0:0:0:
256,224,194448,1,8,0:0:0:0:
256,224,194602,1,0,0:0:0:0:
256,224,194679,1,8,0:0:0:0:
256,224,194756,1,0,0:0:0:0:
256,224,194832,1,8,0:0:0:0:
256,224,194909,1,0,0:0:0:0:
256,224,195063,1,8,0:0:0:0:
256,224,195217,1,8,0:0:0:0:
256,224,195294,1,0,0:0:0:0:
256,224,195371,1,8,0:0:0:0:
256,224,195448,1,8,0:0:0:0:
256,224,195525,1,0,0:0:0:0:
256,224,195602,1,0,0:0:0:0:
256,224,195679,1,8,0:0:0:0:
256,224,195756,1,0,0:0:0:0:
256,224,195832,1,8,0:0:0:0:
256,224,195986,1,0,0:0:0:0:
256,224,196063,1,8,0:0:0:0:
256,224,196140,1,0,0:0:0:0:
224,224,196217,1,0,0:0:0:0:
256,224,196294,1,8,0:0:0:0:
256,224,196448,1,4,0:0:0:0:
256,224,196756,1,4,0:0:0:0:
256,224,197063,1,12,0:0:0:0:
256,224,197371,1,0,0:0:0:0:
224,160,197448,1,0,0:0:0:0:
256,224,197525,1,8,0:0:0:0:
256,224,197679,1,0,0:0:0:0:
256,224,197832,1,8,0:0:0:0:
256,224,197986,1,0,0:0:0:0:
256,224,198063,1,0,0:0:0:0:
256,224,198140,1,8,0:0:0:0:
224,160,198217,1,8,0:0:0:0:
256,224,198294,1,8,0:0:0:0:
256,224,198371,1,8,0:0:0:0:
256,224,198448,1,0,0:0:0:0:
224,128,198602,1,0,0:0:0:0:
224,128,198679,1,0,0:0:0:0:
224,224,198756,1,8,0:0:0:0:
224,224,198909,1,0,0:0:0:0:
224,160,199063,1,8,0:0:0:0:
224,160,199217,1,8,0:0:0:0:
224,160,199294,1,0,0:0:0:0:
224,160,199371,1,8,0:0:0:0:
224,192,199448,1,8,0:0:0:0:
224,160,199525,1,0,0:0:0:0:
224,160,199679,1,8,0:0:0:0:
224,160,199832,1,0,0:0:0:0:
224,160,199909,1,0,0:0:0:0:
224,160,199986,1,8,0:0:0:0:
224,160,200140,1,0,0:0:0:0:
224,160,200294,1,8,0:0:0:0:
224,160,200371,1,8,0:0:0:0:
224,160,200448,1,0,0:0:0:0:
224,160,200525,1,0,0:0:0:0:
224,160,200602,1,8,0:0:0:0:
224,160,200679,1,0,0:0:0:0:
224,160,200756,1,0,0:0:0:0:
224,160,200832,1,0,0:0:0:0:
224,160,200909,1,8,0:0:0:0:
224,160,201063,1,0,0:0:0:0:
224,160,201140,1,0,0:0:0:0:
224,160,201217,1,0,0:0:0:0:
224,160,201371,1,8,0:0:0:0:
224,160,201525,1,0,0:0:0:0:
224,160,201602,1,8,0:0:0:0:
224,160,201679,1,0,0:0:0:0:
224,192,201756,1,0,0:0:0:0:
224,160,201832,1,8,0:0:0:0:
224,160,201986,1,0,0:0:0:0:
192,96,202063,1,0,0:0:0:0:
192,96,202140,1,0,0:0:0:0:
224,160,202294,1,8,0:0:0:0:
224,160,202448,1,0,0:0:0:0:
224,160,202525,1,0,0:0:0:0:
224,160,202602,1,8,0:0:0:0:
224,160,202679,1,0,0:0:0:0:
224,160,202756,1,8,0:0:0:0:
224,160,202832,1,8,0:0:0:0:
224,160,202909,1,0,0:0:0:0:
224,160,202986,1,0,0:0:0:0:
224,160,203063,1,8,0:0:0:0:
224,160,203140,1,0,0:0:0:0:
224,160,203217,1,0,0:0:0:0:
224,160,203294,1,0,0:0:0:0:
224,160,203371,1,8,0:0:0:0:
224,160,203525,1,0,0:0:0:0:
224,128,203602,1,0,0:0:0:0:
224,160,203679,1,0,0:0:0:0:
224,160,203832,1,8,0:0:0:0:
224,160,203986,1,0,0:0:0:0:
224,160,204063,1,8,0:0:0:0:
224,160,204140,1,0,0:0:0:0:
224,128,204217,1,0,0:0:0:0:
224,160,204294,1,8,0:0:0:0:
224,160,204448,1,0,0:0:0:0:
224,160,204602,1,8,0:0:0:0:
224,160,204679,1,0,0:0:0:0:
224,160,204756,1,0,0:0:0:0:
224,160,204832,1,0,0:0:0:0:
224,160,204909,1,8,0:0:0:0:
224,160,205063,1,0,0:0:0:0:
224,160,205217,1,8,0:0:0:0:
224,160,205294,1,8,0:0:0:0:
224,160,205371,1,0,0:0:0:0:
224,160,205448,1,0,0:0:0:0:
224,160,205525,1,8,0:0:0:0:
224,160,205602,1,8,0:0:0:0:
224,160,205679,1,8,0:0:0:0:
224,160,205756,1,8,0:0:0:0:
224,160,205832,1,4,0:0:0:0:
256,192,208909,12,0,209217,0:0:0:0:
256,192,209371,5,4,0:0:0:0:
256,192,209679,1,8,0:0:0:0:
256,192,209832,1,0,0:0:0:0:
224,128,209909,1,0,0:0:0:0:
256,192,209986,1,0,0:0:0:0:
256,192,210140,1,12,0:0:0:0:
