osu file format v14

[General]
AudioFilename: audio.mp3
AudioLeadIn: 0
PreviewTime: 65986
Countdown: 0
SampleSet: Normal
StackLeniency: 0.7
Mode: 1
LetterboxInBreaks: 0
WidescreenStoryboard: 1

[Editor]
Bookmarks: 2756,12602,22448,34756,44602,54448,66756,76602,91371,101217,111063,133217,152910,162756,172602,183679
DistanceSpacing: 0.1
BeatDivisor: 4
GridSize: 32
TimelineZoom: 1

[Metadata]
Title:Love Me
TitleUnicode:ラブみ
Artist:Nanawo Akari
ArtistUnicode:ナナヲアカリ
Creator:gaston_2199
Version:Kantan!
Source:
Tags:Lovemi nanawoakari nanaoakari ANCHOR イシダレイジ Ishida Reiji イガラシ Igarashi ゆーまお Yumao 野良いぬ Nora Inu japanese pop j-pop rock j-rock female vocal
BeatmapID:3682509
BeatmapSetID:1757224

[Difficulty]
HPDrainRate:8
CircleSize:2
OverallDifficulty:3
ApproachRate:10
SliderMultiplier:1.4
SliderTickRate:1

[Events]
//Background and Video events
0,0,"BG.jpg",0,0
//Break Periods
//Storyboard Layer 0 (Background)
//Storyboard Layer 1 (Fail)
//Storyboard Layer 2 (Pass)
//Storyboard Layer 3 (Foreground)
//Storyboard Layer 4 (Overlay)
//Storyboard Sound Samples

[TimingPoints]
1525,307.692307692308,8,1,0,40,1,8
2756,307.692307692308,4,1,0,40,1,0
12137,-100,4,1,0,80,0,0
22448,-100,4,1,0,80,0,0
22756,-100,4,1,0,60,0,0
24909,-100,4,1,0,80,0,0
25217,-100,4,1,0,60,0,0
27371,-100,4,1,0,80,0,0
27679,-100,4,1,0,60,0,0
29830,-100,4,1,0,80,0,0
34140,-100,4,1,0,40,0,0
34756,-100,4,1,0,70,0,0
42291,-100,4,1,0,70,0,0
42445,-100,4,1,0,70,0,0
42522,-100,4,1,0,70,0,0
42599,-100,4,1,0,70,0,0
42753,-100,4,1,0,70,0,0
42907,-100,4,1,0,70,0,0
43060,-100,4,1,0,70,0,0
43214,-100,4,1,0,70,0,0
43368,-100,4,1,0,70,0,0
43445,-100,4,1,0,70,0,0
43522,-100,4,1,0,70,0,0
43676,-100,4,1,0,70,0,0
43983,-100,4,1,0,70,0,0
44599,-100,4,1,0,80,0,0
56909,-100,4,1,0,70,0,0
59371,-100,4,1,0,80,0,0
62137,-100,4,1,0,70,0,0
62907,-100,4,1,0,80,0,0
64294,-100,4,1,0,60,0,0
65986,-100,4,1,0,80,0,0
66756,-100,4,1,0,90,0,1
76602,-100,4,1,0,80,0,0
76909,-100,4,1,0,90,0,1
79525,-100,4,1,0,80,0,0
80140,-100,4,1,0,90,0,1
88909,-100,4,1,0,80,0,0
101217,-100,4,1,0,60,0,0
109832,-100,4,1,0,80,0,0
123364,-100,4,1,0,70,0,0
125826,-100,4,1,0,80,0,0
128592,-100,4,1,0,70,0,0
129362,-100,4,1,0,80,0,0
130749,-100,4,1,0,60,0,0
132448,-100,4,1,0,80,0,0
133217,-100,4,1,0,90,0,1
143063,-100,4,1,0,80,0,0
143371,-100,4,1,0,90,0,1
145986,-100,4,1,0,90,0,0
146602,-100,4,1,0,90,0,1
151525,-100,4,1,0,90,0,0
151679,-100,4,1,0,80,0,0
162756,-100,4,1,0,90,0,1
171986,-100,4,1,0,90,0,1
172602,-100,4,1,0,80,0,0
177832,-100,4,1,0,70,0,0
182448,-100,4,1,0,60,0,0
183217,-100,4,1,0,90,0,0
183679,-100,4,1,0,90,0,1
193525,-100,4,1,0,80,0,0
193832,-100,4,1,0,90,0,1
193985,-100,4,1,0,90,0,1
196448,-100,4,1,0,90,0,0
197063,-100,4,1,0,90,0,1
205832,-100,4,1,0,80,0,0

[HitObjects]
256,192,2756,5,8,0:0:0:0:
256,192,3371,1,8,0:0:0:0:
256,192,3986,1,0,0:0:0:0:
256,192,4294,1,8,0:0:0:0:
256,192,4602,1,0,0:0:0:0:
256,192,5217,1,8,0:0:0:0:
256,192,5832,1,0,0:0:0:0:
256,192,6448,1,8,0:0:0:0:
233,173,7063,1,0,0:0:0:0:
251,154,7371,1,0,0:0:0:0:
256,192,7679,1,8,0:0:0:0:
256,192,8294,1,8,0:0:0:0:
256,192,8909,1,0,0:0:0:0:
256,192,9217,1,8,0:0:0:0:
256,192,9525,1,0,0:0:0:0:
256,192,10140,1,8,0:0:0:0:
256,192,10756,1,0,0:0:0:0:
256,192,12602,1,4,0:0:0:0:
256,192,13217,1,8,0:0:0:0:
256,192,13832,1,0,0:0:0:0:
266,184,14140,1,0,0:0:0:0:
256,192,14448,1,8,0:0:0:0:
248,185,14756,1,8,0:0:0:0:
256,192,15063,1,0,0:0:0:0:
266,184,15679,1,0,0:0:0:0:
256,192,16140,1,8,0:0:0:0:
256,192,16909,1,8,0:0:0:0:
256,192,17217,1,8,0:0:0:0:
256,192,17525,1,4,0:0:0:0:
256,192,18140,1,8,0:0:0:0:
256,192,18756,1,0,0:0:0:0:
256,192,19063,1,8,0:0:0:0:
256,192,19371,1,0,0:0:0:0:
265,172,19679,1,0,0:0:0:0:
256,192,19986,1,8,0:0:0:0:
256,192,20602,1,0,0:0:0:0:
256,192,21063,1,12,0:0:0:0:
256,192,22448,1,12,0:0:0:0:
224,160,24909,1,12,0:0:0:0:
256,192,27371,1,4,0:0:0:0:
192,160,29832,1,8,0:0:0:0:
218,178,30294,1,8,0:0:0:0:
224,192,30756,1,8,0:0:0:0:
228,140,31217,1,8,0:0:0:0:
224,192,31679,1,8,0:0:0:0:
224,192,31986,1,8,0:0:0:0:
224,192,32294,1,4,0:0:0:0:
224,192,33371,1,12,0:0:0:0:
256,192,34756,5,4,0:0:0:0:
246,179,35371,1,8,0:0:0:0:
256,192,35986,1,0,0:0:0:0:
222,158,36909,1,8,0:0:0:0:
256,192,37217,1,0,0:0:0:0:
237,159,37832,1,0,0:0:0:0:
224,192,38448,1,8,0:0:0:0:
256,192,39063,1,8,0:0:0:0:
225,159,39371,1,8,0:0:0:0:
256,192,39679,1,0,0:0:0:0:
225,159,40294,1,8,0:0:0:0:
256,192,40909,1,0,0:0:0:0:
256,192,41832,1,0,0:0:0:0:
256,192,42140,1,8,0:0:0:0:
262,168,42602,1,8,0:0:0:0:
256,160,43063,1,8,0:0:0:0:
256,160,43371,1,0,0:0:0:0:
256,160,43679,1,8,0:0:0:0:
256,160,44602,1,4,0:0:0:0:
256,160,45217,1,8,0:0:0:0:
224,160,45525,1,8,0:0:0:0:
224,160,45832,1,0,0:0:0:0:
250,132,46140,1,0,0:0:0:0:
224,128,46448,1,8,0:0:0:0:
224,128,47063,1,0,0:0:0:0:
247,133,47371,1,8,0:0:0:0:
224,96,47679,1,8,0:0:0:0:
224,96,48294,1,0,0:0:0:0:
224,96,49525,1,0,0:0:0:0:
224,96,49832,1,8,0:0:0:0:
224,96,50140,1,0,0:0:0:0:
224,96,50756,1,8,0:0:0:0:
224,96,51063,1,0,0:0:0:0:
224,96,51371,1,8,0:0:0:0:
249,111,51679,1,8,0:0:0:0:
224,96,51986,1,0,0:0:0:0:
224,96,52602,1,8,0:0:0:0:
224,96,53063,1,0,0:0:0:0:
192,96,53832,1,8,0:0:0:0:
192,96,54140,1,8,0:0:0:0:
192,96,54448,1,4,0:0:0:0:
224,160,55525,1,12,0:0:0:0:
224,160,56909,1,4,0:0:0:0:
211,118,57525,1,0,0:0:0:0:
224,160,58140,1,8,0:0:0:0:
224,160,58448,1,0,0:0:0:0:
224,160,58756,1,8,0:0:0:0:
224,160,59371,1,4,0:0:0:0:
256,192,60448,1,12,0:0:0:0:
256,192,61832,1,12,0:0:0:0:
256,192,62909,1,0,0:0:0:0:
256,160,63679,1,0,0:0:0:0:
256,192,64294,1,12,0:0:0:0:
256,192,66140,1,8,0:0:0:0:
256,192,66756,1,4,0:0:0:0:
256,192,67371,1,8,0:0:0:0:
256,192,67986,1,0,0:0:0:0:
256,192,68602,1,8,0:0:0:0:
256,192,68909,1,8,0:0:0:0:
256,192,69217,1,0,0:0:0:0:
256,192,69678,1,8,0:0:0:0:
266,174,70294,1,0,0:0:0:0:
224,128,71063,1,8,0:0:0:0:
259,168,71371,1,8,0:0:0:0:
256,192,71679,1,0,0:0:0:0:
261,168,72448,1,0,0:0:0:0:
224,192,72756,1,8,0:0:0:0:
261,168,73217,1,8,0:0:0:0:
256,160,73525,1,0,0:0:0:0:
256,160,73832,1,8,0:0:0:0:
256,160,74140,1,0,0:0:0:0:
256,160,74756,1,0,0:0:0:0:
256,160,75217,1,8,0:0:0:0:
256,128,75986,1,0,0:0:0:0:
256,192,76909,1,12,0:0:0:0:
256,192,77832,1,0,0:0:0:0:
256,192,78448,1,0,0:0:0:0:
256,192,78756,1,8,0:0:0:0:
256,192,79063,1,0,0:0:0:0:
242,184,79525,1,0,0:0:0:0:
256,192,80140,1,12,0:0:0:0:
256,192,80909,1,8,0:0:0:0:
250,170,81217,1,8,0:0:0:0:
256,192,81525,1,0,0:0:0:0:
226,180,81832,1,8,0:0:0:0:
224,128,82448,1,8,0:0:0:0:
224,128,82756,1,0,0:0:0:0:
256,159,83063,1,8,0:0:0:0:
224,128,83371,1,0,0:0:0:0:
224,128,83679,1,0,0:0:0:0:
224,128,83986,1,8,0:0:0:0:
224,128,84448,1,8,0:0:0:0:
224,128,84909,1,8,0:0:0:0:
216,141,85371,1,8,0:0:0:0:
224,128,85832,1,0,0:0:0:0:
224,128,86448,1,8,0:0:0:0:
239,134,86909,1,8,0:0:0:0:
224,128,87371,1,8,0:0:0:0:
224,128,87679,1,0,0:0:0:0:
224,128,87986,1,8,0:0:0:0:
224,128,88294,1,8,0:0:0:0:
224,128,88909,1,4,0:0:0:0:
256,192,91371,1,4,0:0:0:0:
256,192,91986,1,8,0:0:0:0:
256,192,92602,1,0,0:0:0:0:
266,184,92909,1,0,0:0:0:0:
256,192,93217,1,8,0:0:0:0:
248,185,93525,1,8,0:0:0:0:
256,192,93832,1,0,0:0:0:0:
266,184,94448,1,0,0:0:0:0:
256,192,94909,1,8,0:0:0:0:
256,192,95679,1,8,0:0:0:0:
256,192,95986,1,8,0:0:0:0:
256,192,96294,1,4,0:0:0:0:
256,192,96909,1,8,0:0:0:0:
256,192,97525,1,0,0:0:0:0:
256,192,97832,1,8,0:0:0:0:
256,192,98140,1,0,0:0:0:0:
265,172,98448,1,0,0:0:0:0:
256,192,98756,1,8,0:0:0:0:
256,192,99371,5,0,0:0:0:0:
256,192,99832,1,12,0:0:0:0:
256,192,101217,5,0,0:0:0:0:
256,192,101832,5,8,0:0:0:0:
256,192,103063,1,8,0:0:0:0:
256,192,103679,1,0,0:0:0:0:
256,192,104294,1,8,0:0:0:0:
256,192,105525,1,8,0:0:0:0:
256,192,106140,1,0,0:0:0:0:
256,192,106756,1,8,0:0:0:0:
256,192,107986,1,8,0:0:0:0:
256,192,108602,1,0,0:0:0:0:
256,192,109217,1,8,0:0:0:0:
256,160,109832,5,0,0:0:0:0:
256,160,111063,1,12,0:0:0:0:
256,160,111679,1,0,0:0:0:0:
224,160,111986,1,8,0:0:0:0:
224,160,112294,1,0,0:0:0:0:
224,128,112909,1,8,0:0:0:0:
240,163,113217,1,0,0:0:0:0:
224,128,113525,1,8,0:0:0:0:
224,96,113832,1,8,0:0:0:0:
224,96,114140,1,0,0:0:0:0:
224,96,114756,1,8,0:0:0:0:
224,96,115986,1,0,0:0:0:0:
224,96,116294,1,8,0:0:0:0:
224,96,116602,1,0,0:0:0:0:
194,87,116909,1,0,0:0:0:0:
224,96,117217,1,8,0:0:0:0:
224,96,117832,1,8,0:0:0:0:
240,106,118140,1,8,0:0:0:0:
224,96,118448,1,0,0:0:0:0:
224,96,119063,1,8,0:0:0:0:
224,96,119525,1,0,0:0:0:0:
192,96,120294,1,0,0:0:0:0:
192,96,120602,1,0,0:0:0:0:
192,96,120909,1,4,0:0:0:0:
224,160,121986,1,12,0:0:0:0:
224,160,123371,1,4,0:0:0:0:
268,122,123986,1,0,0:0:0:0:
224,160,124602,1,8,0:0:0:0:
224,160,124909,1,0,0:0:0:0:
224,160,125217,1,8,0:0:0:0:
224,160,125832,1,4,0:0:0:0:
256,192,126909,1,12,0:0:0:0:
256,192,128294,1,12,0:0:0:0:
256,192,129371,1,0,0:0:0:0:
256,160,130140,1,0,0:0:0:0:
256,192,130756,1,12,0:0:0:0:
256,192,132602,1,8,0:0:0:0:
256,192,133217,1,4,0:0:0:0:
256,192,133832,1,8,0:0:0:0:
256,192,134448,1,0,0:0:0:0:
256,192,135063,1,8,0:0:0:0:
256,192,135371,1,8,0:0:0:0:
256,192,135679,1,0,0:0:0:0:
256,192,136140,1,8,0:0:0:0:
235,109,136756,1,0,0:0:0:0:
192,128,137525,1,8,0:0:0:0:
215,88,137832,1,8,0:0:0:0:
256,192,138140,1,0,0:0:0:0:
260,115,138909,1,0,0:0:0:0:
224,192,139217,1,8,0:0:0:0:
248,107,139679,1,8,0:0:0:0:
256,160,139986,1,0,0:0:0:0:
256,160,140294,1,8,0:0:0:0:
256,160,140602,1,0,0:0:0:0:
256,160,141217,1,0,0:0:0:0:
256,160,141679,1,8,0:0:0:0:
256,128,142448,1,0,0:0:0:0:
256,192,143371,1,12,0:0:0:0:
256,192,144294,1,0,0:0:0:0:
256,192,144909,1,0,0:0:0:0:
256,192,145217,1,8,0:0:0:0:
256,192,145525,1,0,0:0:0:0:
248,186,145986,1,0,0:0:0:0:
256,192,146602,1,12,0:0:0:0:
256,192,147371,1,8,0:0:0:0:
256,174,147679,1,8,0:0:0:0:
256,192,147986,1,0,0:0:0:0:
248,186,148294,1,8,0:0:0:0:
224,128,148909,1,8,0:0:0:0:
224,128,149217,1,0,0:0:0:0:
256,174,149525,1,8,0:0:0:0:
224,128,149832,1,0,0:0:0:0:
224,128,150140,1,0,0:0:0:0:
224,128,150448,1,8,0:0:0:0:
224,128,150909,1,8,0:0:0:0:
224,128,151525,1,4,0:0:0:0:
256,192,152909,5,4,0:0:0:0:
256,192,153525,1,8,0:0:0:0:
256,160,154140,1,0,0:0:0:0:
255,133,154448,1,8,0:0:0:0:
224,128,154756,1,0,0:0:0:0:
224,96,155371,1,8,0:0:0:0:
227,109,155679,1,0,0:0:0:0:
256,160,155986,1,8,0:0:0:0:
256,160,156294,1,8,0:0:0:0:
256,160,156602,1,0,0:0:0:0:
256,160,157217,1,8,0:0:0:0:
192,224,157832,1,4,0:0:0:0:
256,160,158909,1,8,0:0:0:0:
256,160,159679,1,0,0:0:0:0:
256,160,159986,1,8,0:0:0:0:
256,160,160294,1,0,0:0:0:0:
241,130,160602,1,0,0:0:0:0:
256,160,160909,1,0,0:0:0:0:
256,160,161371,1,8,0:0:0:0:
264,148,162448,1,8,0:0:0:0:
256,160,162756,1,4,0:0:0:0:
256,160,163371,1,8,0:0:0:0:
256,160,163986,1,8,0:0:0:0:
256,160,164294,1,0,0:0:0:0:
256,128,164602,1,8,0:0:0:0:
247,148,164909,1,8,0:0:0:0:
256,160,165217,1,0,0:0:0:0:
247,148,165832,1,8,0:0:0:0:
256,160,166448,1,0,0:0:0:0:
256,160,166756,1,0,0:0:0:0:
264,148,167063,1,8,0:0:0:0:
256,160,167679,1,0,0:0:0:0:
250,122,167986,1,0,0:0:0:0:
224,128,168294,1,8,0:0:0:0:
256,160,168909,1,0,0:0:0:0:
230,113,169217,1,8,0:0:0:0:
256,160,169525,1,0,0:0:0:0:
256,160,169832,1,0,0:0:0:0:
256,160,170140,1,8,0:0:0:0:
256,160,170756,1,0,0:0:0:0:
256,160,171217,1,8,0:0:0:0:
256,160,171986,1,0,0:0:0:0:
256,160,172602,1,12,0:0:0:0:
256,160,173832,1,4,0:0:0:0:
256,160,175063,1,12,0:0:0:0:
256,160,176294,1,12,0:0:0:0:
256,160,177525,1,4,0:0:0:0:
238,198,178140,1,0,0:0:0:0:
256,160,178602,1,8,0:0:0:0:
247,170,179371,1,0,0:0:0:0:
247,170,179679,1,8,0:0:0:0:
256,160,179986,1,0,0:0:0:0:
268,162,180602,1,0,0:0:0:0:
256,160,181063,1,8,0:0:0:0:
256,160,182448,5,12,0:0:0:0:
256,160,183371,1,8,0:0:0:0:
256,192,183679,1,4,0:0:0:0:
256,192,184294,1,8,0:0:0:0:
256,192,184909,1,0,0:0:0:0:
256,192,185525,1,8,0:0:0:0:
256,192,185832,1,8,0:0:0:0:
256,192,186140,1,0,0:0:0:0:
256,192,186602,1,8,0:0:0:0:
254,158,187217,1,0,0:0:0:0:
224,128,187986,1,8,0:0:0:0:
224,96,188294,1,8,0:0:0:0:
256,192,188602,1,0,0:0:0:0:
261,173,189371,1,0,0:0:0:0:
224,192,189679,1,8,0:0:0:0:
242,175,190140,1,8,0:0:0:0:
256,160,190448,1,0,0:0:0:0:
256,160,190756,1,8,0:0:0:0:
256,160,191063,1,0,0:0:0:0:
256,160,191679,1,0,0:0:0:0:
256,160,192140,1,8,0:0:0:0:
256,128,192909,1,0,0:0:0:0:
256,192,193832,1,12,0:0:0:0:
256,192,194756,1,0,0:0:0:0:
256,192,195371,1,0,0:0:0:0:
256,192,195679,1,8,0:0:0:0:
256,192,195986,1,0,0:0:0:0:
248,175,196448,1,0,0:0:0:0:
256,192,197063,1,12,0:0:0:0:
256,192,197832,1,8,0:0:0:0:
248,151,198140,1,8,0:0:0:0:
256,192,198448,1,0,0:0:0:0:
248,175,198756,1,0,0:0:0:0:
224,128,199371,1,8,0:0:0:0:
224,128,199679,1,0,0:0:0:0:
224,96,199986,1,8,0:0:0:0:
224,128,200294,1,8,0:0:0:0:
224,128,200602,1,0,0:0:0:0:
224,128,200909,1,8,0:0:0:0:
269,165,201371,1,8,0:0:0:0:
224,128,201832,1,8,0:0:0:0:
269,165,202294,1,8,0:0:0:0:
224,128,202756,1,0,0:0:0:0:
224,128,203371,1,8,0:0:0:0:
269,165,203832,1,8,0:0:0:0:
224,128,204294,1,8,0:0:0:0:
224,128,204602,1,0,0:0:0:0:
224,128,204909,1,8,0:0:0:0:
224,128,205217,1,8,0:0:0:0:
224,128,205832,1,4,0:0:0:0:
256,192,209371,5,4,0:0:0:0:
256,192,210140,1,12,0:0:0:0:
