osu file format v14

[General]
AudioFilename: audio.mp3
AudioLeadIn: 0
PreviewTime: 178777
Countdown: 1
SampleSet: None
StackLeniency: 0.7
Mode: 0
LetterboxInBreaks: 0
WidescreenStoryboard: 0

[Editor]
Bookmarks: 54399,59588
DistanceSpacing: 1
BeatDivisor: 4
GridSize: 4
TimelineZoom: 2.599999

[Metadata]
Title:Instant Heaven feat.Eve
TitleUnicode:インスタントヘヴン feat.Eve
Artist:Nanawo Akari
ArtistUnicode:ナナヲアカリ
Creator:Ireiisu
Version:
Source:
Tags:
BeatmapID:1803991
BeatmapSetID:862423

[Difficulty]
HPDrainRate:7
CircleSize:4
OverallDifficulty:7
ApproachRate:9.4
SliderMultiplier:1.8
SliderTickRate:2

[Events]
//Background and Video events
0,0,"DY0revEVoAMZQ9m.jpg",0,0
//Break Periods
//Storyboard Layer 0 (Background)
//Storyboard Layer 1 (Fail)
//Storyboard Layer 2 (Pass)
//Storyboard Layer 3 (Foreground)
//Storyboard Sound Samples

[TimingPoints]
1210,324.324324324324,4,2,0,60,1,0
1210,-100,4,2,0,60,0,0
6399,-117.647058823529,4,2,0,40,0,0
8669,-100,4,2,0,50,0,0
10291,-153.846153846153,4,2,0,30,0,0
11588,-133.333333333333,4,2,0,50,0,0
12885,-100,4,2,0,60,0,0
23264,-100,4,2,0,60,0,0
33642,-100,4,2,5,60,0,0
59588,-100,4,2,0,60,0,0
106291,-100,4,2,5,60,0,0

[Colours]
Combo1 : 115,251,210
Combo2 : 254,163,232
Combo3 : 165,240,254
Combo4 : 167,142,249

[HitObjects]
119,315,1210,5,0,0:0:0:0:
278,236,1372,1,0,0:0:0:0:
471,143,2507,5,0,0:0:0:0:
292,144,2669,1,0,0:0:0:0:
35,143,3804,5,0,0:0:0:0:
192,228,3966,1,0,0:0:0:0:
390,320,5101,5,0,0:0:0:0:
292,168,5264,1,0,0:0:0:0:
256,12,6399,6,0,L|152:48,1,76.5000014591217
216,152,6723,1,0,0:0:0:0:
216,152,6885,2,0,L|220:232,1,67.5000025749208
228,348,7209,1,0,0:0:0:0:
316,276,7372,1,0,0:0:0:0:
219,219,7534,1,0,0:0:0:0:
76,276,7696,6,0,L|168:276,1,76.5000014591217
295,219,8020,2,0,L|199:219,1,76.5000014591217
72,108,8345,2,0,L|140:204,1,114.750002188683
138,201,8669,5,0,0:0:0:0:
344,284,8831,2,0,P|376:232|360:172,1,90
344,28,9155,1,0,0:0:0:0:
164,28,9318,1,0,0:0:0:0:
260,180,9480,1,0,0:0:0:0:
436,148,9642,2,0,L|480:272,1,90
500,316,9966,1,0,0:0:0:0:
480,48,10128,1,0,0:0:0:0:
260,180,10291,1,0,0:0:0:0:
260,180,11588,6,0,L|260:268,1,67.5000025749208
264,296,11831,1,0,0:0:0:0:
264,296,11912,1,0,0:0:0:0:
156,216,12074,1,0,0:0:0:0:
252,100,12237,2,0,B|296:72|296:72|324:92,1,67.5000025749208
156,216,12561,2,0,B|112:244|112:244|84:224,1,67.5000025749208
176,72,12885,6,0,P|216:20|284:0,1,135
344,20,13209,2,0,P|348:64|372:108,1,90
448,216,13534,1,0,0:0:0:0:
364,320,13696,2,0,L|236:308,1,90
144,340,14020,2,0,P|124:280|152:232,1,90
176,127,14345,5,0,0:0:0:0:
268,227,14507,1,0,0:0:0:0:
131,256,14669,1,0,0:0:0:0:
311,232,14831,2,0,L|355:332,1,90
460,175,15155,2,0,P|484:116|464:80,1,90
255,110,15480,6,0,L|407:130,1,135
380,196,15804,2,0,P|348:244|356:300,1,90
436,376,16128,1,0,0:0:0:0:
468,244,16291,2,0,L|344:244,1,90
248,284,16615,2,0,P|268:220|256:180,1,90
200,80,16939,1,0,0:0:0:0:
328,40,17101,1,0,0:0:0:0:
100,48,17264,2,0,P|100:96|112:144,1,90
132,316,17588,1,0,0:0:0:0:
252,176,17750,5,0,0:0:0:0:
296,171,17831,1,0,0:0:0:0:
340,182,17912,1,0,0:0:0:0:
383,191,17993,1,0,0:0:0:0:
428,184,18074,2,0,L|508:72,1,135
444,48,18399,2,0,P|384:56|348:40,1,90
224,56,18723,1,0,0:0:0:0:
296,171,18885,2,0,P|300:259|284:287,1,90
180,316,19209,2,0,L|232:216,1,90
324,324,19534,5,0,0:0:0:0:
221,236,19696,1,0,0:0:0:0:
356,236,19858,1,0,0:0:0:0:
232,364,20020,2,0,L|112:360,1,90
324,324,20345,2,0,P|376:320|432:296,1,90
236,168,20669,6,0,L|88:164,1,135
64,108,20993,2,0,P|84:176|56:220,1,90
16,312,21318,1,0,0:0:0:0:
144,268,21480,2,0,L|276:268,1,90
336,180,21804,2,0,L|464:180,1,90
204,56,22128,5,0,0:0:0:0:
232,268,22291,1,0,0:0:0:0:
204,56,22453,2,0,L|200:128,1,45
426,180,22615,5,0,0:0:0:0:
332,60,22777,2,0,L|340:0,1,45
232,268,22939,2,0,L|216:396,1,90
377,250,23264,6,0,P|421:202|421:146,1,90
332,60,23588,1,0,0:0:0:0:
227,211,23750,1,0,0:0:0:0:
343,146,23912,2,0,P|346:101|331:59,1,90
152,76,24237,2,0,L|235:109,1,90
116,176,24561,6,0,P|134:84|100:-28,1,180
20,96,25047,1,0,0:0:0:0:
40,228,25209,2,0,P|84:260|144:260,2,90
224,212,25696,1,0,0:0:0:0:
224,212,25858,2,0,L|316:344,1,135
368,324,26182,2,0,P|402:296|413:253,1,90
308,108,26507,2,0,P|312:168|339:243,1,135
336,238,26831,1,0,0:0:0:0:
504,168,26993,1,0,0:0:0:0:
372,44,27155,6,0,P|272:68|172:20,1,180
68,12,27642,1,0,0:0:0:0:
120,140,27804,2,0,P|128:221|116:264,1,90
0,280,28128,2,0,L|0:152,1,90
126,228,28453,6,0,L|262:224,1,135
352,220,28777,2,0,P|304:244|260:304,1,90
116,340,29101,2,0,P|168:356|248:340,1,135
245,341,29426,1,0,0:0:0:0:
244,160,29588,6,0,L|244:48,1,90
376,92,29912,1,0,0:0:0:0:
352,220,30074,2,0,L|352:316,1,90
492,196,30399,1,0,0:0:0:0:
352,220,30561,1,0,0:0:0:0:
456,308,30723,1,0,0:0:0:0:
376,92,30885,1,0,0:0:0:0:
232,200,31047,2,0,L|136:268,1,90
306,147,31372,5,0,0:0:0:0:
127,128,31534,1,0,0:0:0:0:
161,350,31696,2,0,L|256:281,1,90
204,120,32020,1,0,0:0:0:0:
158,252,32182,1,0,0:0:0:0:
304,360,32345,6,0,P|328:312|312:248,1,90
306,147,32669,2,0,B|284:108|284:108|296:52,1,90
420,193,32993,1,0,0:0:0:0:
401,233,33074,1,0,0:0:0:0:
368,263,33155,1,0,0:0:0:0:
325,276,33236,1,0,0:0:0:0:
281,270,33318,2,0,L|280:220,1,45
168,84,33480,2,0,L|168:148,1,45
157,284,33642,6,0,B|232:364,1,90
256,360,33885,1,0,0:0:0:0:
304,360,33966,1,0,0:0:0:0:
424,324,34128,1,0,0:0:0:0:
508,208,34291,2,0,P|496:144|452:104,1,90
356,60,34615,2,0,B|336:100|336:100|360:164,1,90
351,142,34939,5,0,0:0:0:0:
508,52,35101,1,0,0:0:0:0:
508,52,35182,1,0,0:0:0:0:
508,52,35264,2,0,L|380:48,1,90
240,52,35588,2,0,L|272:192,1,90
308,268,35912,1,0,0:0:0:0:
148,108,36074,1,0,0:0:0:0:
92,232,36237,6,0,P|148:244|216:220,1,90
224,232,36480,1,0,0:0:0:0:
220,276,36561,2,0,L|196:393,1,90
332,332,36885,2,0,L|355:214,1,90
380,68,37209,1,0,0:0:0:0:
248,88,37372,1,0,0:0:0:0:
416,152,37534,6,0,B|452:196|452:196|456:272,1,90
448,272,37777,1,0,0:0:0:0:
448,272,37858,1,0,0:0:0:0:
331,331,38020,1,0,0:0:0:0:
236,177,38182,2,0,L|252:53,1,90
119,132,38507,1,0,0:0:0:0:
167,6,38669,1,0,0:0:0:0:
323,167,38831,6,0,P|292:245|255:260,1,90
249,263,39074,1,0,0:0:0:0:
204,257,39155,1,0,0:0:0:0:
25,228,39318,1,0,0:0:0:0:
119,132,39480,2,0,B|119:259,1,90
193,339,39804,2,0,P|214:287|192:243,1,90
201,122,40128,6,0,P|212:80|252:57,1,90
317,69,40372,1,0,0:0:0:0:
317,69,40453,1,0,0:0:0:0:
139,40,40615,1,0,0:0:0:0:
283,147,40777,2,0,P|341:155|389:123,1,90
501,21,41101,2,0,L|502:144,1,90
365,230,41426,5,0,0:0:0:0:
499,215,41588,1,0,0:0:0:0:
499,215,41669,1,0,0:0:0:0:
499,215,41750,1,0,0:0:0:0:
349,315,41912,1,0,0:0:0:0:
318,70,42074,5,0,0:0:0:0:
424,154,42237,1,0,0:0:0:0:
163,85,42399,1,0,0:0:0:0:
453,68,42561,5,0,0:0:0:0:
453,68,42642,1,0,0:0:0:0:
453,68,42723,2,0,L|421:162,1,90
423,153,42966,1,0,0:0:0:0:
423,153,43047,1,0,0:0:0:0:
213,234,43209,1,0,0:0:0:0:
238,102,43372,5,0,0:0:0:0:
300,270,43534,1,0,0:0:0:0:
139,149,43696,2,0,L|86:225,1,90
179,321,44020,5,0,0:0:0:0:
311,139,44182,1,0,0:0:0:0:
300,270,44345,1,0,0:0:0:0:
172,32,44507,1,0,0:0:0:0:
172,32,45318,5,0,0:0:0:0:
313,140,45480,1,0,0:0:0:0:
78,273,45642,1,0,0:0:0:0:
139,152,45804,1,0,0:0:0:0:
139,152,46128,5,0,0:0:0:0:
234,248,46291,2,0,L|195:342,1,90
340,221,46615,2,0,P|311:138|286:124,1,90
139,152,46939,2,0,L|162:259,1,90
44,168,47264,1,0,0:0:0:0:
108,48,47426,1,0,0:0:0:0:
312,139,47588,2,0,P|264:179|208:179,1,90
228,49,47912,5,0,0:0:0:0:
139,152,48075,1,0,0:0:0:0:
324,25,48237,5,0,0:0:0:0:
109,50,48399,1,0,0:0:0:0:
238,183,48561,2,0,L|234:292,1,90
136,364,48885,2,0,L|136:252,1,90
78,201,49209,5,0,0:0:0:0:
207,160,49372,1,0,0:0:0:0:
43,6,49534,1,0,0:0:0:0:
260,63,49696,1,0,0:0:0:0:
290,82,50020,1,0,0:0:0:0:
312,215,50182,1,0,0:0:0:0:
177,230,50345,5,0,0:0:0:0:
376,125,50507,1,0,0:0:0:0:
389,349,50669,1,0,0:0:0:0:
242,178,50831,1,0,0:0:0:0:
457,243,50993,1,0,0:0:0:0:
484,264,51318,5,0,0:0:0:0:
348,272,51480,1,0,0:0:0:0:
236,348,51642,1,0,0:0:0:0:
108,308,51804,2,0,L|120:176,1,90
242,178,52128,2,0,L|254:46,1,90
140,12,52453,2,0,P|132:104|172:144,1,90
212,256,52777,1,0,0:0:0:0:
332,196,52939,1,0,0:0:0:0:
250,88,53101,5,0,0:0:0:0:
300,308,53264,1,0,0:0:0:0:
420,68,53426,5,0,0:0:0:0:
212,256,53588,1,0,0:0:0:0:
432,216,53750,5,0,0:0:0:0:
250,88,53912,1,0,0:0:0:0:
124,276,54074,2,0,P|152:324|200:344,1,90
408,328,54399,5,0,0:0:0:0:
