osu file format v14

[General]
AudioFilename: audio.mp3
AudioLeadIn: 0
PreviewTime:61503
Countdown: 0
SampleSet: Soft
StackLeniency: 0.4
Mode: 0
LetterboxInBreaks: 0
WidescreenStoryboard: 1

[Editor]
DistanceSpacing: 0.4
BeatDivisor: 6
GridSize: 32
TimelineZoom: 2.2

[Metadata]
Title:Dadadada Tenshi (Cut Ver.)
TitleUnicode:ダダダダ天使 (Cut Ver.)
Artist:Nanawo Akari
ArtistUnicode:ナナヲアカリ
Creator:Ryuusei Aika
Version:Wanpachi's Normal
Source:
Tags:da japanese pop j-pop jpop cycopton Wanpachi KuBsNia_ZhoYL_ KuBsNia ZhoYL Kuse Narcissu NayutalieN Nayutan Seijin ナユタン星人
BeatmapID:2757865
BeatmapSetID:1326344

[Difficulty]
HPDrainRate:4
CircleSize:3
OverallDifficulty:4.5
ApproachRate:5.5
SliderMultiplier:1
SliderTickRate:1

[Events]
//Background and Video events
0,0,"bg.jpg",0,0
//Break Periods
//Storyboard Layer 0 (Background)
//Storyboard Layer 1 (Fail)
//Storyboard Layer 2 (Pass)
//Storyboard Layer 3 (Foreground)
//Storyboard Layer 4 (Overlay)
//Storyboard Sound Samples

[TimingPoints]
858,333.333333333333,4,2,0,60,1,0
3524,-100,4,2,0,70,0,0
14191,-100,4,2,0,50,0,0
24857,-100,4,2,0,70,0,0
30191,-100,4,2,0,55,0,0
40857,-111.111111111111,4,2,0,55,0,0
51524,-100,4,2,0,60,0,0
59524,-100,4,2,0,70,0,0
61691,-100,4,2,0,40,0,0
61857,-100,4,2,0,60,0,0
62191,-90.9090909090909,4,2,0,80,0,1
91524,-100,4,2,0,60,0,0
94191,-100,4,2,0,70,0,0
99524,-100,4,2,0,75,0,0
104857,-100,4,2,0,30,0,0

[Colours]
Combo1 : 0,128,255
Combo2 : 128,128,255
Combo3 : 255,0,128
Combo4 : 255,128,64

[HitObjects]
462,43,857,5,4,1:2:0:0:
419,133,1191,1,0,1:0:0:0:
487,213,1524,1,4,3:0:0:0:
487,213,1691,2,0,L|466:327,1,100,0|0,1:0|1:0,0:0:0:0:
435,348,2191,2,0,P|411:341|377:336,1,50,4|0,3:0|1:0,0:0:0:0:
350,301,2524,2,0,P|326:308|292:313,1,50,4|0,3:0|1:0,0:0:0:0:
265,347,2857,1,0,1:0:0:0:
170,379,3191,1,4,3:0:0:0:
76,344,3524,6,0,L|61:275,1,50,4|2,3:2|2:0,0:0:0:0:
35,262,3857,1,0,1:0:0:0:
35,262,4024,2,0,P|67:211|64:149,1,100,2|2,2:0|2:0,0:0:0:0:
52,130,4524,1,0,1:0:0:0:
52,130,4691,1,2,2:0:0:0:
109,49,5024,1,2,2:0:0:0:
109,49,5191,2,0,L|178:32,1,50,0|2,1:0|2:0,0:0:0:0:
200,63,5524,2,0,L|188:111,2,50,4|2|0,3:0|2:0|1:0,0:0:0:0:
293,26,6191,6,0,P|320:37|356:42,1,50,4|2,3:0|2:0,0:0:0:0:
393,32,6524,1,0,1:0:0:0:
393,32,6691,2,0,L|389:148,1,100,2|2,2:0|2:0,0:0:0:0:
390,186,7191,1,0,1:0:0:0:
390,186,7357,1,2,2:0:0:0:
417,287,7691,1,2,2:0:0:0:
417,287,7857,2,0,L|359:289,1,50,0|2,1:0|2:0,0:0:0:0:
327,320,8191,2,0,L|325:378,2,50,4|2|0,3:0|2:0|1:0,0:0:0:0:
250,256,8857,6,0,P|226:267|193:275,1,50,4|2,3:2|2:0,0:0:0:0:
169,310,9191,1,0,1:0:0:0:
169,310,9357,2,0,P|120:296|75:275,1,100,2|2,2:0|2:0,0:0:0:0:
48,240,9857,1,0,1:0:0:0:
48,240,10024,1,2,2:0:0:0:
30,146,10357,1,2,2:0:0:0:
30,146,10524,2,0,L|48:77,1,50,0|2,1:0|2:0,0:0:0:0:
70,56,10857,2,0,L|57:8,2,50,4|2|0,3:0|2:0|1:0,0:0:0:0:
167,78,11524,6,0,L|236:96,1,50,4|2,3:0|2:0,0:0:0:0:
266,112,11857,1,0,1:0:0:0:
266,112,12024,2,0,P|315:85|399:87,1,100,2|2,2:0|2:0,0:0:0:0:
407,104,12524,1,0,1:0:0:0:
407,104,12691,1,2,2:0:0:0:
456,196,13024,1,0,1:0:0:0:
456,196,13191,2,0,P|449:229|444:265,1,50,0|0,1:0|1:0,0:0:0:0:
407,276,13524,2,0,P|414:309|419:345,2,50,0|4|8,1:0|3:0|3:0,0:0:0:0:
316,247,14191,5,4,3:2:0:0:
316,247,14357,2,0,P|260:261|215:284,1,100,2|2,2:0|2:0,0:0:0:0:
160,200,15024,1,2,2:0:0:0:
216,117,15357,2,0,L|200:10,1,100,2|2,2:0|2:0,0:0:0:0:
154,0,15857,1,0,1:0:0:0:
63,43,16191,2,0,L|13:35,2,50,4|2|0,3:0|2:0|1:0,0:0:0:0:
92,143,16857,5,4,3:0:0:0:
92,143,17024,2,0,P|68:216|67:271,1,100,2|2,2:0|2:0,0:0:0:0:
144,298,17691,1,2,2:0:0:0:
235,259,18024,2,0,L|358:283,1,100,2|2,2:0|2:0,0:0:0:0:
376,252,18524,2,0,P|386:226|389:185,1,50,0|2,1:0|2:0,0:0:0:0:
419,164,18857,2,0,P|445:154|486:151,2,50,4|0|0,3:0|1:0|1:0,0:0:0:0:
371,82,19524,5,4,1:2:0:0:
371,82,19691,2,0,L|242:57,1,100,0|2,0:0|2:0,0:0:0:0:
174,43,20357,1,2,2:0:0:0:
76,63,20691,2,0,P|101:133|101:191,1,100,2|2,2:0|2:0,0:0:0:0:
72,197,21191,1,0,1:0:0:0:
112,288,21524,2,0,L|103:353,2,50,4|2|0,3:0|2:0|1:0,0:0:0:0:
187,222,22191,5,4,3:0:0:0:
187,222,22357,2,0,P|257:241|299:277,1,100,2|2,2:0|2:0,0:0:0:0:
346,329,23024,1,2,2:0:0:0:
443,306,23357,2,0,L|434:186,1,100,2|2,2:0|2:0,0:0:0:0:
400,170,23857,2,0,L|404:110,1,50,0|4,1:0|3:0,0:0:0:0:
439,84,24191,2,0,L|499:79,2,50,0|0|0,1:0|1:0|1:0,0:0:0:0:
368,13,24857,6,0,L|308:8,1,50,4|2,3:2|2:0,0:0:0:0:
273,23,25191,1,0,1:0:0:0:
273,23,25357,2,0,P|250:78|275:131,1,100,2|2,2:0|2:0,0:0:0:0:
289,162,25857,1,0,1:0:0:0:
289,162,26024,1,2,2:0:0:0:
348,249,26357,1,2,2:0:0:0:
348,249,26524,2,0,L|430:262,1,50,0|2,1:0|2:0,0:0:0:0:
433,291,26857,2,0,L|515:278,2,50,4|2|0,3:0|2:0|1:0,0:0:0:0:
357,357,27524,6,0,P|320:349|286:345,1,50,4|2,3:0|2:0,0:0:0:0:
262,359,27857,1,0,1:0:0:0:
262,359,28024,2,0,L|139:343,1,100,2|2,2:0|2:0,0:0:0:0:
116,346,28524,1,0,1:0:0:0:
116,346,28691,1,2,2:0:0:0:
50,278,29024,1,0,1:0:0:0:
50,278,29191,2,0,L|46:215,1,50,0|0,1:0|1:0,0:0:0:0:
77,188,29524,2,0,L|81:125,2,50,2|4|8,2:0|3:0|3:0,0:0:0:0:
175,224,30191,5,4,3:2:0:0:
175,224,30357,2,0,P|182:295|216:352,1,100,2|2,2:0|2:0,0:0:0:0:
278,372,31024,1,2,2:0:0:0:
317,281,31357,2,0,L|423:294,1,100,2|2,2:0|2:0,0:0:0:0:
465,299,31857,1,0,1:0:0:0:
428,205,32191,2,0,L|378:198,2,50,4|2|0,3:0|2:0|1:0,0:0:0:0:
496,132,32857,5,4,3:0:0:0:
496,132,33024,2,0,P|467:76|464:21,1,100,2|2,2:0|2:0,0:0:0:0:
369,6,33691,1,2,2:0:0:0:
303,81,34024,2,0,P|236:80|195:44,1,100,2|0,2:0|1:0,0:0:0:0:
163,45,34524,2,0,L|91:37,1,50,4|0,3:0|1:0,0:0:0:0:
76,73,34857,2,0,L|4:81,2,50,4|0|4,3:0|1:0|3:0,0:0:0:0:
128,164,35524,5,4,3:2:0:0:
128,164,35691,2,0,L|116:263,1,100,0|2,0:0|2:0,0:0:0:0:
188,334,36357,1,2,2:0:0:0:
264,268,36691,2,0,P|317:266|383:303,1,100,2|2,2:0|2:0,0:0:0:0:
400,313,37191,1,0,1:0:0:0:
463,235,37524,2,0,P|489:240|522:243,2,50,4|2|0,3:0|2:0|1:0,0:0:0:0:
407,158,38191,5,4,3:0:0:0:
407,158,38357,2,0,L|419:35,1,100,2|2,2:0|2:0,0:0:0:0:
327,12,39024,1,2,2:0:0:0:
249,75,39357,2,0,P|183:82|127:68,1,100,2|2,2:0|2:0,0:0:0:0:
108,104,39857,2,0,L|94:160,1,50,0|4,1:0|3:0,0:0:0:0:
60,187,40191,2,0,L|74:243,2,50,0|0|0,1:0|1:0|1:0,0:0:0:0:
16,108,40857,6,0,P|25:49|79:35,1,89.9999972534181,4|0,3:2|0:0,0:0:0:0:
96,35,41357,1,4,3:0:0:0:
96,35,41524,2,0,L|212:30,1,89.9999972534181,4|0,3:0|1:0,0:0:0:0:
271,62,42191,1,4,3:0:0:0:
246,148,42524,2,0,L|262:216,1,44.999998626709,2|4,2:0|3:0,0:0:0:0:
284,226,42857,2,0,L|261:323,1,89.9999972534181,4|0,3:0|1:0,0:0:0:0:
184,357,43524,6,0,P|123:320|80:324,1,89.9999972534181,4|2,3:0|2:0,0:0:0:0:
65,320,44024,1,4,3:0:0:0:
65,320,44191,2,0,L|52:203,1,89.9999972534181,4|0,3:0|1:0,0:0:0:0:
14,151,44857,1,4,3:0:0:0:
68,78,45191,2,0,P|93:82|129:84,1,44.999998626709,2|4,2:0|3:0,0:0:0:0:
145,115,45524,2,0,P|194:111|244:103,1,89.9999972534181,4|0,3:0|1:0,0:0:0:0:
318,70,46191,6,0,P|371:105|366:146,1,89.9999972534181,4|0,3:2|0:0,0:0:0:0:
363,173,46691,1,4,3:0:0:0:
363,173,46857,2,0,L|379:294,1,89.9999972534181,4|0,3:0|1:0,0:0:0:0:
312,327,47524,1,4,3:0:0:0:
244,269,47857,2,0,L|185:284,1,44.999998626709,2|4,2:0|3:0,0:0:0:0:
169,312,48191,2,0,P|112:324|70:294,1,89.9999972534181,4|0,3:0|1:0,0:0:0:0:
38,235,48857,6,0,P|53:184|53:119,1,89.9999972534181,4|2,3:0|2:0,0:0:0:0:
43,109,49357,1,4,3:0:0:0:
43,109,49524,2,0,L|152:96,1,89.9999972534181,4|0,3:0|1:0,0:0:0:0:
199,159,50191,2,0,L|192:213,2,44.999998626709,4|0|0,3:0|1:0|1:0,0:0:0:0:
255,87,50857,2,0,L|309:80,1,44.999998626709,0|4,1:0|3:0,0:0:0:0:
345,76,51191,1,0,1:0:0:0:
415,146,51524,6,0,L|402:255,1,100,0|0,1:2|1:0,0:0:0:0:
368,281,52024,1,4,3:0:0:0:
368,281,52191,2,0,L|374:335,2,50,4|0|0,3:0|0:0|1:0,0:0:0:0:
293,214,52857,2,0,P|281:159|307:105,1,100,4|0,3:0|1:0,0:0:0:0:
342,97,53357,1,4,3:0:0:0:
342,97,53524,2,0,L|340:26,1,50,4|0,3:0|1:0,0:0:0:0:
310,7,53857,1,0,1:0:0:0:
213,35,54191,6,0,P|148:37|101:15,1,100,4|0,3:0|1:0,0:0:0:0:
76,53,54691,1,4,3:0:0:0:
76,53,54857,2,0,L|26:50,2,50,4|0|0,3:0|0:0|1:0,0:0:0:0:
123,141,55524,2,0,L|108:262,1,100,4|0,3:0|1:0,0:0:0:0:
149,280,56024,1,4,3:0:0:0:
149,280,56191,2,0,P|180:272|208:271,1,50,4|0,3:0|1:0,0:0:0:0:
245,285,56524,1,0,1:0:0:0:
319,351,56857,6,0,P|393:349|431:294,1,100,0|0,1:2|1:0,0:0:0:0:
440,295,57357,1,4,3:0:0:0:
440,295,57524,2,0,L|431:186,1,100,4|0,3:0|1:0,0:0:0:0:
396,167,58024,1,0,0:0:0:0:
396,167,58191,1,4,3:0:0:0:
422,70,58524,1,0,1:0:0:0:
337,15,58857,2,0,P|265:51|221:48,1,100,4|0,3:0|1:0,0:0:0:0:
179,126,59524,6,0,L|184:187,1,50,0|0,1:0|1:0,0:0:0:0:
193,229,59857,1,0,1:0:0:0:
193,229,60024,2,0,P|245:255|306:238,1,100,0|0,1:0|1:0,0:0:0:0:
332,232,60524,2,0,L|393:237,1,50,4|0,3:0|1:0,0:0:0:0:
426,259,60858,1,0,1:0:0:0:
495,18,61691,1,4,3:0:0:0:
489,12,61857,1,0,1:0:0:0:
394,65,62191,5,4,3:2:0:0:
394,65,62357,2,0,P|385:91|379:117,1,55.0000016784668,2|0,2:0|1:0,0:0:0:0:
353,167,62691,2,0,P|388:208|392:262,1,110.000003356934,2|2,2:0|2:0,0:0:0:0:
369,314,63191,1,0,1:0:0:0:
369,314,63357,1,2,2:0:0:0:
264,336,63691,1,2,2:0:0:0:
264,336,63857,2,0,L|169:318,1,55.0000016784668,0|2,1:0|2:0,0:0:0:0:
163,295,64191,2,0,L|68:313,2,55.0000016784668,4|2|0,3:0|2:0|1:0,0:0:0:0:
211,196,64857,5,4,3:0:0:0:
147,104,65191,2,0,L|158:49,1,55.0000016784668,2|0,1:0|0:0,0:0:0:0:
197,12,65524,2,0,P|258:56|319:46,1,110.000003356934,2|4,1:0|3:0,0:0:0:0:
338,30,66024,2,0,L|452:45,1,110.000003356934,2|0,1:0|1:0,0:0:0:0:
475,97,66524,1,4,3:0:0:0:
475,97,66691,2,0,P|456:160|454:220,1,110.000003356934,0|0,1:0|1:0,0:0:0:0:
488,246,67191,1,12,1:0:0:0:
406,320,67524,6,0,L|294:335,1,110.000003356934,4|0,3:2|1:0,0:0:0:0:
190,364,68191,2,0,P|139:304|81:310,1,110.000003356934,4|0,3:0|1:0,0:0:0:0:
20,241,68857,2,0,L|39:122,1,110.000003356934,4|0,3:0|1:0,0:0:0:0:
71,89,69357,1,2,2:0:0:0:
71,89,69524,2,0,P|135:60|195:76,1,110.000003356934,4|0,3:0|1:0,0:0:0:0:
261,131,70191,5,4,3:0:0:0:
351,69,70524,2,0,L|418:84,1,55.0000016784668,2|0,1:0|0:0,0:0:0:0:
459,77,70857,2,0,L|430:195,1,110.000003356934,2|4,1:0|3:0,0:0:0:0:
424,238,71357,2,0,P|360:210|306:233,1,110.000003356934,2|4,1:0|3:0,0:0:0:0:
275,246,71857,2,0,L|278:323,1,55.0000016784668,0|8,1:0|3:0,0:0:0:0:
263,354,72191,1,4,3:0:0:0:
155,377,72524,1,12,3:1:0:0:
98,289,72857,5,4,3:2:0:0:
98,289,73024,2,0,P|104:255|95:216,1,55.0000016784668,2|0,2:0|1:0,0:0:0:0:
90,180,73357,2,0,L|219:181,1,110.000003356934,2|2,2:0|2:0,0:0:0:0:
248,217,73857,1,0,1:0:0:0:
248,217,74024,1,2,2:0:0:0:
348,167,74357,1,2,2:0:0:0:
348,167,74524,2,0,L|356:89,1,55.0000016784668,0|2,1:0|2:0,0:0:0:0:
361,57,74857,2,0,L|439:49,2,55.0000016784668,4|2|0,3:0|2:0|1:0,0:0:0:0:
261,9,75524,5,4,3:0:0:0:
167,66,75857,2,0,P|139:61|112:56,1,55.0000016784668,2|0,1:0|0:0,0:0:0:0:
57,52,76191,2,0,P|70:105|80:159,1,110.000003356934,2|0,1:0|1:0,0:0:0:0:
96,217,76691,1,4,3:0:0:0:
96,217,76857,2,0,P|57:260|53:288,2,82.5000025177003,2|4|4,1:0|3:0|3:0,0:0:0:0:
143,245,77524,1,4,3:0:0:0:
239,192,77857,1,12,1:0:0:0:
261,300,78191,6,0,L|389:292,1,110.000003356934,4|0,3:2|1:0,0:0:0:0:
429,304,78691,1,2,2:0:0:0:
429,304,78857,2,0,P|460:234|443:178,1,110.000003356934,4|0,3:0|1:0,0:0:0:0:
376,127,79524,1,4,3:0:0:0:
438,36,79857,1,0,1:0:0:0:
332,4,80191,2,0,L|204:17,1,110.000003356934,4|0,3:0|1:0,0:0:0:0:
113,4,80857,5,4,3:0:0:0:
73,106,81191,2,0,P|97:142|102:175,1,55.0000016784668,2|0,1:0|0:0,0:0:0:0:
137,193,81524,2,0,P|115:256|110:317,1,110.000003356934,2|4,1:0|3:0,0:0:0:0:
149,344,82024,1,0,1:0:0:0:
149,344,82191,2,0,L|222:328,1,55.0000016784668,4|4,3:0|3:0,0:0:0:0:
251,304,82524,1,0,1:0:0:0:
251,304,82691,2,0,P|317:308|352:340,1,110.000003356934,8|4,3:0|3:0,0:0:0:0:
382,379,83191,1,12,3:1:0:0:
484,338,83524,5,4,3:2:0:0:
481,228,83857,1,0,1:0:0:0:
424,133,84191,1,4,3:0:0:0:
317,107,84524,1,0,1:0:0:0:
209,131,84857,2,0,L|227:197,1,55.0000016784668,4|2,3:0|2:0,0:0:0:0:
217,239,85191,2,0,L|199:305,1,55.0000016784668,0|2,1:0|2:0,0:0:0:0:
153,318,85524,2,0,P|85:283|30:280,1,110.000003356934,4|0,3:0|1:0,0:0:0:0:
9,177,86191,5,4,3:0:0:0:
55,77,86524,1,0,1:0:0:0:
153,29,86857,1,4,3:0:0:0:
263,34,87191,1,0,1:0:0:0:
360,85,87524,2,0,L|414:81,1,55.0000016784668,4|2,3:0|2:0,0:0:0:0:
453,120,87857,2,0,L|449:174,1,55.0000016784668,0|2,1:0|2:0,0:0:0:0:
403,204,88191,2,0,P|390:276|418:328,1,110.000003356934,4|0,3:0|1:0,0:0:0:0:
433,353,88691,1,0,1:0:0:0:
433,353,88857,5,4,3:2:0:0:
324,371,89190,1,0,1:0:0:0:
217,341,89523,1,4,3:0:0:0:
163,244,89857,1,0,1:0:0:0:
173,134,90191,2,0,L|184:58,1,55.0000016784668,4|2,3:0|2:0,0:0:0:0:
219,40,90524,2,0,L|295:29,1,55.0000016784668,0|2,1:0|2:0,0:0:0:0:
312,71,90857,2,0,P|367:116|421:104,1,110.000003356934,4|0,3:0|1:0,0:0:0:0:
473,184,91524,5,0,1:0:0:0:
432,275,91857,1,0,1:0:0:0:
342,243,92191,1,4,3:0:0:0:
342,243,92357,2,0,P|282:266|222:302,1,100,0|0,1:0|1:0,0:0:0:0:
205,305,92857,2,0,L|122:289,1,50,4|0,3:0|1:0,0:0:0:0:
111,320,93191,2,0,L|28:336,1,50,4|0,3:0|1:0,0:0:0:0:
17,305,93524,1,0,1:0:0:0:
38,207,93857,1,4,3:0:0:0:
11,110,94191,6,0,P|29:91|41:55,1,50,4|2,3:2|2:0,0:0:0:0:
70,32,94524,1,0,1:0:0:0:
70,32,94691,2,0,P|116:17|159:40,1,100,2|2,2:0|2:0,0:0:0:0:
196,82,95191,1,0,1:0:0:0:
196,82,95357,1,2,2:0:0:0:
174,183,95691,1,2,2:0:0:0:
174,183,95857,2,0,L|196:265,1,50,0|2,1:0|2:0,0:0:0:0:
153,268,96191,2,0,L|71:246,2,50,4|2|0,3:0|2:0|1:0,0:0:0:0:
214,346,96857,6,0,L|296:324,1,50,4|2,3:0|2:0,0:0:0:0:
306,306,97191,1,0,1:0:0:0:
306,306,97357,2,0,P|353:348|412:347,1,100,2|2,2:0|2:0,0:0:0:0:
435,331,97857,1,0,1:0:0:0:
435,331,98024,1,2,2:0:0:0:
400,242,98357,1,2,2:0:0:0:
400,242,98524,2,0,P|410:212|411:175,1,50,0|2,1:0|2:0,0:0:0:0:
436,150,98857,2,0,P|459:141|484:138,2,50,4|2|0,3:0|2:0|1:0,0:0:0:0:
371,73,99524,6,0,L|296:82,1,50,4|2,3:2|2:0,0:0:0:0:
282,108,99857,1,0,1:0:0:0:
282,108,100024,2,0,P|224:134|174:118,1,100,2|2,2:0|2:0,0:0:0:0:
157,97,100524,1,0,1:0:0:0:
157,97,100691,1,2,2:0:0:0:
77,155,101024,1,2,2:0:0:0:
77,155,101191,2,0,L|90:223,1,50,0|2,1:0|2:0,0:0:0:0:
99,253,101524,2,0,L|86:321,2,50,4|2|0,3:0|2:0|1:0,0:0:0:0:
194,222,102191,6,0,P|208:235|253:248,1,50,4|2,3:0|2:0,0:0:0:0:
275,287,102524,1,0,1:0:0:0:
275,287,102691,2,0,P|321:251|373:246,1,100,2|2,2:0|2:0,0:0:0:0:
415,248,103191,1,0,1:0:0:0:
415,248,103357,1,2,2:0:0:0:
495,187,103691,1,0,1:0:0:0:
495,187,103857,2,0,L|484:116,1,50,0|0,1:0|1:0,0:0:0:0:
458,97,104191,2,0,L|465:47,2,50,0|4|0,1:0|3:0|1:0,0:0:0:0:
365,134,104857,6,0,P|364:159|358:184,2,50,2|0|2,2:0|0:0|2:0,0:0:0:0:
329,98,105357,1,2,2:0:0:0:
235,134,105691,2,0,P|235:158|241:183,1,50,2|2,2:0|2:0,0:0:0:0:
276,218,106024,1,2,2:0:0:0:
