osu file format v14

[General]
AudioFilename: audio.mp3
AudioLeadIn: 0
PreviewTime: 61503
Countdown: 0
SampleSet: Soft
StackLeniency: 1
Mode: 0
LetterboxInBreaks: 0
WidescreenStoryboard: 0

[Editor]
DistanceSpacing: 0.4
BeatDivisor: 4
GridSize: 8
TimelineZoom: 1.5

[Metadata]
Title:Dadadada Tenshi (Cut Ver.)
TitleUnicode:ダダダダ天使 (Cut Ver.)
Artist:Nanawo Akari
ArtistUnicode:ナナヲアカリ
Creator:Ryuusei Aika
Version:Doya!
Source:
Tags:da japanese pop j-pop jpop cycopton Wanpachi KuBsNia_ZhoYL_ KuBsNia ZhoYL Kuse Narcissu NayutalieN Nayutan Seijin ナユタン星人
BeatmapID:2747884
BeatmapSetID:1326344

[Difficulty]
HPDrainRate:6
CircleSize:3.7
OverallDifficulty:8.3
ApproachRate:9
SliderMultiplier:1.8
SliderTickRate:1

[Events]
//Background and Video events
0,0,"bg.jpg",0,0
//Break Periods
//Storyboard Layer 0 (Background)
//Storyboard Layer 1 (Fail)
//Storyboard Layer 2 (Pass)
//Storyboard Layer 3 (Foreground)
//Storyboard Layer 4 (Overlay)
//Storyboard Sound Samples

[TimingPoints]
858,333.333333333333,4,2,0,60,1,0
1857,-100,4,2,0,60,0,0
2024,-100,4,2,0,60,0,0
3302,-100,4,2,0,60,0,0
3524,-100,4,2,0,70,0,0
4440,-100,4,2,0,70,0,0
4524,-100,4,2,0,70,0,0
6107,-100,4,2,0,70,0,0
6191,-100,4,2,0,70,0,0
7107,-100,4,2,0,70,0,0
7191,-100,4,2,0,70,0,0
9774,-100,4,2,0,70,0,0
9857,-100,4,2,0,70,0,0
11441,-100,4,2,0,70,0,0
11524,-100,4,2,0,70,0,0
12441,-100,4,2,0,70,0,0
12524,-100,4,2,0,70,0,0
14191,-133.333333333333,4,2,0,50,0,0
19691,-133.333333333333,4,2,0,50,0,0
19857,-133.333333333333,4,2,0,50,0,0
21773,-133.333333333333,4,2,0,50,0,0
21857,-133.333333333333,4,2,0,50,0,0
24857,-100,4,2,0,70,0,0
25774,-100,4,2,0,70,0,0
25857,-100,4,2,0,70,0,0
27441,-100,4,2,0,70,0,0
27524,-100,4,2,0,70,0,0
28440,-100,4,2,0,70,0,0
28524,-100,4,2,0,70,0,0
30191,-114.942528735632,4,2,0,55,0,0
40274,-114.942528735632,4,2,0,55,0,0
40357,-114.942528735632,4,2,0,55,0,0
40857,-133.333333333333,4,2,0,55,0,0
41190,-133.333333333333,4,2,0,55,0,0
41357,-133.333333333333,4,2,0,55,0,0
42024,-133.333333333333,4,2,0,55,0,0
42191,-133.333333333333,4,2,0,55,0,0
42357,-133.333333333333,4,2,0,55,0,0
42524,-133.333333333333,4,2,0,55,0,0
43357,-133.333333333333,4,2,0,55,0,0
43524,-133.333333333333,4,2,0,55,0,0
43690,-133.333333333333,4,2,0,55,0,0
43857,-133.333333333333,4,2,0,55,0,0
44357,-133.333333333333,4,2,0,55,0,0
44524,-133.333333333333,4,2,0,55,0,0
44690,-133.333333333333,4,2,0,55,0,0
44857,-133.333333333333,4,2,0,55,0,0
45690,-133.333333333333,4,2,0,55,0,0
45857,-133.333333333333,4,2,0,55,0,0
46357,-133.333333333333,4,2,0,55,0,0
46691,-133.333333333333,4,2,0,55,0,0
47357,-133.333333333333,4,2,0,55,0,0
47524,-133.333333333333,4,2,0,55,0,0
48357,-133.333333333333,4,2,0,55,0,0
48524,-133.333333333333,4,2,0,55,0,0
51357,-133.333333333333,4,2,0,55,0,0
51524,-114.942528735632,4,2,0,60,0,0
51774,-114.942528735632,4,2,0,60,0,0
51857,-114.942528735632,4,2,0,60,0,0
52358,-114.942528735632,4,2,0,60,0,0
52524,-114.942528735632,4,2,0,60,0,0
52691,-114.942528735632,4,2,0,60,0,0
52857,-114.942528735632,4,2,0,60,0,0
54023,-114.942528735632,4,2,0,60,0,0
54191,-114.942528735632,4,2,0,60,0,0
55357,-114.942528735632,4,2,0,60,0,0
55524,-114.942528735632,4,2,0,60,0,0
56607,-114.942528735632,4,2,0,60,0,0
56690,-114.942528735632,4,2,0,60,0,0
58024,-114.942528735632,4,2,0,60,0,0
58191,-114.942528735632,4,2,0,60,0,0
58357,-114.942528735632,4,2,0,60,0,0
58524,-114.942528735632,4,2,0,60,0,0
59023,-114.942528735632,4,2,0,60,0,0
59191,-114.942528735632,4,2,0,60,0,0
59524,-114.942528735632,4,2,0,70,0,0
61691,-161.290322580645,4,2,0,40,0,0
61774,-161.290322580645,4,2,0,40,0,0
61857,-80,4,2,0,60,0,0
62107,-80,4,2,0,60,0,0
62191,-89.2857142857143,4,2,0,80,0,1
65191,-80,4,2,0,80,0,1
65357,-80,4,2,0,80,0,1
65524,-80,4,2,0,80,0,1
67524,-100,4,2,0,80,0,1
67774,-100,4,2,0,80,0,1
67857,-89.2857142857143,4,2,0,80,0,1
68107,-89.2857142857143,4,2,0,80,0,1
68191,-89.2857142857143,4,2,0,80,0,1
68441,-89.2857142857143,4,2,0,80,0,1
68524,-89.2857142857143,4,2,0,80,0,1
68774,-89.2857142857143,4,2,0,80,0,1
68857,-80,4,2,0,80,0,1
69107,-80,4,2,0,80,0,1
69191,-100,4,2,0,80,0,1
69524,-72.992700729927,4,2,0,80,0,1
70191,-80,4,2,0,80,0,1
70524,-72.992700729927,4,2,0,80,0,1
70774,-72.992700729927,4,2,0,80,0,1
70857,-72.992700729927,4,2,0,80,0,1
72191,-89.2857142857143,4,2,0,80,0,1
75857,-80,4,2,0,80,0,1
76023,-80,4,2,0,80,0,1
76191,-80,4,2,0,80,0,1
77857,-72.992700729927,4,2,0,80,0,1
78191,-89.2857142857143,4,2,0,80,0,1
79191,-72.992700729927,4,2,0,80,0,1
79441,-72.992700729927,4,2,0,80,0,1
79524,-89.2857142857143,4,2,0,80,0,1
80524,-80,4,2,0,80,0,1
81107,-80,4,2,0,80,0,1
81191,-72.992700729927,4,2,0,80,0,1
81441,-72.992700729927,4,2,0,80,0,1
81524,-72.992700729927,4,2,0,80,0,1
82024,-89.2857142857143,4,2,0,80,0,1
84691,-89.2857142857143,4,2,0,80,0,1
84857,-89.2857142857143,4,2,0,80,0,1
85441,-89.2857142857143,4,2,0,80,0,1
85524,-100,4,2,0,80,0,1
85774,-100,4,2,0,80,0,1
85857,-100,4,2,0,80,0,1
86191,-89.2857142857143,4,2,0,80,0,1
87358,-89.2857142857143,4,2,0,80,0,1
87524,-89.2857142857143,4,2,0,80,0,1
88357,-89.2857142857143,4,2,0,80,0,1
88524,-89.2857142857143,4,2,0,80,0,1
90107,-89.2857142857143,4,2,0,80,0,1
90191,-89.2857142857143,4,2,0,80,0,1
91107,-89.2857142857143,4,2,0,80,0,1
91191,-89.2857142857143,4,2,0,80,0,1
91524,-89.2857142857143,4,2,0,60,0,0
92524,-89.2857142857143,4,2,0,60,0,0
92691,-89.2857142857143,4,2,0,60,0,0
93857,-80,4,2,0,60,0,0
93968,-80,4,2,0,60,0,0
94191,-89.2857142857143,4,2,0,70,0,0
95108,-89.2857142857143,4,2,0,70,0,0
95191,-89.2857142857143,4,2,0,70,0,0
96774,-89.2857142857143,4,2,0,70,0,0
96857,-89.2857142857143,4,2,0,70,0,0
97774,-89.2857142857143,4,2,0,70,0,0
97857,-89.2857142857143,4,2,0,70,0,0
99524,-89.2857142857143,4,2,0,75,0,0
100441,-89.2857142857143,4,2,0,75,0,0
100524,-89.2857142857143,4,2,0,75,0,0
103107,-89.2857142857143,4,2,0,75,0,0
103191,-89.2857142857143,4,2,0,75,0,0
104774,-89.2857142857143,4,2,0,75,0,0
104857,-133.333333333333,4,2,0,30,0,0
105774,-133.333333333333,4,2,0,30,0,0
105857,-133.333333333333,4,2,0,30,0,0

[Colours]
Combo1 : 0,128,255
Combo2 : 128,128,255
Combo3 : 255,0,128
Combo4 : 255,128,64

[HitObjects]
432,368,857,5,4,1:2:0:0:
408,192,1191,1,0,1:0:0:0:
432,368,1524,5,4,3:0:0:0:
440,336,1607,1,4,3:0:0:0:
448,304,1691,2,0,L|344:320,1,90,0|0,1:0|0:0,0:0:0:0:
280,328,2024,1,0,1:0:0:0:
184,184,2191,5,4,3:0:0:0:
136,256,2357,2,0,L|256:280,1,90,0|4,1:0|3:0,0:0:0:0:
296,232,2691,1,0,1:0:0:0:
64,288,2857,1,0,1:0:0:0:
64,288,3191,6,0,P|32:288|56:272,1,60,4|0,3:0|0:0,0:0:0:0:
256,64,3524,5,4,3:2:0:0:
72,16,3691,1,2,2:0:0:0:
272,144,3857,1,0,1:0:0:0:
96,88,4024,2,0,P|144:80|184:32,1,90,2|4,2:0|3:0,0:0:0:0:
328,16,4357,2,0,L|384:24,1,45,2|0,2:0|0:0,0:0:0:0:
392,32,4524,2,0,L|416:160,1,90,0|2,1:0|2:0,0:0:0:0:
400,272,4857,1,4,3:0:0:0:
488,120,5024,5,2,2:0:0:0:
328,232,5191,1,0,1:0:0:0:
480,272,5357,1,2,2:0:0:0:
336,152,5524,1,4,3:0:0:0:
512,200,5691,1,2,2:0:0:0:
384,352,5857,2,0,P|328:384|240:368,1,135,0|0,1:0|0:0,0:0:0:0:
240,360,6191,5,4,3:0:0:0:
216,192,6357,1,2,2:0:0:0:
160,384,6524,1,0,1:0:0:0:
88,240,6691,2,0,P|128:240|184:272,1,90,2|4,2:0|3:0,0:0:0:0:
40,352,7024,1,2,2:0:0:0:
32,360,7107,1,0,0:0:0:0:
24,368,7191,2,0,L|16:272,1,90,0|2,1:0|2:0,0:0:0:0:
112,88,7524,5,4,3:0:0:0:
16,200,7691,1,2,2:0:0:0:
40,48,7857,1,0,1:0:0:0:
176,136,8024,1,2,2:0:0:0:
0,120,8191,1,4,3:0:0:0:
112,8,8357,1,2,2:0:0:0:
112,192,8524,1,0,1:0:0:0:
133,217,8607,1,0,1:0:0:0:
163,232,8690,1,0,1:0:0:0:
196,235,8774,1,0,1:0:0:0:
224,224,8857,6,0,L|320:232,1,90,4|2,3:2|2:0,0:0:0:0:
456,376,9191,2,0,P|480:328|480:288,1,90,0|2,1:0|2:0,0:0:0:0:
368,168,9524,1,4,3:0:0:0:
280,312,9691,1,2,2:0:0:0:
288,336,9774,1,0,0:0:0:0:
296,360,9857,1,0,1:0:0:0:
416,240,10024,2,0,L|480:160,1,90,2|4,2:0|3:0,0:0:0:0:
472,169,10357,5,2,2:0:0:0:
336,88,10524,1,0,1:0:0:0:
384,152,10690,1,2,2:0:0:0:
424,40,10857,1,4,3:0:0:0:
272,144,11024,1,2,2:0:0:0:
176,24,11191,2,0,P|104:32|64:88,1,135,0|0,1:0|0:0,0:0:0:0:
80,96,11524,5,4,3:0:0:0:
176,216,11691,1,2,2:0:0:0:
240,72,11857,1,0,1:0:0:0:
120,168,12024,2,0,P|168:168|224:120,1,90,2|4,2:0|3:0,0:0:0:0:
16,144,12357,1,2,2:0:0:0:
8,152,12441,1,0,0:0:0:0:
0,160,12524,2,0,L|16:280,1,90,0|2,1:0|2:0,0:0:0:0:
128,360,12857,5,4,3:0:0:0:
96,224,13024,1,0,1:0:0:0:
56,384,13191,1,0,1:0:0:0:
176,256,13357,1,0,1:0:0:0:
200,264,13441,1,0,1:0:0:0:
224,272,13524,1,0,1:0:0:0:
304,360,13691,5,4,3:0:0:0:
336,352,13774,1,4,3:0:0:0:
368,344,13857,1,8,3:0:0:0:
384,320,13941,1,8,3:0:0:0:
392,296,14024,1,8,3:0:0:0:
400,272,14107,1,4,3:0:0:0:
408,248,14191,6,0,P|408:216|376:176,1,67.5000025749208,4|2,3:2|2:0,0:0:0:0:
216,120,14524,1,0,1:0:0:0:
256,184,14691,2,0,P|296:176|336:144,1,67.5000025749208,2|4,2:0|3:0,0:0:0:0:
344,88,15024,2,0,L|424:96,1,67.5000025749208,2|0,2:0|1:0,0:0:0:0:
272,24,15357,6,0,P|208:8|144:48,1,135.000005149842,2|2,2:0|2:0,0:0:0:0:
48,152,15857,1,0,1:0:0:0:
120,120,16024,1,2,2:0:0:0:
72,16,16191,1,4,3:0:0:0:
72,16,16274,2,0,L|56:64,1,33.7500012874604,0|2,1:0|2:0,0:0:0:0:
40,128,16524,1,0,1:0:0:0:
128,144,16691,1,2,2:0:0:0:
40,304,16857,5,4,3:0:0:0:
16,232,17024,2,0,P|48:208|80:208,1,67.5000025749208,2|0,2:0|1:0,0:0:0:0:
248,224,17357,2,0,P|176:272|112:240,2,135.000005149842,2|2|2,2:0|2:0|2:0,0:0:0:0:
312,272,18191,1,4,3:0:0:0:
224,344,18357,5,2,2:0:0:0:
392,304,18524,1,0,1:0:0:0:
296,384,18691,1,2,2:0:0:0:
376,216,18857,1,4,3:0:0:0:
392,192,18941,1,0,1:0:0:0:
408,168,19024,1,0,1:0:0:0:
448,368,19191,1,0,1:0:0:0:
480,352,19274,1,0,1:0:0:0:
504,328,19357,1,0,1:0:0:0:
512,296,19441,1,0,1:0:0:0:
504,264,19524,5,4,1:2:0:0:
472,112,19691,2,0,P|488:144|512:168,1,67.5000025749208,0|0,0:0|1:0,0:0:0:0:
488,24,20024,2,0,L|400:40,1,67.5000025749208,2|4,2:0|3:0,0:0:0:0:
296,88,20357,2,0,L|392:96,1,67.5000025749208,2|0,2:0|1:0,0:0:0:0:
232,32,20691,6,0,P|160:48|160:120,1,135.000005149842,2|2,2:0|2:0,0:0:0:0:
264,224,21191,1,0,1:0:0:0:
264,224,21357,1,2,2:0:0:0:
144,176,21524,1,4,3:0:0:0:
152,200,21607,2,0,L|192:192,2,33.7500012874604,0|2|0,1:0|2:0|0:0,0:0:0:0:
128,208,21857,1,0,1:0:0:0:
248,144,22024,1,2,2:0:0:0:
208,288,22191,1,4,3:0:0:0:
64,256,22357,6,0,P|40:224|40:176,1,67.5000025749208,2|0,2:0|1:0,0:0:0:0:
16,328,22691,2,0,L|144:352,1,101.250003862381,2|0,2:0|1:0,0:0:0:0:
128,360,23024,1,2,2:0:0:0:
264,328,23191,2,0,P|232:312|184:312,1,67.5000025749208,0|2,1:0|2:0,0:0:0:0:
328,384,23524,1,4,3:0:0:0:
376,176,23691,5,2,2:0:0:0:
408,352,23857,1,0,1:0:0:0:
296,248,24024,1,4,3:0:0:0:
272,232,24107,1,4,3:0:0:0:
248,216,24191,1,0,1:0:0:0:
432,272,24357,5,0,1:0:0:0:
456,240,24441,1,0,1:0:0:0:
464,200,24524,1,0,1:0:0:0:
448,168,24607,1,0,1:0:0:0:
416,144,24691,1,0,1:0:0:0:
408,104,24774,1,0,1:0:0:0:
424,64,24857,6,0,P|384:40|336:48,1,90,4|2,3:2|2:0,0:0:0:0:
232,160,25191,1,0,1:0:0:0:
96,64,25357,2,0,L|296:88,1,180,2|2,2:0|2:0,0:0:0:0:
296,112,25774,1,0,0:0:0:0:
320,136,25857,1,0,1:0:0:0:
152,152,26024,2,0,P|128:192|136:256,1,90,2|4,2:0|3:0,0:0:0:0:
232,360,26357,5,2,2:0:0:0:
288,288,26524,1,0,1:0:0:0:
152,336,26691,1,2,2:0:0:0:
368,320,26857,1,4,3:0:0:0:
208,264,27024,1,2,2:0:0:0:
312,384,27191,2,0,L|464:360,1,135,0|0,1:0|0:0,0:0:0:0:
488,296,27524,5,4,3:0:0:0:
424,240,27691,1,2,2:0:0:0:
280,304,27857,1,0,1:0:0:0:
344,256,28024,2,0,P|368:224|360:144,1,90,2|4,2:0|3:0,0:0:0:0:
288,96,28357,2,0,P|312:104|336:104,1,45,2|0,2:0|0:0,0:0:0:0:
360,96,28524,2,0,P|392:64|400:16,1,90,0|2,1:0|2:0,0:0:0:0:
320,16,28857,1,4,3:0:0:0:
464,96,29024,5,0,1:0:0:0:
264,176,29191,1,0,1:0:0:0:
184,48,29357,1,0,1:0:0:0:
152,32,29441,1,0,1:0:0:0:
120,16,29524,1,2,2:0:0:0:
272,120,29691,5,4,3:0:0:0:
294,163,29774,1,4,3:0:0:0:
288,214,29858,1,8,3:0:0:0:
260,254,29941,1,8,3:0:0:0:
220,282,30024,1,8,3:0:0:0:
175,294,30108,1,4,3:0:0:0:
130,282,30191,6,0,P|96:240|96:192,1,78.3000006571198,4|2,3:2|2:0,0:0:0:0:
192,128,30524,1,0,1:0:0:0:
72,80,30691,2,0,P|24:144|8:248,1,156.60000131424,2|2,2:0|2:0,0:0:0:0:
144,376,31191,1,0,1:0:0:0:
8,296,31357,6,0,L|88:344,1,78.3000006571198,2|4,2:0|3:0,0:0:0:0:
224,384,31691,1,2,2:0:0:0:
240,240,31857,1,0,1:0:0:0:
296,344,32024,1,2,2:0:0:0:
152,272,32191,1,4,3:0:0:0:
128,256,32274,1,0,1:0:0:0:
104,240,32357,1,2,2:0:0:0:
240,104,32524,1,0,1:0:0:0:
216,224,32691,1,2,2:0:0:0:
160,128,32857,5,4,3:0:0:0:
296,168,33024,2,0,L|384:144,1,78.3000006571198,2|0,2:0|1:0,0:0:0:0:
488,224,33357,2,0,L|336:184,1,156.60000131424,2|2,2:0|2:0,0:0:0:0:
336,184,33857,1,0,1:0:0:0:
424,312,34024,2,0,L|400:208,1,78.3000006571198,2|4,2:0|3:0,0:0:0:0:
360,56,34357,5,0,1:0:0:0:
464,152,34524,1,4,3:0:0:0:
432,8,34691,1,0,1:0:0:0:
384,136,34857,1,4,3:0:0:0:
512,40,35024,1,0,1:0:0:0:
368,48,35191,1,4,3:0:0:0:
344,56,35274,1,4,3:0:0:0:
320,64,35357,1,4,3:0:0:0:
296,72,35441,1,4,3:0:0:0:
272,80,35524,6,0,P|232:160|256:216,1,156.60000131424,4|0,3:2|1:0,0:0:0:0:
328,352,36024,2,0,L|336:240,1,78.3000006571198,2|4,2:0|3:0,0:0:0:0:
408,376,36357,1,2,2:0:0:0:
400,232,36524,1,0,1:0:0:0:
304,312,36691,6,0,P|264:336|200:336,1,78.3000006571198,2|4,2:0|3:0,0:0:0:0:
88,272,37024,1,2,2:0:0:0:
80,352,37191,2,0,L|176:368,1,78.3000006571198,0|2,1:0|2:0,0:0:0:0:
256,256,37524,1,4,3:0:0:0:
256,256,37607,2,0,L|248:192,1,39.1500003285599,0|2,1:0|2:0,0:0:0:0:
176,280,37857,2,0,L|160:176,1,78.3000006571198,0|2,1:0|2:0,0:0:0:0:
16,304,38191,5,4,3:0:0:0:
24,224,38357,2,0,P|0:264|8:312,1,78.3000006571198,2|0,2:0|1:0,0:0:0:0:
88,168,38691,2,0,P|128:112|128:56,1,117.45000098568,2|0,2:0|1:0,0:0:0:0:
112,48,39024,1,2,2:0:0:0:
0,104,39191,1,0,1:0:0:0:
72,144,39357,6,0,P|168:136|248:88,1,156.60000131424,2|2,2:0|2:0,0:0:0:0:
312,8,39857,1,0,1:0:0:0:
208,8,40024,1,4,3:0:0:0:
208,8,40107,1,4,3:0:0:0:
208,8,40191,2,0,P|224:24|248:40,1,39.1500003285599,0|0,1:0|0:0,0:0:0:0:
312,96,40357,5,0,1:0:0:0:
352,88,40441,1,0,1:0:0:0:
384,64,40524,1,0,1:0:0:0:
400,24,40607,1,0,1:0:0:0:
432,48,40691,1,0,1:0:0:0:
472,56,40774,1,0,1:0:0:0:
512,48,40857,6,0,P|528:104|480:192,1,135.000005149842,4|0,3:2|0:0,0:0:0:0:
368,304,41357,1,4,3:0:0:0:
328,232,41524,2,0,P|408:264|472:256,1,135.000005149842,4|0,3:0|1:0,0:0:0:0:
455,260,42024,1,0,0:0:0:0:
512,336,42191,6,0,L|432:344,1,67.5000025749208,4|0,3:0|0:0,0:0:0:0:
268,368,42524,2,0,L|336:376,1,67.5000025749208,2|4,2:0|3:0,0:0:0:0:
240,288,42857,2,0,P|176:288|112:328,1,135.000005149842,4|0,3:0|1:0,0:0:0:0:
116,323,43357,1,0,0:0:0:0:
32,296,43524,6,0,L|40:392,1,67.5000025749208,4|0,3:0|0:0,0:0:0:0:
96,240,43857,2,0,L|104:160,1,67.5000025749208,2|4,2:0|3:0,0:0:0:0:
64,32,44191,2,0,P|32:24|56:48,1,67.5000025749208,4|0,3:0|0:0,0:0:0:0:
0,136,44524,2,0,P|32:144|8:120,1,67.5000025749208,0|0,1:0|0:0,0:0:0:0:
144,56,44857,6,0,P|208:56|272:96,1,135.000005149842,4|2,3:0|2:0,0:0:0:0:
267,91,45357,1,4,3:0:0:0:
408,40,45524,2,0,L|320:48,1,67.5000025749208,4|0,3:0|0:0,0:0:0:0:
480,0,45857,1,0,1:0:0:0:
496,88,46023,1,4,3:0:0:0:
384,16,46191,6,0,L|368:104,1,67.5000025749208,4|0,3:2|0:0,0:0:0:0:
376,192,46524,1,0,0:0:0:0:
456,160,46691,1,4,3:0:0:0:
360,176,46857,6,0,P|312:224|328:304,1,135.000005149842,4|0,3:0|1:0,0:0:0:0:
392,368,47357,1,0,0:0:0:0:
432,296,47524,2,0,L|275:259,1,135.000005149842,4|2,3:0|2:0,0:0:0:0:
432,296,48024,1,4,3:0:0:0:
312,368,48191,2,0,L|216:384,1,67.5000025749208,4|0,3:0|0:0,0:0:0:0:
128,224,48524,6,0,P|192:248|216:336,1,135.000005149842,0|4,1:0|3:0,0:0:0:0:
48,192,49191,2,0,P|56:160|88:120,1,67.5000025749208,2|4,2:0|3:0,0:0:0:0:
152,112,49524,1,4,3:0:0:0:
0,256,49857,1,0,1:0:0:0:
24,72,50191,5,4,3:0:0:0:
168,24,50358,1,0,1:0:0:0:
72,8,50524,2,0,P|128:48|192:32,1,135.000005149842,0|0,1:0|1:0,0:0:0:0:
320,8,51024,1,4,3:0:0:0:
192,8,51191,2,0,L|280:56,1,67.5000025749208,0|0,1:0|0:0,0:0:0:0:
496,80,51524,6,0,P|440:48|360:48,1,117.45000098568,0|0,1:2|0:0,0:0:0:0:
368,64,51857,1,0,1:0:0:0:
400,144,52024,1,4,3:0:0:0:
312,128,52191,1,4,3:0:0:0:
344,208,52358,1,0,0:0:0:0:
256,192,52524,1,0,1:0:0:0:
288,272,52691,1,0,0:0:0:0:
376,288,52857,6,0,P|328:352|232:344,1,156.60000131424,4|0,3:0|1:0,0:0:0:0:
392,304,53357,2,0,L|488:296,1,78.3000006571198,4|4,3:0|3:0,0:0:0:0:
344,376,53691,1,0,1:0:0:0:
184,328,53857,2,0,L|192:232,1,78.3000006571198,0|0,1:0|0:0,0:0:0:0:
88,224,54191,6,0,L|112:408,1,156.60000131424,4|0,3:0|1:0,0:0:0:0:
108,379,54691,1,4,3:0:0:0:
0,256,54857,2,0,L|24:72,1,156.60000131424,4|0,3:0|1:0,0:0:0:0:
20,100,55357,1,0,0:0:0:0:
232,88,55524,2,0,P|184:136|72:128,1,156.60000131424,4|0,3:0|1:0,0:0:0:0:
8,24,56024,1,4,3:0:0:0:
152,0,56191,5,4,3:0:0:0:
88,56,56358,1,0,1:0:0:0:
200,104,56524,1,0,1:0:0:0:
226,115,56607,1,0,1:0:0:0:
255,119,56690,1,0,1:0:0:0:
284,116,56774,1,0,1:0:0:0:
312,105,56857,6,0,P|385:121|456:200,1,156.60000131424,0|0,1:2|1:0,0:0:0:0:
496,328,57357,1,4,3:0:0:0:
264,296,57524,2,0,P|312:240|424:248,1,156.60000131424,4|0,3:0|1:0,0:0:0:0:
432,384,58024,1,0,0:0:0:0:
280,376,58191,6,0,L|368:360,1,78.3000006571198,4|0,3:0|0:0,0:0:0:0:
160,280,58524,1,0,1:0:0:0:
120,352,58691,1,4,3:0:0:0:
16,240,58857,2,0,L|24:136,1,78.3000006571198,4|0,3:0|0:0,0:0:0:0:
88,48,59191,1,0,1:0:0:0:
93,86,59274,1,0,1:0:0:0:
99,125,59357,1,0,1:0:0:0:
104,164,59441,1,0,1:0:0:0:
106,199,59524,5,0,1:0:0:0:
396,140,59691,1,0,1:0:0:0:
110,203,59857,5,0,1:0:0:0:
400,144,60024,1,0,1:0:0:0:
256,176,60191,5,4,3:0:0:0:
456,208,60357,2,0,L|440:304,1,78.3000006571198,0|4,1:0|3:0,0:0:0:0:
184,128,60691,5,0,1:0:0:0:
424,368,60857,1,0,1:0:0:0:
112,352,61691,6,0,L|72:360,1,27.8999988931275,4|0,3:0|0:0,0:0:0:0:
64,360,61857,6,0,P|6:353|24:240,1,168.75,0|0,1:0|0:0,0:0:0:0:
88,144,62191,5,4,3:2:0:0:
256,288,62357,2,0,P|265:225|144:192,2,201.600002460938,2|2|2,2:0|2:0|2:0,0:0:0:0:
184,360,63191,1,0,1:0:0:0:
154,184,63357,2,0,P|265:225|256:288,1,201.600002460938,2|2,2:0|2:0,0:0:0:0:
224,136,63857,5,0,1:0:0:0:
192,336,64024,1,2,2:0:0:0:
288,184,64191,1,4,3:0:0:0:
312,352,64357,1,2,2:0:0:0:
288,328,64441,1,2,0:0:0:0:
264,304,64524,1,0,1:0:0:0:
392,352,64691,1,2,2:0:0:0:
427,269,64857,2,0,L|280:248,1,100.800001230469,4|2,3:0|2:0,0:0:0:0:
370,114,65191,6,0,P|427:107|475:83,1,112.5,2|0,1:0|0:0,0:0:0:0:
208,16,65524,2,0,P|264:24|320:48,1,112.5,2|4,1:0|3:0,0:0:0:0:
344,80,65774,1,2,0:0:0:0:
370,114,65857,1,4,3:0:0:0:
128,32,66024,6,0,P|56:120|96:256,1,225,2|0,1:0|1:0,0:0:0:0:
304,352,66524,1,4,3:0:0:0:
64,312,66691,1,0,1:0:0:0:
192,200,66857,1,4,3:0:0:0:
128,368,67024,1,0,1:0:0:0:
256,256,67191,5,12,1:0:0:0:
296,240,67274,1,0,1:0:0:0:
344,248,67357,1,0,1:0:0:0:
376,280,67441,1,0,1:0:0:0:
384,320,67524,6,0,P|432:272|432:176,1,135,4|0,3:2|0:0,0:0:0:0:
408,136,67857,2,0,L|256:152,1,151.200001845703,0|0,1:0|0:0,0:0:0:0:
208,88,68191,2,0,P|240:32|328:32,1,151.200001845703,4|0,3:0|0:0,0:0:0:0:
257,151,68524,2,0,P|193:111|89:135,1,151.200001845703,0|0,1:0|0:0,0:0:0:0:
328,104,68857,2,0,L|368:312,1,168.75,4|0,3:0|0:0,0:0:0:0:
296,320,69191,2,0,L|184:312,1,90,0|2,1:0|2:0,0:0:0:0:
40,288,69524,2,0,P|176:296|280:208,1,246.600006961212,4|0,3:0|1:0,0:0:0:0:
262,235,70024,1,2,2:0:0:0:
120,264,70191,2,0,P|120:320|152:392,1,112.5,4|2,3:0|2:0,0:0:0:0:
24,107,70524,6,0,L|256:83,1,184.950005220909,2|0,1:0|0:0,0:0:0:0:
384,96,70857,2,0,P|314:-7|184:32,1,246.600006961212,2|4,1:0|3:0,0:0:0:0:
432,240,71357,6,0,P|496:152|488:-32,1,246.600006961212,2|4,1:0|3:0,0:0:0:0:
272,144,71857,1,0,1:0:0:0:
448,256,72024,1,8,3:0:0:0:
248,224,72191,2,0,L|376:240,1,100.800001230469,4|4,3:0|3:0,0:0:0:0:
368,272,72441,1,4,3:0:0:0:
336,320,72524,5,12,3:1:0:0:
288,336,72607,1,8,3:0:0:0:
240,336,72691,1,8,3:0:0:0:
192,312,72774,1,4,3:0:0:0:
168,272,72857,5,4,3:2:0:0:
104,64,73024,2,0,L|88:168,1,100.800001230469,2|0,2:0|1:0,0:0:0:0:
56,320,73357,2,0,P|24:344|48:312,1,100.800001230469,2|4,2:0|3:0,0:0:0:0:
168,192,73691,2,0,P|216:168|280:176,1,100.800001230469,2|0,2:0|1:0,0:0:0:0:
32,232,74024,6,0,P|-8:112|8:16,1,201.600002460938,2|2,2:0|2:0,0:0:0:0:
232,8,74524,1,0,1:0:0:0:
80,80,74691,1,2,2:0:0:0:
312,24,74857,1,4,3:0:0:0:
128,16,75024,1,2,2:0:0:0:
152,40,75107,1,2,0:0:0:0:
184,72,75191,1,0,1:0:0:0:
128,184,75357,2,0,L|160:88,1,100.800001230469,2|4,2:0|3:0,0:0:0:0:
104,264,75691,1,2,2:0:0:0:
296,160,75857,6,0,L|328:304,1,112.5,2|0,1:0|0:0,0:0:0:0:
184,248,76191,2,0,B|320:232|224:160|432:144,1,225,2|0,1:0|1:0,0:0:0:0:
424,160,76607,1,2,0:0:0:0:
456,192,76691,1,4,3:0:0:0:
328,72,76857,6,0,L|448:56,1,112.5,2|4,1:0|3:0,0:0:0:0:
464,56,77107,1,4,3:0:0:0:
488,64,77191,2,0,P|512:88|528:176,1,112.5,0|4,1:0|3:0,0:0:0:0:
368,336,77524,2,0,P|360:280|400:216,1,112.5,4|0,3:0|1:0,0:0:0:0:
512,352,77857,6,4,L|424:344,1,61.6500017403031,12|4,1:0|1:0,0:0:0:0:
288,240,78024,2,0,L|200:248,1,61.6500017403031,0|0,1:0|1:0,0:0:0:0:
96,256,78191,6,0,P|96:152|176:152,1,201.600002460938,4|0,3:2|1:0,0:0:0:0:
172,149,78691,1,2,2:0:0:0:
168,304,78857,2,0,P|136:336|56:336,1,100.800001230469,4|2,3:0|2:0,0:0:0:0:
256,168,79191,2,0,P|328:120|440:112,1,184.950005220909,0|0,1:0|0:0,0:0:0:0:
448,120,79524,6,0,L|464:240,1,100.800001230469,4|2,3:0|2:0,0:0:0:0:
344,328,79857,2,0,L|208:344,1,100.800001230469,0|2,1:0|2:0,0:0:0:0:
416,288,80191,2,0,P|464:320|536:312,1,100.800001230469,4|2,3:0|2:0,0:0:0:0:
344,208,80524,2,0,P|344:184|352:216,1,112.5,0|2,1:0|2:0,0:0:0:0:
512,72,80857,2,0,P|480:16|352:32,1,168.75,4|0,3:0|0:0,0:0:0:0:
320,48,81191,6,0,L|80:80,1,184.950005220909,2|0,1:0|0:0,0:0:0:0:
0,256,81524,2,0,P|27:130|115:170,1,246.600006961212,2|4,1:0|3:0,0:0:0:0:
168,208,81941,1,0,0:0:0:0:
152,224,82024,1,0,1:0:0:0:
32,336,82191,5,4,3:0:0:0:
72,224,82357,1,4,3:0:0:0:
216,368,82524,1,0,1:0:0:0:
128,304,82691,1,8,3:0:0:0:
128,304,82774,1,8,3:0:0:0:
128,304,82857,2,0,P|168:272|248:272,1,100.800001230469,4|4,3:0|3:0,0:0:0:0:
464,312,83191,5,12,3:1:0:0:
416,328,83274,1,8,3:0:0:0:
368,344,83357,1,8,3:0:0:0:
320,360,83441,1,4,3:0:0:0:
272,376,83524,5,4,3:2:0:0:
272,376,83691,1,2,2:0:0:0:
296,216,83857,1,0,1:0:0:0:
296,216,84024,1,2,2:0:0:0:
184,360,84191,1,4,3:0:0:0:
184,360,84358,1,2,2:0:0:0:
232,160,84524,1,0,1:0:0:0:
232,160,84691,1,2,0:0:0:0:
272,376,84857,5,4,3:0:0:0:
160,104,85024,1,2,2:0:0:0:
120,296,85191,2,0,L|88:136,1,151.200001845703,0|0,1:0|0:0,0:0:0:0:
80,112,85524,2,0,P|32:120|16:216,1,135,4|0,3:0|0:0,0:0:0:0:
16,216,85857,2,0,L|37:325,1,90,0|2,1:0|2:0,0:0:0:0:
184,360,86191,5,4,3:0:0:0:
184,360,86358,1,2,2:0:0:0:
334,300,86524,1,0,1:0:0:0:
334,300,86691,1,2,2:0:0:0:
153,275,86858,1,4,3:0:0:0:
153,275,87025,1,2,2:0:0:0:
351,217,87191,1,0,1:0:0:0:
351,217,87358,1,2,0:0:0:0:
184,360,87524,5,4,3:0:0:0:
363,127,87691,1,2,2:0:0:0:
200,208,87857,1,0,1:0:0:0:
264,256,88024,1,2,2:0:0:0:
136,160,88191,2,0,L|152:40,1,100.800001230469,4|0,3:0|0:0,0:0:0:0:
440,64,88524,5,0,1:0:0:0:
472,112,88607,1,0,1:0:0:0:
464,168,88691,1,0,1:0:0:0:
416,200,88774,1,0,1:0:0:0:
360,184,88857,5,4,3:2:0:0:
232,32,89024,1,2,2:0:0:0:
288,216,89191,1,0,1:0:0:0:
304,8,89357,1,2,2:0:0:0:
216,176,89524,1,4,3:0:0:0:
368,48,89691,1,2,2:0:0:0:
176,96,89857,2,0,L|16:136,1,151.200001845703,0|0,1:0|0:0,0:0:0:0:
8,112,90191,5,4,3:0:0:0:
160,240,90357,1,2,2:0:0:0:
40,312,90524,2,0,L|64:176,1,100.800001230469,0|2,1:0|2:0,0:0:0:0:
216,304,90857,6,0,P|229:346|184:352,1,100.800001230469,4|2,3:0|2:0,0:0:0:0:
177,323,91107,1,0,0:0:0:0:
177,323,91191,2,0,L|281:363,1,100.800001230469,0|2,1:0|2:0,0:0:0:0:
432,368,91524,5,0,1:0:0:0:
272,184,91858,1,0,1:0:0:0:
432,368,92191,5,4,3:0:0:0:
440,336,92274,1,4,3:0:0:0:
448,304,92358,2,0,P|400:288|336:296,1,100.800001230469,0|0,1:0|0:0,0:0:0:0:
256,352,92691,1,0,1:0:0:0:
192,200,92858,5,4,3:0:0:0:
128,256,93024,2,0,P|168:280|248:264,1,100.800001230469,0|4,1:0|3:0,0:0:0:0:
344,208,93357,1,0,1:0:0:0:
184,384,93524,1,0,1:0:0:0:
88,184,93857,6,0,P|96:152|112:176,1,75,4|0,3:0|0:0,0:0:0:0:
464,48,94191,6,0,P|376:80|224:72,1,201.600002460938,4|0,3:2|1:0,0:0:0:0:
80,24,94691,1,2,2:0:0:0:
208,136,94857,1,4,3:0:0:0:
224,16,95024,1,2,2:0:0:0:
248,8,95108,1,0,0:0:0:0:
272,0,95191,1,0,1:0:0:0:
136,96,95357,2,0,L|0:112,1,100.800001230469,2|4,2:0|3:0,0:0:0:0:
272,184,95691,5,2,2:0:0:0:
168,232,95857,1,0,1:0:0:0:
352,168,96024,1,2,2:0:0:0:
104,288,96191,1,4,3:0:0:0:
328,240,96357,1,2,2:0:0:0:
160,352,96524,2,0,P|232:376|328:360,1,151.200001845703,0|0,1:0|0:0,0:0:0:0:
328,352,96857,6,0,P|368:328|440:328,1,100.800001230469,4|2,3:0|2:0,0:0:0:0:
224,280,97191,1,0,1:0:0:0:
408,240,97357,2,0,P|432:208|392:48,1,201.600002460938,2|2,2:0|2:0,0:0:0:0:
384,40,97774,1,0,0:0:0:0:
384,40,97857,2,0,L|504:16,1,100.800001230469,0|2,1:0|2:0,0:0:0:0:
344,112,98191,1,4,3:0:0:0:
304,8,98357,5,2,2:0:0:0:
272,168,98524,1,0,1:0:0:0:
224,40,98691,1,2,2:0:0:0:
200,208,98857,1,4,3:0:0:0:
336,96,99024,1,2,2:0:0:0:
168,104,99191,1,0,1:0:0:0:
120,112,99274,1,0,1:0:0:0:
80,144,99357,1,0,1:0:0:0:
64,192,99440,1,0,1:0:0:0:
80,240,99524,5,4,3:2:0:0:
40,72,99691,1,2,2:0:0:0:
0,272,99857,1,0,1:0:0:0:
208,176,100024,1,2,2:0:0:0:
224,368,100191,1,4,3:0:0:0:
136,336,100357,1,2,2:0:0:0:
96,352,100441,1,0,0:0:0:0:
56,368,100524,1,0,1:0:0:0:
200,288,100691,2,0,P|248:288|304:336,1,100.800001230469,2|4,2:0|3:0,0:0:0:0:
424,368,101024,5,2,2:0:0:0:
448,216,101191,1,0,1:0:0:0:
344,376,101357,1,2,2:0:0:0:
376,176,101524,1,4,3:0:0:0:
504,304,101691,1,2,2:0:0:0:
296,184,101857,2,0,P|272:144|280:72,1,100.800001230469,0|2,1:0|2:0,0:0:0:0:
392,0,102191,5,4,3:0:0:0:
192,112,102357,1,2,2:0:0:0:
352,72,102524,1,0,1:0:0:0:
216,32,102691,1,2,2:0:0:0:
408,136,102857,1,4,3:0:0:0:
296,8,103024,1,2,2:0:0:0:
296,8,103107,1,0,0:0:0:0:
296,8,103191,1,0,1:0:0:0:
136,56,103357,2,0,L|24:72,1,100.800001230469,2|4,2:0|3:0,0:0:0:0:
240,176,103691,5,0,1:0:0:0:
72,144,103857,1,0,1:0:0:0:
288,248,104024,1,0,1:0:0:0:
16,192,104191,1,0,1:0:0:0:
336,320,104357,1,4,3:0:0:0:
0,264,104524,2,0,P|64:224|136:232,1,151.200001845703,0|0,1:0|0:0,0:0:0:0:
159,240,104857,6,0,P|168:288|96:344,1,135.000005149842,2|2,2:0|2:0,0:0:0:0:
200,384,105357,1,2,2:0:0:0:
320,296,105691,6,0,L|328:256,1,33.7500012874604,2|2,2:0|0:0,0:0:0:0:
320,248,105857,1,2,2:0:0:0:
256,192,106024,1,2,2:0:0:0:
