osu file format v14

[General]
AudioFilename: audio.mp3
AudioLeadIn: 0
PreviewTime: 163227
Countdown: 0
SampleSet: Soft
StackLeniency: 0.7
Mode: 0
LetterboxInBreaks: 0
WidescreenStoryboard: 0

[Editor]
DistanceSpacing: 0.4
BeatDivisor: 6
GridSize: 32
TimelineZoom: 1.2

[Metadata]
Title:A New Start
TitleUnicode:A New Start
Artist:Nanashi Mumei
ArtistUnicode:Nanashi Mumei
Creator:SMOKELIND
Version:x
Source:
Tags:Folk English 七詩ムメイ Japanese ホロライブ hololiveEN EN 2nd Generation Council frozz -Keqing Shikibe Mayu Shizuku- Kazato Asa Virtual youtuber vtuber ななしむめい 2 original song Tomoari Taguma 田熊知存 Dream Monster
BeatmapID:3484852
BeatmapSetID:1705429

[Difficulty]
HPDrainRate:5
CircleSize:4.2
OverallDifficulty:9
ApproachRate:9.3
SliderMultiplier:3.07
SliderTickRate:1

[Events]
//Background and Video events
0,0,"BG.jpg",0,0
Video,-54,"vid.mp4"
//Break Periods
//Storyboard Layer 0 (Background)
//Storyboard Layer 1 (Fail)
//Storyboard Layer 2 (Pass)
//Storyboard Layer 3 (Foreground)
//Storyboard Layer 4 (Overlay)
//Storyboard Sound Samples

[TimingPoints]
-773,500,4,2,77,27,1,0
227,-370.37037037037,4,2,77,27,0,0
727,-370.37037037037,4,2,77,37,0,0
977,-370.37037037037,4,2,77,47,0,0
1227,500,4,2,77,77,1,0
1227,-129.870129870131,4,2,77,77,0,0
3476,-129.870129870131,4,2,77,5,0,0
3560,-129.870129870131,4,2,77,77,0,0
3727,-114.942528735633,4,2,77,77,0,0
3976,-114.942528735633,4,2,77,5,0,0
4060,-114.942528735633,4,2,77,77,0,0
4227,-103.092783505155,4,2,77,77,0,0
4727,-129.870129870131,4,2,77,77,0,0
11143,-129.870129870131,4,2,77,5,0,0
11227,-129.870129870131,4,2,77,77,0,0
11727,-129.870129870131,4,2,77,77,0,0
13227,500,4,2,77,57,1,0
13227,-149.253731343285,4,2,77,57,0,0
13976,-149.253731343285,4,2,77,5,0,0
14060,-149.253731343285,4,2,77,57,0,0
17976,-149.253731343285,4,2,77,5,0,0
18060,-149.253731343285,4,2,77,57,0,0
21976,-149.253731343285,4,2,77,5,0,0
22060,-149.253731343285,4,2,77,57,0,0
23476,-149.253731343285,4,2,77,5,0,0
23560,-149.253731343285,4,2,77,57,0,0
23976,-149.253731343285,4,2,77,5,0,0
24060,-149.253731343285,4,2,77,57,0,0
25976,-149.253731343285,4,2,77,5,0,0
26060,-149.253731343285,4,2,77,57,0,0
26476,-149.253731343285,4,2,77,5,0,0
26560,-149.253731343285,4,2,77,57,0,0
29142,-149.253731343285,4,2,77,5,0,0
29227,-149.253731343285,4,2,77,57,0,0
30476,-149.253731343285,4,2,77,5,0,0
30560,-149.253731343285,4,2,77,57,0,0
30976,-149.253731343285,4,2,77,5,0,0
31060,-149.253731343285,4,2,77,57,0,0
31975,-149.253731343285,4,2,77,5,0,0
32060,-149.253731343285,4,2,77,57,0,0
32476,-149.253731343285,4,2,77,5,0,0
32560,-149.253731343285,4,2,77,57,0,0
35560,-149.253731343285,4,2,77,5,0,0
35727,-129.870129870131,4,2,77,57,0,0
36060,-149.253731343285,4,2,77,5,0,0
36227,-114.942528735633,4,2,77,57,0,0
36560,-149.253731343285,4,2,77,5,0,0
36727,-103.092783505156,4,2,77,57,0,0
37060,-149.253731343285,4,2,77,5,0,0
37227,-93.4579439252342,4,2,77,67,0,0
37727,-85.4700854700857,4,2,77,67,0,0
38227,-78.7401574803156,4,2,77,77,0,0
38727,-72.9927007299275,4,2,77,77,0,0
39227,500,4,2,77,87,1,0
39227,-68.0272108843537,4,2,77,87,0,0
39477,-93.4579439252336,4,2,77,87,0,0
43414,-93.4579439252336,4,2,77,5,0,0
43477,-93.4579439252336,4,2,77,87,0,0
43914,-93.4579439252336,4,2,77,5,0,0
43977,-93.4579439252336,4,2,77,87,0,0
45414,-93.4579439252336,4,2,77,5,0,0
45477,-175.438596491228,4,2,77,87,0,0
45727,-85.4700854700855,4,2,77,87,0,0
45914,-85.4700854700855,4,2,77,5,0,0
45977,-175.438596491228,4,2,77,87,0,0
46227,-78.7401574803149,4,2,77,87,0,0
46727,-93.4579439252336,4,2,77,87,0,0
47414,-93.4579439252336,4,2,77,5,0,0
47477,-93.4579439252336,4,2,77,87,0,0
51414,-93.4579439252336,4,2,77,5,0,0
51477,-93.4579439252336,4,2,77,87,0,0
51914,-93.4579439252336,4,2,77,5,0,0
51977,-93.4579439252336,4,2,77,87,0,0
53476,-93.4579439252336,4,2,77,5,0,0
53602,-93.4579439252336,4,2,77,87,0,0
55227,-68.0272108843537,4,2,77,87,0,0
55414,-68.0272108843537,4,2,77,5,0,0
55477,-93.4579439252336,4,2,77,87,0,0
59914,-93.4579439252336,4,2,77,5,0,0
59977,-93.4579439252336,4,2,77,87,0,0
61414,-93.4579439252336,4,2,77,5,0,0
61477,-175.438596491228,4,2,77,87,0,0
61727,-85.4700854700855,4,2,77,87,0,0
61914,-85.4700854700855,4,2,77,5,0,0
61977,-175.438596491228,4,2,77,87,0,0
62227,-78.7401574803149,4,2,77,87,0,0
62727,-93.4579439252336,4,2,77,87,0,0
63414,-93.4579439252336,4,2,77,5,0,0
63477,-93.4579439252336,4,2,77,87,0,0
67414,-93.4579439252336,4,2,77,5,0,0
67477,-93.4579439252336,4,2,77,87,0,0
67914,-93.4579439252336,4,2,77,5,0,0
67977,-93.4579439252336,4,2,77,87,0,0
71227,-129.87012987013,4,2,77,77,0,0
72476,-129.87012987013,4,2,77,5,0,0
72560,-129.87012987013,4,2,77,77,0,0
79227,-175.438596491228,4,2,77,47,0,0
80893,-370.37037037037,4,2,77,47,0,0
81227,500,4,2,77,47,1,0
81227,-175.438596491228,4,2,77,47,0,0
81976,-175.438596491228,4,2,77,5,0,0
82060,-175.438596491228,4,2,77,47,0,0
83143,-175.438596491228,4,2,77,5,0,0
83227,-175.438596491228,4,2,77,47,0,0
84976,-175.438596491228,4,2,77,5,0,0
85060,-175.438596491228,4,2,77,47,0,0
86643,-175.438596491228,4,2,77,5,0,0
86727,-175.438596491228,4,2,77,47,0,0
86976,-175.438596491228,4,2,77,5,0,0
87060,-175.438596491228,4,2,77,47,0,0
89227,-149.253731343285,4,2,77,57,0,0
89976,-149.253731343285,4,2,77,5,0,0
90060,-149.253731343285,4,2,77,57,0,0
91476,-149.253731343285,4,2,77,5,0,0
91560,-149.253731343285,4,2,77,57,0,0
91976,-149.253731343285,4,2,77,5,0,0
92060,-149.253731343285,4,2,77,57,0,0
93976,-149.253731343285,4,2,77,5,0,0
94060,-149.253731343285,4,2,77,57,0,0
94476,-149.253731343285,4,2,77,5,0,0
94560,-149.253731343285,4,2,77,57,0,0
97142,-149.253731343285,4,2,77,5,0,0
97227,-149.253731343285,4,2,77,57,0,0
103560,-149.253731343285,4,2,77,5,0,0
103727,-129.870129870131,4,2,77,57,0,0
104060,-149.253731343285,4,2,77,5,0,0
104227,-114.942528735633,4,2,77,57,0,0
104560,-149.253731343285,4,2,77,5,0,0
104727,-103.092783505156,4,2,77,57,0,0
105060,-149.253731343285,4,2,77,5,0,0
105227,-93.4579439252342,4,2,77,67,0,0
105727,-85.4700854700857,4,2,77,67,0,0
106227,-78.7401574803156,4,2,77,77,0,0
106727,-72.9927007299275,4,2,77,77,0,0
107227,500,4,2,77,87,1,0
107227,-68.0272108843537,4,2,77,87,0,0
107477,-93.4579439252336,4,2,77,87,0,0
111414,-93.4579439252336,4,2,77,5,0,0
111477,-93.4579439252336,4,2,77,87,0,0
111914,-93.4579439252336,4,2,77,5,0,0
111977,-93.4579439252336,4,2,77,87,0,0
113414,-93.4579439252336,4,2,77,5,0,0
113477,-175.438596491228,4,2,77,87,0,0
113727,-85.4700854700855,4,2,77,87,0,0
113914,-85.4700854700855,4,2,77,5,0,0
113977,-175.438596491228,4,2,77,87,0,0
114227,-78.7401574803149,4,2,77,87,0,0
114727,-93.4579439252336,4,2,77,87,0,0
115414,-93.4579439252336,4,2,77,5,0,0
115477,-93.4579439252336,4,2,77,87,0,0
119414,-93.4579439252336,4,2,77,5,0,0
119477,-93.4579439252336,4,2,77,87,0,0
119914,-93.4579439252336,4,2,77,5,0,0
119977,-93.4579439252336,4,2,77,87,0,0
121476,-93.4579439252336,4,2,77,5,0,0
121602,-93.4579439252336,4,2,77,87,0,0
123227,-68.0272108843537,4,2,77,87,0,0
123414,-68.0272108843537,4,2,77,5,0,0
123477,-93.4579439252336,4,2,77,87,0,0
129414,-93.4579439252336,4,2,77,5,0,0
129477,-175.438596491228,4,2,77,87,0,0
129727,-85.4700854700855,4,2,77,87,0,0
129914,-85.4700854700855,4,2,77,5,0,0
129977,-175.438596491228,4,2,77,87,0,0
130227,-78.7401574803149,4,2,77,87,0,0
130727,-93.4579439252336,4,2,77,87,0,0
131414,-93.4579439252336,4,2,77,5,0,0
131477,-93.4579439252336,4,2,77,87,0,0
135414,-93.4579439252336,4,2,77,5,0,0
135477,-93.4579439252336,4,2,77,87,0,0
135914,-93.4579439252336,4,2,77,5,0,0
135977,-93.4579439252336,4,2,77,87,0,0
139227,-129.87012987013,4,2,77,77,0,0
157727,-114.942528735633,4,2,77,57,0,0
158227,-103.092783505156,4,2,77,57,0,0
158727,-93.4579439252345,4,2,77,57,0,0
159227,-129.87012987013,4,2,77,77,0,0
163227,-370.370370370372,4,2,77,47,0,0
163727,-370.370370370372,4,2,77,27,0,0
170727,-212.765957446809,4,2,77,47,0,0
171227,-93.4579439252342,4,2,77,67,0,0
171727,-85.4700854700857,4,2,77,67,0,0
172227,-78.7401574803156,4,2,77,77,0,0
172727,-72.9927007299275,4,2,77,77,0,0
173227,500,4,2,77,87,1,0
173227,-68.0272108843537,4,2,77,87,0,0
173477,-93.4579439252336,4,2,77,87,0,0
177414,-93.4579439252336,4,2,77,5,0,0
177477,-93.4579439252336,4,2,77,87,0,0
179477,-175.438596491228,4,2,77,87,0,0
179664,-175.438596491228,4,2,77,5,0,0
179727,-85.4700854700855,4,2,77,87,0,0
179977,-175.438596491228,4,2,77,87,0,0
180164,-175.438596491228,4,2,77,5,0,0
180227,-78.7401574803149,4,2,77,87,0,0
180727,-93.4579439252336,4,2,77,87,0,0
181414,-93.4579439252336,4,2,77,5,0,0
181477,-93.4579439252336,4,2,77,87,0,0
185414,-93.4579439252336,4,2,77,5,0,0
185477,-93.4579439252336,4,2,77,87,0,0
187476,-93.4579439252336,4,2,77,5,0,0
187602,-93.4579439252336,4,2,77,87,0,0
189227,-68.0272108843537,4,2,77,87,0,0
189414,-68.0272108843537,4,2,77,5,0,0
189477,-93.4579439252336,4,2,77,87,0,0
191414,-93.4579439252336,4,2,77,5,0,0
191477,-93.4579439252336,4,2,77,87,0,0
195414,-93.4579439252336,4,2,77,5,0,0
195477,-175.438596491228,4,2,77,87,0,0
195727,-85.4700854700855,4,2,77,87,0,0
195914,-85.4700854700855,4,2,77,5,0,0
195977,-175.438596491228,4,2,77,87,0,0
196227,-78.7401574803149,4,2,77,87,0,0
196727,-93.4579439252336,4,2,77,87,0,0
197414,-93.4579439252336,4,2,77,5,0,0
197477,-93.4579439252336,4,2,77,87,0,0
201414,-93.4579439252336,4,2,77,5,0,0
201477,-93.4579439252336,4,2,77,87,0,0
203414,-93.4579439252336,4,2,77,5,0,0
203477,-93.4579439252336,4,2,77,87,0,0
205227,-129.87012987013,4,2,77,77,0,0
207976,-129.87012987013,4,2,77,5,0,0
208060,-129.87012987013,4,2,77,77,0,0
213227,-129.870129870131,4,2,77,77,0,0
215476,-129.870129870131,4,2,77,5,0,0
215561,-129.870129870131,4,2,77,77,0,0
215727,-114.942528735633,4,2,77,77,0,0
215976,-114.942528735633,4,2,77,5,0,0
216061,-114.942528735633,4,2,77,77,0,0
216227,-103.092783505155,4,2,77,77,0,0
216727,-129.870129870131,4,2,77,77,0,0
219643,-129.870129870131,4,2,77,5,0,0
219728,-129.870129870131,4,2,77,77,0,0
222227,-212.765957446812,4,2,77,77,0,0
222352,-370.370370370381,4,2,77,5,0,0

[Colours]
Combo1 : 255,213,170
Combo2 : 255,170,200

[HitObjects]
83,125,227,6,0,L|85:104,8,13.8150003372803,0|0|0|0|0|0|0|0|0,3:0|3:0|3:0|3:0|3:0|3:0|3:0|3:0|3:0,3:0:0:0:
137,190,977,1,0,3:0:0:0:
147,194,1060,1,0,3:0:0:0:
157,196,1143,1,0,3:0:0:0:
168,196,1227,1,6,1:0:0:0:
227,143,1393,1,2,3:0:0:0:
325,182,1560,1,2,3:0:0:0:
469,69,1727,2,0,P|396:59|309:73,1,157.593330207245,2|0,3:0|0:0,0:0:0:0:
400,256,2227,5,6,1:0:0:0:
410,249,2310,2,0,P|417:209|417:168,1,78.7966651036225,2|0,0:0|3:0,0:0:0:0:
417,170,2560,1,2,3:0:0:0:
304,285,2727,1,0,3:0:0:0:
329,360,2893,1,0,3:0:0:0:
312,271,3060,1,2,3:0:0:0:
116,305,3227,6,0,P|176:320|241:348,1,118.194997655434,6|0,1:0|2:0,0:0:0:0:
235,352,3560,1,0,3:0:0:0:
53,241,3727,5,6,1:0:0:0:
64,233,3810,2,0,P|68:188|77:141,1,89.0300007471695,0|0,0:0|2:0,0:0:0:0:
76,144,4060,1,2,3:0:0:0:
166,28,4227,6,0,P|195:73|169:114,1,99.2633356810227,6|0,1:0|0:0,0:0:0:0:
176,109,4477,1,0,3:0:0:0:
176,109,4560,1,0,3:0:0:0:
295,179,4727,1,2,3:0:0:0:
370,129,4893,1,0,3:0:0:0:
440,161,5060,1,0,3:0:0:0:
437,87,5227,5,6,1:0:0:0:
374,213,5393,1,2,0:0:0:0:
468,315,5560,1,2,3:0:0:0:
401,359,5727,6,0,P|363:349|320:341,1,78.7966651036225,2|0,3:0|3:0,0:0:0:0:
140,230,6060,1,0,3:0:0:0:
212,292,6227,1,6,1:2:0:0:
202,285,6310,2,0,P|192:239|193:180,1,78.7966651036225,0|0,0:0|3:0,0:0:0:0:
190,207,6560,1,2,3:0:0:0:
101,114,6727,1,0,3:0:0:0:
33,161,6893,1,0,3:0:0:0:
43,62,7060,1,2,3:0:0:0:
192,121,7227,6,0,P|235:123|294:138,1,78.7966651036225,6|0,1:0|3:0,0:0:0:0:
269,130,7477,1,0,3:0:0:0:
269,130,7560,1,0,3:0:0:0:
445,104,7727,1,2,3:0:0:0:
393,44,7893,1,0,3:0:0:0:
317,66,8060,1,2,3:0:0:0:
368,134,8227,5,2,3:0:0:0:
369,141,8310,1,0,3:0:0:0:
370,148,8393,1,0,3:0:0:0:
322,211,8560,1,2,3:0:0:0:
398,305,8727,1,2,3:0:0:0:
396,320,8810,1,0,3:0:0:0:
393,335,8893,1,0,3:0:0:0:
459,256,9060,1,2,3:0:0:0:
291,316,9227,6,0,B|266:291|217:291|192:340|192:340|168:389|119:389|94:365,1,236.389995310867,6|0,1:0|3:0,0:0:0:0:
68,259,9893,1,0,3:0:0:0:
41,151,10060,1,0,3:0:0:0:
112,66,10227,1,0,3:0:0:0:
182,97,10393,1,8,0:3:0:0:
133,168,10560,1,8,0:3:0:0:
128,152,10727,1,4,0:3:0:0:
278,228,10893,1,6,0:3:0:0:
312,120,11060,2,0,P|316:139|324:161,1,39.3983325518112,6|0,0:3|2:0,0:0:0:0:
278,228,11227,6,0,P|313:194|359:200,1,78.7966651036225,6|0,1:0|0:0,0:0:0:0:
340,192,11477,1,0,3:0:0:0:
340,192,11560,1,0,3:0:0:0:
400,263,11727,1,0,3:0:0:0:
467,223,11893,1,0,3:0:0:0:
424,156,12060,1,0,3:0:0:0:
501,12,12227,1,8,0:0:0:0:
501,12,13227,5,2,1:0:0:0:
447,64,13393,1,2,3:0:0:0:
312,28,13560,1,2,3:0:0:0:
371,74,13727,2,0,P|377:112|395:183,1,102.844995135201,10|0,0:0|2:0,0:0:0:0:
392,174,14060,1,2,3:0:0:0:
280,122,14227,2,0,P|241:115|213:108,1,68.5633300901338,2|0,1:0|3:0,0:0:0:0:
213,108,14477,1,0,3:0:0:0:
214,109,14560,1,0,3:0:0:0:
299,249,14727,2,0,P|270:255|229:259,1,68.5633300901338,10|0,0:0|3:0,0:0:0:0:
187,195,15060,1,2,3:0:0:0:
82,306,15227,6,0,P|129:311|150:267,1,102.844995135201,2|0,1:0|3:0,0:0:0:0:
150,266,15560,1,0,3:0:0:0:
51,167,15727,2,0,P|46:195|38:240,1,68.5633300901338,8|0,0:0|3:0,0:0:0:0:
40,158,16060,1,2,3:0:0:0:
137,104,16227,2,0,P|165:111|212:119,2,68.5633300901338,2|0|0,1:0|3:0|3:0,0:0:0:0:
90,11,16727,1,10,0:0:0:0:
227,193,17060,1,2,3:0:0:0:
298,167,17227,6,0,P|310:97|302:28,1,137.126660180268,2|0,1:0|3:0,0:0:0:0:
457,182,17727,2,0,P|407:187|356:231,1,102.844995135201,10|0,0:0|2:0,0:0:0:0:
365,217,18060,1,2,3:0:0:0:
316,331,18227,2,0,P|301:301|299:250,1,68.5633300901338,2|0,1:0|3:0,0:0:0:0:
297,267,18477,1,0,3:0:0:0:
297,267,18560,1,0,3:0:0:0:
177,364,18727,2,0,P|213:371|257:396,1,68.5633300901338,10|0,0:0|3:0,0:0:0:0:
186,230,19060,1,2,3:0:0:0:
113,260,19227,6,0,P|108:297|96:332,1,68.5633300901338,2|0,1:0|3:0,0:0:0:0:
20,311,19477,1,0,3:0:0:0:
20,311,19560,2,0,P|25:279|37:239,1,68.5633300901338,0|8,3:0|0:0,0:0:0:0:
104,165,19893,1,2,3:0:0:0:
61,96,20060,1,2,3:0:0:0:
189,181,20227,5,2,1:0:0:0:
263,169,20393,1,0,3:0:0:0:
337,155,20560,1,0,3:0:0:0:
337,155,21227,5,6,1:0:0:0:
359,73,21393,1,2,3:0:0:0:
250,177,21560,1,2,3:0:0:0:
375,261,21727,2,0,P|426:244|487:233,1,102.844995135201,10|0,0:0|2:0,0:0:0:0:
474,234,22060,1,2,3:0:0:0:
303,320,22227,2,0,P|266:307|225:299,1,68.5633300901338,2|0,1:0|3:0,0:0:0:0:
237,300,22477,1,0,3:0:0:0:
238,301,22560,1,0,3:0:0:0:
202,144,22727,2,0,P|210:182|225:221,1,68.5633300901338,10|0,0:0|3:0,0:0:0:0:
256,82,23060,1,2,3:0:0:0:
130,195,23227,6,0,P|88:187|82:111,1,102.844995135201,2|0,1:0|2:0,0:0:0:0:
68,135,23560,1,0,3:0:0:0:
232,23,23727,2,0,P|291:31|352:37,1,102.844995135201,10|0,0:0|2:0,0:0:0:0:
334,35,24060,1,2,3:0:0:0:
375,163,24227,2,0,P|380:128|392:88,1,68.5633300901338,2|0,1:0|3:0,0:0:0:0:
452,197,24560,1,0,3:0:0:0:
296,128,24727,1,10,0:0:0:0:
168,336,25060,1,2,3:0:0:0:
209,277,25227,6,0,B|285:251|259:327|336:302,1,137.126660180268,2|0,1:0|3:0,0:0:0:0:
188,143,25727,2,0,P|145:174|150:231,1,102.844995135201,10|0,0:0|2:0,0:0:0:0:
144,220,26060,1,2,3:0:0:0:
56,132,26227,2,0,P|53:80|48:29,1,102.844995135201,2|0,1:0|2:0,0:0:0:0:
48,29,26560,1,2,3:0:0:0:
132,84,26727,1,8,0:0:0:0:
264,35,26893,1,2,3:0:0:0:
187,17,27060,1,2,3:0:0:0:
283,143,27227,6,0,P|310:115|350:108,1,68.5633300901338,2|0,1:0|3:0,0:0:0:0:
337,107,27477,1,0,3:0:0:0:
337,107,27560,1,0,3:0:0:0:
390,50,27727,1,8,0:0:0:0:
494,139,27893,1,0,3:0:0:0:
469,64,28060,1,0,3:0:0:0:
413,171,28227,5,0,1:0:0:0:
419,250,28393,1,0,3:0:0:0:
401,268,28560,1,8,0:3:0:0:
404,278,28727,1,4,0:3:0:0:
348,336,28893,2,0,P|316:323|246:313,1,102.844995135201,12|0,0:3|2:0,0:0:0:0:
248,313,29227,5,6,1:0:0:0:
176,351,29393,1,2,0:0:0:0:
112,298,29560,1,2,0:0:0:0:
169,198,29727,2,0,P|175:236|186:282,1,68.5633300901338,2|0,3:0|0:0,0:0:0:0:
181,265,30060,1,2,0:0:0:0:
47,173,30227,2,0,P|93:154|109:100,1,102.844995135201,10|0,0:0|2:0,0:0:0:0:
109,106,30560,1,2,0:0:0:0:
201,55,30727,1,0,0:0:0:0:
214,56,30810,1,0,0:0:0:0:
227,58,30893,2,0,P|226:76|220:93,1,34.2816650450669,0|0,0:0|2:0,0:0:0:0:
220,91,31060,1,0,0:0:0:0:
336,190,31227,5,2,1:0:0:0:
304,114,31393,1,2,0:0:0:0:
349,45,31560,1,2,1:0:0:0:
249,187,31726,2,0,P|213:192|136:215,1,102.844995135201,2|0,3:0|2:0,0:0:0:0:
149,210,32060,1,2,0:0:0:0:
284,356,32227,2,0,P|267:313|296:248,1,102.844995135201,10|0,0:0|2:0,0:0:0:0:
288,265,32560,2,0,P|275:297|279:332,2,68.5633300901338,2|0|0,3:0|0:0|3:0,0:0:0:0:
367,237,33060,1,2,0:0:0:0:
390,47,33227,5,6,1:0:0:0:
293,81,33393,1,2,3:0:0:0:
304,183,33560,1,2,3:0:0:0:
217,38,33727,1,10,0:0:0:0:
217,38,34227,5,6,1:0:0:0:
127,87,34393,1,2,3:0:0:0:
211,145,34560,1,2,3:0:0:0:
74,219,34727,1,10,0:0:0:0:
330,375,35060,1,2,3:0:0:0:
400,350,35227,6,0,P|407:287|426:207,1,137.126660180268,6|0,1:0|0:0,0:0:0:0:
260,335,35727,2,0,P|269:260|292:165,1,157.593330207245,4|0,1:0|0:0,0:0:0:0:
391,43,36227,6,0,B|427:4|485:60|449:136|354:118,1,178.060001494339,4|0,1:0|0:0,0:0:0:0:
205,81,36727,2,0,B|151:69|168:-9|254:-19|290:71,1,198.526671362045,4|0,1:0|0:0,0:0:0:0:
362,238,37227,5,6,1:0:0:0:
385,227,37352,1,2,0:0:0:0:
397,205,37477,1,10,0:0:0:0:
397,180,37602,1,2,0:0:0:0:
296,282,37727,5,6,1:0:0:0:
321,312,37852,1,2,0:0:0:0:
357,322,37977,1,10,0:0:0:0:
394,313,38102,1,2,0:0:0:0:
241,208,38227,5,6,1:0:0:0:
209,251,38352,1,2,0:0:0:0:
207,303,38477,1,10,0:0:0:0:
230,350,38602,1,10,0:0:0:0:
94,264,38727,5,14,1:2:0:0:
152,184,38852,1,2,3:0:0:0:
43,90,38977,1,2,3:0:0:0:
66,177,39102,1,2,3:0:0:0:
43,90,39227,6,0,B|156:51|117:203|231:164,1,225.644989498639,6|10,1:0|0:0,0:0:0:0:
231,164,39602,1,0,0:0:0:0:
290,46,39727,2,0,P|258:63|208:76,1,82.1224974938203,2|0,1:0|3:0,0:0:0:0:
422,113,39977,1,10,0:0:0:0:
424,97,40102,1,0,0:0:0:0:
336,155,40227,2,0,P|349:231|367:329,1,164.244994987641,0|8,1:0|0:0,0:0:0:0:
435,350,40602,1,0,0:0:0:0:
269,241,40727,5,2,1:0:0:0:
195,264,40852,1,0,3:0:0:0:
257,336,40977,1,10,0:0:0:0:
259,320,41102,1,0,0:0:0:0:
126,212,41227,6,0,P|119:252|106:304,1,82.1224974938203,2|0,1:0|0:0,0:0:0:0:
193,148,41477,2,0,P|230:132|281:116,1,82.1224974938203,10|0,0:0|0:0,0:0:0:0:
106,119,41727,1,2,1:0:0:0:
97,107,41852,1,0,3:0:0:0:
172,50,41977,2,0,P|209:34|260:18,1,82.1224974938203,10|0,0:0|0:0,0:0:0:0:
444,159,42227,2,0,B|514:122|501:54|434:45|429:89,1,164.244994987641,2|8,1:0|0:0,0:0:0:0:
430,84,42602,1,0,0:0:0:0:
365,215,42727,2,0,P|360:175|356:125,1,82.1224974938203,2|0,1:0|0:0,0:0:0:0:
447,234,42977,1,10,0:0:0:0:
461,238,43102,1,0,3:0:0:0:
390,311,43227,6,0,P|335:325|268:357,1,123.18374624073,2|0,1:0|2:0,0:0:0:0:
274,352,43477,2,0,P|243:324|238:285,1,82.1224974938203,10|0,0:0|0:0,0:0:0:0:
261,102,43727,2,0,P|297:140|266:202,1,123.18374624073,2|0,1:0|2:0,0:0:0:0:
272,198,43977,2,0,P|232:204|179:216,1,82.1224974938203,10|0,0:0|0:0,0:0:0:0:
52,134,44227,1,0,1:0:0:0:
55,118,44352,1,0,0:0:0:0:
119,175,44477,1,10,0:0:0:0:
48,214,44602,1,0,3:0:0:0:
140,93,44727,2,0,P|132:54|124:0,1,82.1224974938203,2|0,1:0|0:0,0:0:0:0:
361,139,44977,2,0,P|367:180|375:221,1,82.1224974938203,10|0,0:0|3:0,0:0:0:0:
287,323,45227,6,0,P|239:298|168:286,1,123.18374624073,6|0,1:0|2:0,0:0:0:0:
109,327,45477,2,0,P|99:305|95:282,1,43.7474994659729,10|0,0:0|0:0,0:0:0:0:
219,81,45727,6,0,P|267:56|349:43,1,134.696250513825,6|0,1:0|2:0,0:0:0:0:
410,85,45977,2,0,P|420:63|425:41,1,43.7474994659729,10|0,0:0|0:0,0:0:0:0:
339,128,46227,6,0,B|312:160|319:220|382:243|382:243|447:266|454:325|427:359,1,292.417497769032,6|0,1:0|0:0,0:0:0:0:
245,362,46727,1,10,0:0:0:0:
264,287,46852,1,0,3:0:0:0:
164,234,46977,1,10,0:0:0:0:
182,309,47102,1,0,3:0:0:0:
164,234,47227,6,0,P|171:172|176:111,1,123.18374624073,6|0,1:0|2:0,0:0:0:0:
176,110,47477,2,0,P|134:104|74:94,1,82.1224974938203,10|0,0:0|0:0,0:0:0:0:
297,218,47727,1,2,1:0:0:0:
342,146,47852,1,0,3:0:0:0:
253,56,47977,2,0,P|257:98|265:147,1,82.1224974938203,10|0,0:0|0:0,0:0:0:0:
337,296,48227,2,0,B|401:303|429:340|494:347,1,164.244994987641,0|8,1:0|0:0,0:0:0:0:
492,347,48602,1,0,0:0:0:0:
403,280,48727,1,2,1:0:0:0:
422,206,48852,1,0,3:0:0:0:
345,145,48977,1,10,0:0:0:0:
349,160,49102,1,0,0:0:0:0:
506,94,49227,6,0,P|467:102|412:117,1,82.1224974938203,2|0,1:0|0:0,0:0:0:0:
288,233,49477,2,0,P|249:241|194:256,1,82.1224974938203,10|0,0:0|0:0,0:0:0:0:
56,157,49727,1,2,1:0:0:0:
108,98,49852,1,0,3:0:0:0:
208,159,49977,2,0,P|169:167|114:182,1,82.1224974938203,10|0,0:0|0:0,0:0:0:0:
39,384,50227,2,0,P|74:328|72:231,1,164.244994987641,2|8,1:0|0:0,0:0:0:0:
72,232,50602,1,0,0:0:0:0:
151,335,50727,1,2,1:0:0:0:
167,338,50852,1,0,0:0:0:0:
204,257,50977,1,10,0:0:0:0:
188,260,51102,1,0,3:0:0:0:
292,327,51227,6,0,P|354:313|423:304,1,123.18374624073,2|0,1:0|2:0,0:0:0:0:
477,343,51477,2,0,B|482:369|453:386|453:386|471:366|465:340,1,82.1224974938203,10|0,0:0|0:0,0:0:0:0:
328,236,51727,6,0,P|306:180|314:109,1,123.18374624073,2|0,1:0|2:0,0:0:0:0:
349,54,51977,2,0,B|375:48|392:77|392:77|372:59|346:65,1,82.1224974938203,10|0,0:0|0:0,0:0:0:0:
216,183,52227,6,0,P|147:161|52:147,1,164.244994987641,2|8,1:0|0:0,0:0:0:0:
56,147,52602,1,0,0:0:0:0:
114,270,52727,1,2,1:0:0:0:
118,252,52852,1,0,3:0:0:0:
28,237,52977,1,10,0:0:0:0:
47,321,53102,1,0,3:0:0:0:
172,370,53227,6,0,P|246:335|349:317,1,164.244994987641,6|0,1:0|2:0,0:0:0:0:
326,318,53602,1,0,3:0:0:0:
425,250,53727,5,0,1:0:0:0:
426,233,53852,1,0,3:0:0:0:
356,191,53977,1,8,0:0:0:0:
355,174,54102,1,0,3:0:0:0:
409,117,54227,5,2,1:0:0:0:
344,78,54352,1,8,0:0:0:0:
275,121,54477,1,8,0:0:0:0:
274,138,54602,1,0,3:0:0:0:
160,23,54727,6,0,P|195:41|246:53,1,82.1224974938203,10|4,0:3|0:3,0:0:0:0:
293,1,54977,1,10,0:0:0:0:
186,125,55102,1,8,0:3:0:0:
76,0,55227,6,0,B|108:96|12:64|44:160,1,169.233742123979,6|0,1:0|2:0,0:0:0:0:
42,153,55477,2,0,P|81:161|126:179,1,82.1224974938203,10|0,0:0|0:0,0:0:0:0:
210,294,55727,1,2,1:0:0:0:
194,213,55852,1,0,3:0:0:0:
115,266,55977,1,10,0:0:0:0:
130,269,56102,1,0,0:0:0:0:
281,235,56227,2,0,B|251:145|340:175|310:86,1,164.244994987641,0|8,1:0|0:0,0:0:0:0:
310,85,56602,1,0,0:0:0:0:
380,180,56727,5,2,1:0:0:0:
452,206,56852,1,0,3:0:0:0:
512,153,56977,1,10,0:0:0:0:
508,137,57102,1,0,0:0:0:0:
392,263,57227,6,0,P|401:305|408:352,1,82.1224974938203,2|0,1:0|0:0,0:0:0:0:
220,290,57477,2,0,P|250:260|286:229,1,82.1224974938203,10|0,0:0|0:0,0:0:0:0:
186,163,57727,1,2,1:0:0:0:
190,178,57852,1,0,3:0:0:0:
288,88,57977,2,0,P|246:77|200:63,1,82.1224974938203,10|0,0:0|0:0,0:0:0:0:
30,214,58227,2,0,P|119:190|197:176,1,164.244994987641,2|8,1:0|0:0,0:0:0:0:
92,154,58602,1,0,0:0:0:0:
241,238,58727,1,2,1:0:0:0:
225,312,58852,1,0,0:0:0:0:
318,295,58977,1,10,0:0:0:0:
301,291,59102,1,0,3:0:0:0:
414,369,59227,6,0,P|406:329|399:273,1,82.1224974938203,2|0,1:0|0:0,0:0:0:0:
499,116,59477,2,0,P|504:156|512:197,1,82.1224974938203,10|0,0:0|0:0,0:0:0:0:
310,80,59727,2,0,P|371:97|385:156,1,123.18374624073,2|0,1:0|2:0,0:0:0:0:
390,163,59977,2,0,P|390:111|367:83,1,82.1224974938203,10|0,0:0|0:0,0:0:0:0:
212,145,60227,1,0,1:0:0:0:
215,161,60352,1,0,0:0:0:0:
160,215,60477,1,10,0:0:0:0:
88,183,60602,1,0,3:0:0:0:
235,240,60727,6,0,P|250:281|238:317,1,82.1224974938203,2|0,1:0|0:0,0:0:0:0:
96,340,60977,2,0,P|84:301|99:263,1,82.1224974938203,10|0,0:0|3:0,0:0:0:0:
285,383,61227,6,0,P|332:336|397:345,1,123.18374624073,6|0,1:0|2:0,0:0:0:0:
443,383,61477,2,0,P|456:362|462:341,1,43.7474994659729,10|0,0:0|0:0,0:0:0:0:
359,83,61727,6,0,P|337:150|379:201,1,134.696250513825,6|0,1:0|2:0,0:0:0:0:
442,224,61977,2,0,P|431:246|416:262,1,43.7474994659729,10|0,0:0|0:0,0:0:0:0:
201,272,62227,6,0,B|134:255|159:155|267:147|325:267|260:327,1,292.417497769032,6|0,1:0|0:0,0:0:0:0:
73,384,62727,1,10,0:0:0:0:
36,310,62852,1,0,3:0:0:0:
93,254,62977,1,10,0:0:0:0:
136,329,63102,1,0,3:0:0:0:
18,232,63227,6,0,P|31:168|43:96,1,123.18374624073,6|0,1:0|2:0,0:0:0:0:
40,110,63477,2,0,P|78:76|109:83,1,82.1224974938203,10|0,0:0|0:0,0:0:0:0:
177,176,63727,1,2,1:0:0:0:
216,98,63852,1,0,3:0:0:0:
177,176,63977,2,0,P|190:210|198:267,1,82.1224974938203,10|0,0:0|0:0,0:0:0:0:
413,132,64227,2,0,B|317:100|349:196|253:164,1,164.244994987641,0|8,1:0|0:0,0:0:0:0:
263,167,64602,1,0,0:0:0:0:
329,25,64727,1,2,1:0:0:0:
346,101,64852,1,0,3:0:0:0:
421,53,64977,1,10,0:0:0:0:
404,49,65102,1,0,0:0:0:0:
469,197,65227,6,0,P|493:161|495:116,1,82.1224974938203,2|0,1:0|0:0,0:0:0:0:
404,322,65477,2,0,P|446:312|478:281,1,82.1224974938203,10|0,0:0|0:0,0:0:0:0:
340,263,65727,1,2,1:0:0:0:
320,340,65852,1,0,3:0:0:0:
340,263,65977,2,0,P|332:220|326:164,1,82.1224974938203,10|0,0:0|0:0,0:0:0:0:
103,232,66227,2,0,P|195:254|271:289,1,164.244994987641,2|8,1:0|0:0,0:0:0:0:
258,282,66602,1,0,0:0:0:0:
182,213,66727,1,2,1:0:0:0:
180,196,66852,1,0,0:0:0:0:
113,130,66977,1,10,0:0:0:0:
111,147,67102,1,0,3:0:0:0:
203,59,67227,6,0,B|251:64|272:91|320:97,1,123.18374624073,2|0,1:0|2:0,0:0:0:0:
319,97,67477,2,0,P|300:61|260:59,1,82.1224974938203,10|0,0:0|0:0,0:0:0:0:
197,150,67727,6,0,P|212:210|222:271,1,123.18374624073,2|0,1:0|2:0,0:0:0:0:
222,270,67977,2,0,P|257:290|295:273,1,82.1224974938203,10|0,0:0|0:0,0:0:0:0:
503,243,68227,6,0,B|407:275|439:179|343:211,1,164.244994987641,2|8,1:0|0:0,0:0:0:0:
353,207,68602,1,0,0:0:0:0:
484,142,68727,1,2,1:0:0:0:
488,124,68852,1,0,3:0:0:0:
500,42,68977,1,10,0:0:0:0:
423,73,69102,1,0,3:0:0:0:
500,42,69227,6,0,P|420:34|319:13,1,164.244994987641,2|12,1:0|0:0,0:0:0:0:
337,17,69602,1,0,0:0:0:0:
231,61,69727,5,0,1:0:0:0:
234,78,69852,1,0,3:0:0:0:
160,134,69977,1,8,0:0:0:0:
163,117,70102,1,0,3:0:0:0:
254,177,70227,5,0,1:0:0:0:
233,186,70352,1,0,3:0:0:0:
187,247,70477,1,8,0:0:0:0:
233,305,70602,1,0,3:0:0:0:
366,331,70727,2,0,P|326:342|289:360,1,82.1224974938203,0|0,1:0|3:0,0:0:0:0:
398,249,70977,5,0,3:0:0:0:
396,238,71060,1,0,3:0:0:0:
395,227,71143,1,0,3:0:0:0:
393,219,71227,1,6,1:0:0:0:
413,101,71393,1,2,3:0:0:0:
347,56,71560,1,2,3:0:0:0:
288,108,71727,2,0,P|211:125|136:155,1,157.593330207245,2|0,3:0|3:0,0:0:0:0:
257,270,72227,6,0,B|273:303|240:337|240:337|257:303|240:270,1,118.194997655434,6|0,1:0|2:0,0:0:0:0:
248,295,72560,1,2,3:0:0:0:
175,262,72727,1,0,3:0:0:0:
110,306,72893,1,0,3:0:0:0:
42,194,73060,1,2,3:0:0:0:
110,306,73227,6,0,B|78:210|174:242|142:146,1,157.593330207245,6|0,1:0|3:0,0:0:0:0:
54,14,73727,1,2,3:0:0:0:
111,77,73893,1,0,3:0:0:0:
221,3,74060,1,2,3:0:0:0:
111,77,74227,2,0,P|190:92|272:119,1,157.593330207245,6|0,1:0|3:0,0:0:0:0:
377,209,74727,1,2,3:0:0:0:
345,137,74893,1,0,3:0:0:0:
392,73,75060,1,0,3:0:0:0:
332,18,75227,5,6,1:0:0:0:
426,144,75393,1,2,3:0:0:0:
471,82,75560,1,2,3:0:0:0:
377,209,75727,6,0,B|296:182|323:289|242:262,1,157.593330207245,2|0,3:0|3:0,0:0:0:0:
97,117,76227,2,0,B|133:132|173:135|173:135|157:172|154:212,1,157.593330207245,6|0,1:0|3:0,0:0:0:0:
20,311,76727,5,2,3:0:0:0:
15,279,76893,1,0,3:0:0:0:
12,247,77060,1,0,3:0:0:0:
159,315,77227,6,0,B|181:288|230:285|258:332|258:332|286:379|334:376|357:350,1,236.389995310867,6|0,1:0|3:0,0:0:0:0:
461,185,77893,1,0,3:0:0:0:
382,194,78060,1,0,3:0:0:0:
369,271,78227,1,0,3:0:0:0:
464,342,78477,1,0,3:0:0:0:
464,342,78560,2,0,B|459:307|451:295|447:256,1,78.7966651036225,0|10,3:0|0:3,0:0:0:0:
512,182,78893,1,8,0:3:0:0:
508,197,79060,1,10,0:3:0:0:
383,92,79227,6,0,B|340:69|318:94|295:121|231:61|231:61|271:84|299:57|332:87|330:139|292:182,1,349.979995727783,2|0,0:0|0:0,0:0:0:0:
481,46,80727,1,0,0:0:0:0:
481,46,80893,2,0,L|478:67,3,13.8150003372803,0|0|0|0,3:0|3:0|3:0|3:0,3:0:0:0:
416,111,81227,5,6,1:2:0:0:
454,176,81393,1,2,0:0:0:0:
409,237,81560,1,2,0:0:0:0:
479,334,81727,2,0,P|499:280|486:237,1,87.4949989319458,2|0,1:0|2:0,0:0:0:0:
493,252,82060,1,0,0:0:0:0:
359,172,82227,2,0,P|311:189|232:204,1,116.659998575928,2|0,1:0|0:0,0:0:0:0:
88,140,82727,1,2,1:0:0:0:
89,128,82810,1,0,0:0:0:0:
91,116,82893,1,0,0:0:0:0:
165,178,83060,2,0,P|166:194|171:215,1,29.1649996439819,2|0,0:0|2:0,0:0:0:0:
203,277,83227,6,0,P|206:232|222:95,1,174.989997863892,2|0,1:0|1:0,0:0:0:0:
220,102,83893,1,0,0:0:0:0:
357,24,84060,1,2,0:0:0:0:
399,87,84227,2,0,P|330:65|271:54,1,116.659998575928,2|0,1:0|0:0,0:0:0:0:
452,170,84727,2,0,B|463:193|440:217|440:217|452:193|440:170,1,87.4949989319458,2|0,1:0|2:0,0:0:0:0:
444,183,85060,1,2,0:0:0:0:
300,269,85227,6,0,P|315:215|377:192,1,116.659998575928,2|0,1:0|0:0,0:0:0:0:
430,308,85727,2,0,P|400:313|362:325,1,58.3299992879639,2|0,1:0|0:0,0:0:0:0:
237,375,86060,1,2,0:0:0:0:
178,327,86227,2,0,B|204:247|124:273|151:194,1,145.82499821991,2|0,1:0|2:0,0:0:0:0:
151,194,86727,2,0,P|195:183|257:172,1,87.4949989319458,2|0,1:0|2:0,0:0:0:0:
236,174,87060,1,2,0:0:0:0:
379,73,87227,6,0,B|406:33|347:-6|287:37|318:117,1,174.989997863892,2|0,1:0|1:0,0:0:0:0:
418,156,87893,1,2,0:0:0:0:
485,119,88060,1,2,0:0:0:0:
393,227,88227,1,2,1:0:0:0:
208,99,88560,1,0,0:0:0:0:
211,75,88727,1,2,0:0:0:0:
211,75,89227,5,6,1:0:0:0:
117,188,89393,1,2,3:0:0:0:
115,91,89560,1,2,3:0:0:0:
223,181,89727,2,0,P|273:194|336:217,1,102.844995135201,10|0,0:0|2:0,0:0:0:0:
321,210,90060,1,2,3:0:0:0:
393,359,90227,2,0,P|378:323|390:286,1,68.5633300901338,2|0,1:0|3:0,0:0:0:0:
384,295,90477,1,0,3:0:0:0:
384,295,90560,1,0,3:0:0:0:
448,169,90727,2,0,P|453:202|439:232,1,68.5633300901338,10|0,0:0|3:0,0:0:0:0:
438,232,91060,1,2,3:0:0:0:
290,296,91227,6,0,P|241:279|191:266,1,102.844995135201,2|0,1:0|2:0,0:0:0:0:
191,266,91560,1,0,3:0:0:0:
140,139,91727,2,0,B|140:168|124:203|124:203|140:180|165:174,1,102.844995135201,10|0,0:0|2:0,0:0:0:0:
150,179,92060,1,2,3:0:0:0:
46,82,92227,2,0,P|55:117|58:157,1,68.5633300901338,2|0,1:0|3:0,0:0:0:0:
183,53,92560,1,0,3:0:0:0:
263,179,92727,1,10,0:0:0:0:
456,40,93060,1,2,3:0:0:0:
390,83,93227,6,0,P|386:153|375:226,1,137.126660180268,2|0,1:0|3:0,0:0:0:0:
512,312,93727,2,0,P|472:272|417:287,1,102.844995135201,10|0,0:0|2:0,0:0:0:0:
429,277,94060,1,2,3:0:0:0:
275,352,94227,2,0,P|330:339|346:284,1,102.844995135201,2|0,1:0|2:0,0:0:0:0:
347,300,94560,2,0,P|327:278|282:284,1,68.5633300901338,2|8,3:0|0:0,0:0:0:0:
174,349,94893,1,2,3:0:0:0:
198,273,95060,1,2,3:0:0:0:
106,219,95227,6,0,P|108:250|118:295,1,68.5633300901338,2|0,1:0|3:0,0:0:0:0:
116,286,95477,1,0,3:0:0:0:
116,286,95560,1,0,3:0:0:0:
176,178,95727,1,8,0:0:0:0:
30,249,95893,1,0,3:0:0:0:
81,140,96060,1,0,3:0:0:0:
0,34,96227,5,0,1:0:0:0:
70,62,96393,1,0,3:0:0:0:
91,54,96560,1,8,0:3:0:0:
101,58,96727,1,4,0:3:0:0:
162,101,96893,2,0,P|201:85|272:71,1,102.844995135201,12|0,0:3|2:0,0:0:0:0:
260,72,97227,5,6,1:0:0:0:
320,27,97393,1,2,0:0:0:0:
393,45,97560,1,2,0:0:0:0:
348,178,97727,2,0,P|345:140|339:88,1,68.5633300901338,2|0,3:0|0:0,0:0:0:0:
341,109,98060,1,2,0:0:0:0:
197,204,98227,2,0,P|231:213|274:230,1,68.5633300901338,10|0,0:0|0:0,0:0:0:0:
132,358,98560,2,0,P|121:324|113:278,1,68.5633300901338,2|0,0:0|0:0,0:0:0:0:
11,233,98893,1,0,0:0:0:0:
11,233,99060,1,0,0:0:0:0:
198,284,99227,5,2,1:0:0:0:
270,265,99393,1,2,0:0:0:0:
342,243,99560,1,2,1:0:0:0:
301,125,99727,2,0,P|283:156|296:205,1,68.5633300901338,2|0,3:0|0:0,0:0:0:0:
285,187,100060,1,2,0:0:0:0:
434,286,100227,2,0,P|436:252|418:223,1,68.5633300901338,10|0,0:0|0:0,0:0:0:0:
242,372,100560,2,0,P|304:354|375:344,1,137.126660180268,2|0,3:0|3:0,0:0:0:0:
375,343,101060,1,2,0:0:0:0:
493,190,101227,5,6,1:0:0:0:
412,126,101393,1,2,3:0:0:0:
418,23,101560,1,2,3:0:0:0:
353,178,101727,1,10,0:0:0:0:
353,178,102227,5,6,1:0:0:0:
285,101,102393,1,2,3:0:0:0:
256,199,102560,1,2,3:0:0:0:
141,78,102727,1,10,0:0:0:0:
45,287,103060,1,2,3:0:0:0:
1,224,103227,6,0,B|-16:188|18:153|18:153|1:188|18:224,1,137.126660180268,6|0,1:0|0:0,0:0:0:0:
210,301,103727,2,0,B|231:344|188:387|188:387|210:344|188:301,1,157.593330207245,4|0,1:0|0:0,0:0:0:0:
91,187,104227,6,0,P|178:207|272:223,1,178.060001494339,4|0,1:0|0:0,0:0:0:0:
445,97,104727,2,0,B|467:116|470:157|431:180|431:180|391:203|394:244|416:263,1,198.526671362045,4|0,1:0|0:0,0:0:0:0:
335,117,105227,5,6,1:0:0:0:
266,88,105352,1,2,0:0:0:0:
204,129,105477,1,10,0:0:0:0:
203,142,105602,1,2,0:0:0:0:
185,272,105727,5,6,1:0:0:0:
88,312,105852,1,2,0:0:0:0:
1,255,105977,1,10,0:0:0:0:
0,237,106102,1,2,0:0:0:0:
81,115,106227,5,6,1:0:0:0:
88,221,106352,1,2,0:0:0:0:
201,161,106477,1,10,0:0:0:0:
183,159,106602,1,10,0:0:0:0:
290,251,106727,5,14,1:2:0:0:
392,177,106852,1,2,3:0:0:0:
445,238,106977,5,2,3:0:0:0:
301,168,107102,1,2,3:0:0:0:
486,48,107227,6,0,B|515:-3|439:-46|370:14|409:120|484:116,1,225.644989498639,6|10,1:0|0:0,0:0:0:0:
458,112,107602,1,0,0:0:0:0:
253,25,107727,2,0,P|213:34|172:42,1,82.1224974938203,2|0,1:0|3:0,0:0:0:0:
49,127,107977,1,10,0:0:0:0:
51,111,108102,1,0,0:0:0:0:
110,215,108227,2,0,B|206:183|174:279|270:247,1,164.244994987641,0|8,1:0|0:0,0:0:0:0:
259,250,108602,1,0,0:0:0:0:
134,384,108727,5,2,1:0:0:0:
120,308,108852,1,0,3:0:0:0:
213,331,108977,1,10,0:0:0:0:
196,334,109102,1,0,0:0:0:0:
340,365,109227,6,0,P|346:324|351:284,1,82.1224974938203,2|0,1:0|0:0,0:0:0:0:
189,110,109477,2,0,P|184:151|179:192,1,82.1224974938203,10|0,0:0|0:0,0:0:0:0:
308,98,109727,1,2,1:0:0:0:
323,95,109852,1,0,3:0:0:0:
389,220,109977,2,0,P|345:204|333:149,1,82.1224974938203,10|0,0:0|0:0,0:0:0:0:
444,0,110227,2,0,B|476:96|380:64|412:160,1,164.244994987641,2|8,1:0|0:0,0:0:0:0:
408,149,110602,1,0,0:0:0:0:
481,270,110727,2,0,P|494:223|474:180,1,82.1224974938203,2|0,1:0|0:0,0:0:0:0:
363,303,110977,1,10,0:0:0:0:
349,307,111102,1,0,3:0:0:0:
267,288,111227,6,0,P|258:225|243:155,1,123.18374624073,2|0,1:0|2:0,0:0:0:0:
237,160,111477,2,0,P|245:197|253:245,1,82.1224974938203,10|0,0:0|0:0,0:0:0:0:
70,335,111727,6,0,B|54:303|86:271|86:271|70:303|86:335,1,123.18374624073,2|0,1:0|2:0,0:0:0:0:
80,321,111977,2,0,B|176:289|144:385|240:353,1,164.244994987641,10|0,0:0|1:0,0:0:0:0:
229,356,112352,1,0,0:0:0:0:
297,295,112477,1,10,0:0:0:0:
351,368,112602,1,0,3:0:0:0:
210,274,112727,2,0,P|206:232|205:175,1,82.1224974938203,2|0,1:0|0:0,0:0:0:0:
394,137,112977,2,0,P|360:162|312:193,1,82.1224974938203,10|0,0:0|3:0,0:0:0:0:
188,25,113227,6,0,P|198:63|277:83,1,123.18374624073,6|0,1:0|2:0,0:0:0:0:
271,85,113477,2,0,P|249:94|228:115,1,43.7474994659729,10|0,0:0|0:0,0:0:0:0:
105,267,113727,6,0,P|135:231|111:153,1,134.696250513825,6|0,1:0|2:0,0:0:0:0:
111,153,113977,2,0,P|136:157|159:172,1,43.7474994659729,10|0,0:0|0:0,0:0:0:0:
324,318,114227,6,0,B|381:379|501:321|493:213|393:188|376:255,1,292.417497769032,6|0,1:0|0:0,0:0:0:0:
312,324,114727,1,10,0:0:0:0:
243,348,114852,1,0,3:0:0:0:
186,247,114977,1,10,0:0:0:0:
255,271,115102,1,0,3:0:0:0:
117,365,115227,6,0,B|120:315|97:289|100:240,1,123.18374624073,6|0,1:0|2:0,0:0:0:0:
100,243,115477,2,0,P|92:286|87:341,1,82.1224974938203,10|0,0:0|0:0,0:0:0:0:
31,186,115727,1,2,1:0:0:0:
103,140,115852,1,0,3:0:0:0:
169,192,115977,2,0,P|209:184|264:179,1,82.1224974938203,10|0,0:0|0:0,0:0:0:0:
401,109,116227,2,0,B|404:66|421:28|421:28|379:24|340:8,1,164.244994987641,0|8,1:0|0:0,0:0:0:0:
343,9,116602,1,0,0:0:0:0:
313,124,116727,1,2,1:0:0:0:
368,180,116852,1,0,3:0:0:0:
289,219,116977,1,10,0:0:0:0:
293,203,117102,1,0,0:0:0:0:
361,269,117227,6,0,P|403:281|448:298,1,82.1224974938203,2|0,1:0|0:0,0:0:0:0:
486,129,117477,2,0,P|453:158|415:187,1,82.1224974938203,10|0,0:0|0:0,0:0:0:0:
305,357,117727,6,0,P|263:369|218:386,1,82.1224974938203,2|0,1:0|3:0,0:0:0:0:
180,217,117977,2,0,P|212:246|250:275,1,82.1224974938203,10|0,0:0|0:0,0:0:0:0:
82,328,118227,6,0,P|75:247|54:159,1,164.244994987641,2|8,1:0|0:0,0:0:0:0:
56,166,118602,1,0,0:0:0:0:
126,40,118727,1,2,1:0:0:0:
142,37,118852,1,0,0:0:0:0:
205,114,118977,1,10,0:0:0:0:
189,111,119102,1,0,3:0:0:0:
311,10,119227,6,0,P|287:62|315:132,1,123.18374624073,2|0,1:0|2:0,0:0:0:0:
301,130,119477,2,0,P|280:88|282:48,1,82.1224974938203,10|0,0:0|0:0,0:0:0:0:
501,43,119727,6,0,P|445:51|361:80,1,123.18374624073,2|0,1:0|2:0,0:0:0:0:
374,67,119977,2,0,P|418:51|459:43,1,82.1224974938203,10|0,0:0|0:0,0:0:0:0:
231,192,120227,6,0,B|263:288|167:256|199:352,1,164.244994987641,2|8,1:0|0:0,0:0:0:0:
195,341,120602,1,0,0:0:0:0:
316,270,120727,1,2,1:0:0:0:
385,314,120852,1,0,3:0:0:0:
458,277,120977,1,10,0:0:0:0:
462,260,121102,1,0,3:0:0:0:
427,147,121227,6,0,B|414:95|336:114|329:198|420:231,1,164.244994987641,6|0,1:0|2:0,0:0:0:0:
386,212,121602,1,0,3:0:0:0:
277,144,121727,5,0,1:0:0:0:
260,147,121852,1,0,3:0:0:0:
198,205,121977,5,8,0:0:0:0:
181,202,122102,1,0,3:0:0:0:
113,248,122227,5,2,1:0:0:0:
142,324,122352,1,8,0:0:0:0:
75,371,122477,1,8,0:0:0:0:
58,367,122602,1,0,3:0:0:0:
188,259,122727,6,0,P|227:274|276:284,1,82.1224974938203,10|4,0:3|0:3,0:0:0:0:
323,218,122977,1,10,0:0:0:0:
223,357,123102,1,8,0:3:0:0:
323,218,123227,6,0,B|302:134|406:155|385:71,1,169.233742123979,6|0,1:0|2:0,0:0:0:0:
342,13,123477,2,0,P|309:49|317:91,1,82.1224974938203,10|0,0:0|0:0,0:0:0:0:
407,202,123727,1,2,1:0:0:0:
480,191,123852,1,0,3:0:0:0:
382,280,123977,2,0,P|310:247|211:234,1,164.244994987641,10|0,0:0|1:0,0:0:0:0:
226,233,124352,1,0,0:0:0:0:
107,356,124477,2,0,P|140:320|136:270,1,82.1224974938203,8|0,0:0|0:0,0:0:0:0:
55,155,124727,5,2,1:0:0:0:
76,235,124852,1,0,3:0:0:0:
149,172,124977,1,10,0:0:0:0:
133,176,125102,1,0,0:0:0:0:
211,235,125227,6,0,P|249:218|305:226,1,82.1224974938203,2|0,1:0|0:0,0:0:0:0:
326,113,125477,2,0,P|361:134|387:184,1,82.1224974938203,10|0,0:0|0:0,0:0:0:0:
508,384,125727,6,0,P|473:360|450:309,1,82.1224974938203,2|0,1:0|3:0,0:0:0:0:
343,351,125977,2,0,P|342:309|371:260,1,82.1224974938203,10|0,0:0|0:0,0:0:0:0:
508,79,126227,6,0,B|540:175|444:143|476:239,1,164.244994987641,2|8,1:0|0:0,0:0:0:0:
472,228,126602,1,0,0:0:0:0:
403,126,126727,1,2,1:0:0:0:
321,119,126852,1,0,0:0:0:0:
272,182,126977,1,10,0:0:0:0:
276,199,127102,1,0,3:0:0:0:
162,85,127227,6,0,P|203:94|246:112,1,82.1224974938203,2|0,1:0|0:0,0:0:0:0:
37,169,127477,2,0,P|22:129|15:83,1,82.1224974938203,10|0,0:0|0:0,0:0:0:0:
156,230,127727,2,0,P|129:262|94:293,1,82.1224974938203,2|0,1:0|3:0,0:0:0:0:
303,384,127977,6,0,P|246:342|272:260,1,164.244994987641,10|0,0:0|1:0,0:0:0:0:
488,221,128352,1,0,0:0:0:0:
427,276,128477,1,10,0:0:0:0:
348,258,128602,1,0,3:0:0:0:
324,173,128727,6,0,P|334:134|343:70,1,82.1224974938203,2|0,1:0|0:0,0:0:0:0:
149,53,128977,2,0,P|176:82|226:123,1,82.1224974938203,10|0,0:0|3:0,0:0:0:0:
65,252,129227,6,0,P|111:212|97:141,1,123.18374624073,6|0,1:0|2:0,0:0:0:0:
45,118,129477,2,0,L|-2:127,1,43.7474994659729,10|0,0:0|0:0,0:0:0:0:
232,211,129727,6,0,P|186:251|200:322,1,134.696250513825,6|0,1:0|2:0,0:0:0:0:
262,350,129977,2,0,L|309:341,1,43.7474994659729,10|0,0:0|0:0,0:0:0:0:
374,183,130227,6,0,B|348:202|343:247|385:275|385:275|427:302|421:347|396:367|396:367|413:332|392:296,1,292.417497769032,6|0,1:0|0:0,0:0:0:0:
466,154,130727,1,10,0:0:0:0:
396,102,130852,1,0,3:0:0:0:
327,56,130977,1,10,0:0:0:0:
403,16,131102,1,0,3:0:0:0:
312,133,131227,6,0,P|259:118|183:113,1,123.18374624073,6|0,1:0|2:0,0:0:0:0:
188,122,131477,2,0,P|234:123|274:131,1,82.1224974938203,10|0,0:0|0:0,0:0:0:0:
254,296,131727,2,0,P|230:256|216:218,1,82.1224974938203,2|0,1:0|3:0,0:0:0:0:
102,68,131977,2,0,P|80:141|26:226,1,164.244994987641,10|0,0:0|1:0,0:0:0:0:
34,215,132352,1,0,0:0:0:0:
105,311,132477,1,8,0:0:0:0:
121,308,132602,1,0,0:0:0:0:
176,243,132727,1,2,1:0:0:0:
245,287,132852,1,0,3:0:0:0:
319,244,132977,1,10,0:0:0:0:
323,227,133102,1,0,0:0:0:0:
288,151,133227,6,0,P|248:159|206:170,1,82.1224974938203,2|0,1:0|0:0,0:0:0:0:
424,121,133477,2,0,P|463:110|503:102,1,82.1224974938203,10|0,0:0|0:0,0:0:0:0:
383,251,133727,1,2,1:0:0:0:
368,176,133852,1,0,3:0:0:0:
383,251,133977,2,0,P|391:292|401:330,1,82.1224974938203,10|0,0:0|0:0,0:0:0:0:
230,247,134227,2,0,B|134:215|166:311|70:279,1,164.244994987641,2|8,1:0|0:0,0:0:0:0:
80,282,134602,1,0,0:0:0:0:
9,210,134727,1,2,1:0:0:0:
49,124,134852,1,0,0:0:0:0:
114,189,134977,1,10,0:0:0:0:
98,192,135102,1,0,3:0:0:0:
190,57,135227,6,0,P|249:63|282:125,1,123.18374624073,2|0,1:0|2:0,0:0:0:0:
281,113,135477,2,0,P|241:113|223:76,1,82.1224974938203,10|0,0:0|0:0,0:0:0:0:
398,88,135727,6,0,P|413:145|367:198,1,123.18374624073,2|0,1:0|2:0,0:0:0:0:
378,192,135977,2,0,P|363:155|391:125,1,82.1224974938203,10|0,0:0|0:0,0:0:0:0:
493,279,136227,6,0,P|415:289|333:333,1,164.244994987641,2|8,1:0|0:0,0:0:0:0:
339,327,136602,1,0,0:0:0:0:
215,266,136727,1,2,1:0:0:0:
217,247,136852,1,0,3:0:0:0:
130,174,136977,1,10,0:0:0:0:
141,249,137102,1,0,3:0:0:0:
218,158,137227,6,0,B|314:190|282:94|378:126,1,164.244994987641,2|12,1:0|0:0,0:0:0:0:
367,122,137602,1,0,0:0:0:0:
459,58,137727,5,0,1:0:0:0:
456,41,137852,1,0,3:0:0:0:
512,128,137977,1,8,0:0:0:0:
509,145,138102,1,0,3:0:0:0:
448,206,138227,6,0,P|406:222|371:240,1,82.1224974938203,0|0,1:0|3:0,0:0:0:0:
257,371,138477,1,8,0:0:0:0:
299,288,138602,1,0,3:0:0:0:
231,221,138727,2,0,P|222:181|217:137,1,82.1224974938203,0|0,1:0|3:0,0:0:0:0:
83,221,138977,5,0,3:0:0:0:
75,219,139061,1,0,3:0:0:0:
64,218,139144,1,0,3:0:0:0:
53,216,139227,1,6,1:0:0:0:
13,94,139393,1,2,3:0:0:0:
66,36,139560,1,2,3:0:0:0:
128,84,139727,2,0,P|224:110|295:110,1,157.593330207245,2|0,3:0|3:0,0:0:0:0:
422,0,140227,6,0,P|381:17|366:62,1,78.7966651036225,6|0,1:0|0:0,0:0:0:0:
414,224,140560,2,0,P|421:180|391:143,1,78.7966651036225,2|0,3:0|3:0,0:0:0:0:
268,263,140893,1,0,3:0:0:0:
360,320,141060,1,2,3:0:0:0:
268,263,141227,6,0,B|172:231|204:327|108:295,1,157.593330207245,6|0,1:0|3:0,0:0:0:0:
69,185,141727,2,0,P|110:193|140:234,1,78.7966651036225,2|0,3:0|3:0,0:0:0:0:
16,260,142060,1,2,3:0:0:0:
75,168,142227,2,0,P|67:90|61:4,1,157.593330207245,6|0,1:0|3:0,0:0:0:0:
200,92,142727,1,2,3:0:0:0:
269,127,142893,1,0,3:0:0:0:
344,102,143060,1,0,3:0:0:0:
402,155,143227,5,6,1:0:0:0:
289,42,143393,1,2,3:0:0:0:
269,127,143560,1,2,3:0:0:0:
314,257,143727,6,0,P|365:265|477:302,1,157.593330207245,2|0,3:0|3:0,0:0:0:0:
151,155,144227,2,0,P|102:172|0:230,1,157.593330207245,6|0,1:0|3:0,0:0:0:0:
199,347,144727,5,2,3:0:0:0:
216,320,144893,1,0,3:0:0:0:
213,288,145060,1,0,3:0:0:0:
166,100,145227,6,0,B|193:122|196:171|149:199|149:199|102:227|105:275|131:298,1,236.389995310867,6|0,1:0|3:0,0:0:0:0:
315,156,145893,1,0,3:0:0:0:
391,174,146060,1,0,3:0:0:0:
424,245,146227,1,0,3:0:0:0:
421,258,146393,1,0,0:0:0:0:
343,262,146560,1,0,3:0:0:0:
340,249,146726,1,10,0:3:0:0:
380,330,146893,1,8,0:3:0:0:
495,214,147060,1,10,0:3:0:0:
380,330,147227,6,0,P|302:349|207:389,1,157.593330207245,6|0,1:0|0:0,0:0:0:0:
84,285,147727,2,0,B|88:221|47:196|51:132,1,157.593330207245,10|0,0:0|0:0,0:0:0:0:
147,62,148227,2,0,P|146:100|137:155,1,78.7966651036225,0|0,1:0|0:0,0:0:0:0:
140,140,148477,1,0,3:0:0:0:
140,140,148560,1,0,3:0:0:0:
67,54,148727,1,8,0:0:0:0:
200,6,148893,1,0,3:0:0:0:
268,137,149060,1,0,3:0:0:0:
309,62,149227,6,0,P|261:56|232:74,1,78.7966651036225,2|0,1:0|3:0,0:0:0:0:
235,71,149477,1,0,3:0:0:0:
235,71,149560,1,0,3:0:0:0:
303,215,149727,2,0,P|341:223|394:239,1,78.7966651036225,10|0,0:0|3:0,0:0:0:0:
428,167,150060,1,0,3:0:0:0:
261,286,150227,5,2,1:0:0:0:
343,369,150393,1,0,3:0:0:0:
434,294,150560,1,0,3:0:0:0:
343,369,150727,5,10,0:0:0:0:
311,365,150893,1,4,0:3:0:0:
279,361,151060,1,4,0:3:0:0:
150,312,151227,5,2,1:0:0:0:
208,209,151393,1,2,3:0:0:0:
131,118,151560,1,2,3:0:0:0:
239,55,151727,6,0,B|335:87|303:-9|399:23,1,157.593330207245,10|0,0:0|3:0,0:0:0:0:
453,139,152227,2,0,P|414:124|368:114,1,78.7966651036225,2|0,1:0|3:0,0:0:0:0:
377,115,152477,1,0,3:0:0:0:
377,115,152560,1,0,3:0:0:0:
309,197,152727,1,8,0:0:0:0:
335,284,152893,1,0,3:0:0:0:
425,248,153060,1,0,3:0:0:0:
304,359,153227,6,0,P|262:366|214:380,1,78.7966651036225,2|0,1:0|3:0,0:0:0:0:
227,375,153477,1,0,3:0:0:0:
227,375,153560,1,0,3:0:0:0:
137,332,153727,5,10,0:0:0:0:
169,260,153893,1,0,3:0:0:0:
122,196,154060,1,0,3:0:0:0:
239,19,154227,5,2,1:0:0:0:
261,109,154393,1,0,3:0:0:0:
206,186,154560,1,0,3:0:0:0:
365,306,154727,5,10,0:0:0:0:
293,193,154893,1,0,3:0:0:0:
396,107,155060,1,0,3:0:0:0:
451,161,155227,6,0,P|459:200|472:243,1,78.7966651036225,6|2,1:0|3:0,0:0:0:0:
512,107,155560,1,2,3:0:0:0:
378,215,155727,2,0,B|282:183|314:279|218:247,1,157.593330207245,10|0,0:0|3:0,0:0:0:0:
47,144,156227,2,0,P|86:129|125:110,1,78.7966651036225,0|0,1:0|3:0,0:0:0:0:
119,113,156477,1,0,3:0:0:0:
119,113,156560,1,0,3:0:0:0:
181,185,156727,1,8,0:0:0:0:
122,259,156893,1,0,3:0:0:0:
173,338,157060,1,0,3:0:0:0:
384,298,157227,5,4,1:0:0:0:
384,298,157727,6,0,P|298:273|192:266,1,178.060001494339,4|0,1:0|0:0,0:0:0:0:
415,206,158227,2,0,P|319:178|201:170,1,198.526671362045,4|0,1:0|0:0,0:0:0:0:
441,111,158727,2,0,P|337:80|210:72,1,218.993326650187,4|0,1:0|0:0,0:0:0:0:
40,152,159227,5,6,1:0:0:0:
123,67,159393,1,2,3:0:0:0:
27,147,159560,1,2,3:0:0:0:
85,284,159727,1,10,0:0:0:0:
85,284,160060,5,0,3:0:0:0:
187,196,160227,5,2,1:0:0:0:
313,236,160393,1,0,3:0:0:0:
208,320,160560,1,0,3:0:0:0:
275,363,160727,5,10,0:0:0:0:
296,354,160893,1,0,3:0:0:0:
318,346,161060,1,0,3:0:0:0:
470,256,161227,6,0,P|476:217|481:165,1,78.7966651036225,6|0,1:0|3:0,0:0:0:0:
480,177,161477,1,0,3:0:0:0:
480,177,161560,1,0,3:0:0:0:
397,102,161727,1,8,0:0:0:0:
303,172,161893,1,0,3:0:0:0:
213,121,162060,1,0,3:0:0:0:
277,71,162227,1,8,0:0:0:0:
219,18,162393,5,8,0:3:0:0:
195,23,162560,1,8,0:3:0:0:
176,38,162727,1,8,0:3:0:0:
117,122,162893,5,4,0:3:0:0:
123,111,163060,1,4,0:3:0:0:
124,99,163227,1,0,3:0:0:0:
256,32,163727,5,0,0:0:0:0:
256,32,164727,1,0,0:0:0:0:
309,94,165060,5,0,0:0:0:0:
307,102,165143,1,0,0:0:0:0:
306,111,165227,1,2,0:0:0:0:
240,164,165727,5,0,0:0:0:0:
240,164,166727,1,0,0:0:0:0:
187,226,167060,5,0,0:0:0:0:
189,234,167143,1,0,0:0:0:0:
190,243,167227,1,2,0:0:0:0:
261,285,167727,5,0,0:0:0:0:
261,285,168727,1,0,0:0:0:0:
314,347,169060,5,0,0:0:0:0:
312,355,169143,1,0,0:0:0:0:
311,364,169227,1,2,0:0:0:0:
458,279,169727,5,0,0:0:0:0:
423,121,170227,5,0,0:0:0:0:
300,201,170560,5,8,0:3:0:0:
230,92,170727,1,8,0:0:0:0:
306,125,170893,5,8,0:0:0:0:
234,254,171060,1,8,0:0:0:0:
417,355,171227,5,6,1:0:0:0:
430,334,171352,1,2,0:0:0:0:
432,309,171477,1,10,0:0:0:0:
421,286,171602,1,2,0:0:0:0:
447,207,171727,5,6,1:0:0:0:
421,181,171852,1,2,0:0:0:0:
388,172,171977,1,10,0:0:0:0:
353,179,172102,1,2,0:0:0:0:
275,132,172227,5,6,1:0:0:0:
230,158,172352,1,2,0:0:0:0:
207,200,172477,1,10,0:0:0:0:
206,250,172602,1,10,0:0:0:0:
262,321,172727,5,14,1:2:0:0:
334,380,172852,1,2,3:0:0:0:
286,239,172977,1,2,3:0:0:0:
177,340,173102,1,2,3:0:0:0:
43,240,173227,6,0,P|68:122|86:12,1,225.644989498639,6|10,1:0|0:0,0:0:0:0:
85,18,173602,1,0,0:0:0:0:
232,127,173727,2,0,P|191:135|137:156,1,82.1224974938203,2|0,1:0|3:0,0:0:0:0:
325,192,173977,1,10,0:0:0:0:
321,176,174102,1,0,0:0:0:0:
361,93,174227,2,0,P|399:79|439:71,1,82.1224974938203,0|0,1:0|0:0,0:0:0:0:
508,135,174477,1,8,0:0:0:0:
512,151,174602,1,0,0:0:0:0:
415,239,174727,6,0,P|419:198|429:147,1,82.1224974938203,2|0,1:0|3:0,0:0:0:0:
276,287,174977,2,0,P|268:327|264:368,1,82.1224974938203,10|0,0:0|0:0,0:0:0:0:
162,177,175227,6,0,P|203:173|254:163,1,82.1224974938203,2|0,1:0|0:0,0:0:0:0:
114,316,175477,2,0,P|73:323|32:327,1,82.1224974938203,10|0,0:0|0:0,0:0:0:0:
194,252,175727,1,2,1:0:0:0:
190,276,175852,1,0,3:0:0:0:
76,231,175977,2,0,P|68:192|68:123,1,82.1224974938203,10|0,0:0|0:0,0:0:0:0:
168,44,176227,2,0,B|265:18|227:112|325:87,1,164.244994987641,2|8,1:0|0:0,0:0:0:0:
314,89,176602,1,0,0:0:0:0:
455,59,176727,2,0,P|420:34|370:40,1,82.1224974938203,2|0,1:0|0:0,0:0:0:0:
498,134,176977,1,10,0:0:0:0:
494,148,177102,1,0,3:0:0:0:
424,239,177227,6,0,P|415:178|398:120,1,123.18374624073,2|0,1:0|2:0,0:0:0:0:
390,119,177477,2,0,P|409:180|413:207,1,82.1224974938203,10|0,0:0|0:0,0:0:0:0:
266,323,177727,1,2,1:0:0:0:
290,251,177852,1,0,3:0:0:0:
344,352,177977,2,0,B|253:321|283:412|192:382,1,164.244994987641,10|0,0:0|1:0,0:0:0:0:
194,382,178352,1,0,0:0:0:0:
63,210,178477,2,0,P|79:175|98:120,1,82.1224974938203,10|0,0:0|3:0,0:0:0:0:
219,297,178727,2,0,P|180:301|124:315,1,82.1224974938203,2|0,1:0|0:0,0:0:0:0:
217,97,178977,2,0,P|238:129|274:174,1,82.1224974938203,10|0,0:0|3:0,0:0:0:0:
175,201,179227,5,6,1:0:0:0:
508,303,179477,2,0,P|477:311|444:328,1,65.6212491989594,10|0,0:0|2:0,0:0:0:0:
377,380,179727,5,6,1:0:0:0:
456,48,179977,2,0,P|467:81|483:115,1,65.6212491989594,10|0,0:0|2:0,0:0:0:0:
479,109,180227,6,0,B|447:136|387:129|364:66|364:66|341:1|282:-6|248:21,1,292.417497769032,6|0,1:0|0:0,0:0:0:0:
195,167,180727,1,10,0:0:0:0:
215,95,180852,1,0,3:0:0:0:
120,35,180977,1,10,0:0:0:0:
140,107,181102,1,0,3:0:0:0:
42,207,181227,6,0,P|21:151|48:89,1,123.18374624073,6|0,1:0|2:0,0:0:0:0:
43,84,181477,2,0,P|16:133|19:177,1,82.1224974938203,10|0,0:0|0:0,0:0:0:0:
179,254,181727,1,2,1:0:0:0:
251,234,181852,1,0,3:0:0:0:
164,333,181977,2,0,P|81:307|0:291,1,164.244994987641,10|0,0:0|1:0,0:0:0:0:
5,291,182352,1,0,0:0:0:0:
114,196,182477,2,0,P|151:205|212:226,1,82.1224974938203,8|0,0:0|0:0,0:0:0:0:
366,365,182727,1,2,1:0:0:0:
328,296,182852,1,0,3:0:0:0:
417,278,182977,1,10,0:0:0:0:
413,293,183102,1,0,0:0:0:0:
281,221,183227,6,0,P|290:180|298:124,1,82.1224974938203,2|0,1:0|0:0,0:0:0:0:
461,162,183477,2,0,P|421:176|369:198,1,82.1224974938203,10|0,0:0|0:0,0:0:0:0:
136,44,183727,6,0,P|177:53|233:61,1,82.1224974938203,2|0,1:0|3:0,0:0:0:0:
195,224,183977,2,0,P|180:184|158:132,1,82.1224974938203,10|0,0:0|0:0,0:0:0:0:
270,0,184227,2,0,P|251:69|313:129,1,164.244994987641,2|8,1:0|0:0,0:0:0:0:
311,128,184602,1,0,0:0:0:0:
432,18,184727,1,2,1:0:0:0:
416,22,184852,1,0,0:0:0:0:
485,101,184977,1,10,0:0:0:0:
490,85,185102,1,0,3:0:0:0:
397,112,185227,6,0,B|401:160|427:182|431:230,1,123.18374624073,2|0,1:0|2:0,0:0:0:0:
380,299,185477,2,0,B|361:315|334:298|334:298|357:302|377:288,1,82.1224974938203,10|0,0:0|0:0,0:0:0:0:
345,218,185727,5,2,1:0:0:0:
468,313,185852,1,0,3:0:0:0:
345,218,185977,2,0,P|302:228|262:246,1,82.1224974938203,10|0,0:0|0:0,0:0:0:0:
123,136,186227,6,0,B|111:91|179:74|218:136|162:197,1,164.244994987641,2|8,1:0|0:0,0:0:0:0:
170,188,186602,1,0,0:0:0:0:
45,296,186727,1,2,1:0:0:0:
41,278,186852,1,0,3:0:0:0:
96,213,186977,1,10,0:0:0:0:
0,172,187102,1,0,3:0:0:0:
140,279,187227,6,0,P|220:291|313:324,1,164.244994987641,6|0,1:0|2:0,0:0:0:0:
298,317,187602,1,0,3:0:0:0:
444,223,187727,5,0,1:0:0:0:
438,207,187852,1,0,3:0:0:0:
352,159,187977,1,8,0:0:0:0:
368,162,188102,1,0,3:0:0:0:
362,246,188227,5,2,1:0:0:0:
282,226,188352,1,8,0:0:0:0:
262,146,188477,1,8,0:0:0:0:
264,129,188602,1,0,3:0:0:0:
159,27,188727,5,10,0:3:0:0:
191,99,188852,1,4,0:3:0:0:
155,164,188977,1,10,0:0:0:0:
153,181,189102,1,8,0:3:0:0:
0,149,189227,6,0,B|24:111|35:69|35:69|72:93|115:104,1,169.233742123979,6|0,1:0|2:0,0:0:0:0:
114,97,189477,2,0,P|75:81|33:57,1,82.1224974938203,10|0,0:0|0:0,0:0:0:0:
75,180,189727,1,2,1:0:0:0:
95,260,189852,1,0,3:0:0:0:
171,205,189977,1,10,0:0:0:0:
154,201,190102,1,0,0:0:0:0:
200,294,190227,2,0,B|296:262|264:358|360:326,1,164.244994987641,0|8,1:0|0:0,0:0:0:0:
349,329,190602,1,0,0:0:0:0:
480,203,190727,2,0,P|467:164|453:109,1,82.1224974938203,2|0,1:0|3:0,0:0:0:0:
342,250,190977,2,0,P|381:259|436:276,1,82.1224974938203,10|0,0:0|0:0,0:0:0:0:
306,103,191227,6,0,P|284:154|207:162,1,123.18374624073,2|0,1:0|2:0,0:0:0:0:
219,161,191477,2,0,P|211:121|205:73,1,82.1224974938203,10|0,0:0|0:0,0:0:0:0:
55,118,191727,1,2,1:0:0:0:
51,133,191852,1,0,3:0:0:0:
76,212,191977,2,0,P|115:216|166:228,1,82.1224974938203,10|0,0:0|0:0,0:0:0:0:
7,352,192227,2,0,P|-16:269|6:181,1,164.244994987641,2|8,1:0|0:0,0:0:0:0:
0,193,192602,1,0,0:0:0:0:
137,331,192727,1,2,1:0:0:0:
217,312,192852,1,0,0:0:0:0:
246,237,192977,1,10,0:0:0:0:
249,220,193102,1,0,3:0:0:0:
141,163,193227,6,0,P|152:203|161:252,1,82.1224974938203,2|0,1:0|0:0,0:0:0:0:
352,93,193477,2,0,P|344:52|333:13,1,82.1224974938203,10|0,0:0|0:0,0:0:0:0:
281,144,193727,1,2,1:0:0:0:
368,195,193852,1,0,3:0:0:0:
281,144,193977,2,0,P|359:121|441:109,1,164.244994987641,10|0,0:0|1:0,0:0:0:0:
441,109,194352,1,0,0:0:0:0:
488,203,194477,1,10,0:0:0:0:
445,276,194602,1,0,3:0:0:0:
304,255,194727,6,0,P|340:230|386:239,1,82.1224974938203,2|0,1:0|0:0,0:0:0:0:
409,354,194977,2,0,P|373:379|327:370,1,82.1224974938203,10|0,0:0|3:0,0:0:0:0:
130,317,195227,6,0,P|174:268|151:194,1,123.18374624073,6|0,1:0|2:0,0:0:0:0:
111,163,195477,2,0,L|58:182,1,43.7474994659729,10|0,0:0|0:0,0:0:0:0:
171,19,195727,6,0,P|155:89|197:132,1,134.696250513825,6|0,1:0|2:0,0:0:0:0:
269,157,195977,2,0,L|310:142,1,43.7474994659729,10|0,0:0|0:0,0:0:0:0:
425,0,196227,6,0,B|392:27|388:88|446:122|446:122|504:156|500:217|468:245,1,292.417497769032,6|0,1:0|0:0,0:0:0:0:
345,300,196727,1,10,0:0:0:0:
271,264,196852,1,0,3:0:0:0:
279,345,196977,1,10,0:0:0:0:
337,217,197102,1,0,3:0:0:0:
279,345,197227,6,0,P|218:354|152:371,1,123.18374624073,6|0,1:0|2:0,0:0:0:0:
158,369,197477,2,0,P|127:332|129:289,1,82.1224974938203,10|0,0:0|0:0,0:0:0:0:
246,144,197727,2,0,P|231:189|193:210,1,82.1224974938203,2|0,1:0|3:0,0:0:0:0:
37,36,197977,2,0,P|63:91|76:201,1,164.244994987641,10|0,0:0|1:0,0:0:0:0:
76,192,198352,1,0,0:0:0:0:
185,72,198477,2,0,P|218:52|268:54,1,82.1224974938203,8|0,0:0|0:0,0:0:0:0:
459,118,198727,1,2,1:0:0:0:
430,193,198852,1,0,3:0:0:0:
363,127,198977,1,10,0:0:0:0:
380,131,199102,1,0,0:0:0:0:
278,243,199227,6,0,P|271:202|262:162,1,82.1224974938203,2|0,1:0|0:0,0:0:0:0:
363,287,199477,2,0,P|400:303|439:316,1,82.1224974938203,10|0,0:0|0:0,0:0:0:0:
287,327,199727,1,2,1:0:0:0:
353,207,199852,1,0,3:0:0:0:
287,327,199977,2,0,P|253:350|221:375,1,82.1224974938203,10|0,0:0|0:0,0:0:0:0:
9,195,200227,2,0,B|39:168|96:172|120:231|120:231|145:290|202:294,1,246.367492481461,2|0,1:0|0:0,0:0:0:0:
267,200,200727,1,2,1:0:0:0:
265,183,200852,1,0,0:0:0:0:
162,119,200977,1,10,0:0:0:0:
164,102,201102,1,0,3:0:0:0:
274,34,201227,6,0,P|308:80|374:71,1,123.18374624073,2|0,1:0|2:0,0:0:0:0:
368,75,201477,2,0,P|349:65|298:89,1,82.1224974938203,10|0,0:0|0:0,0:0:0:0:
454,222,201727,6,0,P|456:180|464:124,1,82.1224974938203,2|0,1:0|3:0,0:0:0:0:
275,255,201977,2,0,P|269:295|267:336,1,82.1224974938203,10|0,0:0|0:0,0:0:0:0:
178,166,202227,6,0,B|82:198|114:102|18:134,1,164.244994987641,2|8,1:0|0:0,0:0:0:0:
28,130,202602,1,0,0:0:0:0:
140,68,202727,1,2,1:0:0:0:
136,50,202852,1,0,3:0:0:0:
203,3,202977,1,10,0:0:0:0:
270,49,203102,1,0,3:0:0:0:
344,136,203227,2,0,P|388:85|456:81,1,123.18374624073,2|0,1:0|2:0,0:0:0:0:
487,130,203477,6,0,P|494:171|506:225,1,82.1224974938203,12|0,0:0|0:0,0:0:0:0:
360,255,203727,1,0,1:0:0:0:
363,238,203852,1,0,3:0:0:0:
452,289,203977,6,0,P|459:330|471:384,1,82.1224974938203,8|0,0:0|3:0,0:0:0:0:
294,298,204227,1,0,1:0:0:0:
277,301,204352,1,0,3:0:0:0:
217,249,204477,1,8,0:0:0:0:
256,380,204602,1,0,3:0:0:0:
217,249,204727,2,0,P|208:208|201:168,1,82.1224974938203,0|0,1:0|3:0,0:0:0:0:
98,66,204977,5,0,3:0:0:0:
87,64,205060,1,0,3:0:0:0:
76,63,205143,1,0,3:0:0:0:
68,61,205227,1,6,1:0:0:0:
71,138,205393,1,2,3:0:0:0:
173,88,205560,1,2,3:0:0:0:
274,129,205727,2,0,B|368:96|337:192|431:160,1,157.593330207245,2|0,3:0|3:0,0:0:0:0:
442,11,206227,6,0,P|425:43|409:94,1,78.7966651036225,6|0,1:0|0:0,0:0:0:0:
502,226,206560,1,2,3:0:0:0:
473,299,206727,1,0,3:0:0:0:
397,275,206893,1,0,3:0:0:0:
512,367,207060,1,2,3:0:0:0:
397,275,207227,6,0,B|337:283|314:315|240:332,1,157.593330207245,6|0,1:0|3:0,0:0:0:0:
1,181,207727,2,0,P|48:195|121:207,1,118.194997655434,6|0,1:2|2:0,0:0:0:0:
172,149,208060,1,2,3:0:0:0:
189,384,208227,2,0,P|174:302|195:222,1,157.593330207245,6|0,1:0|3:0,0:0:0:0:
205,70,208727,1,2,3:0:0:0:
252,132,208893,1,0,3:0:0:0:
330,125,209060,1,0,3:0:0:0:
356,45,209227,5,6,1:0:0:0:
300,199,209393,1,2,3:0:0:0:
370,252,209560,1,2,3:0:0:0:
451,234,209727,6,0,P|433:154|422:64,1,157.593330207245,2|0,3:0|3:0,0:0:0:0:
281,296,210227,2,0,B|223:302|189:344|131:350,1,157.593330207245,6|0,1:0|3:0,0:0:0:0:
54,224,210727,5,2,3:0:0:0:
75,246,210893,1,0,3:0:0:0:
80,277,211060,1,0,3:0:0:0:
3,319,211227,6,0,B|-24:297|-27:248|20:220|20:220|67:192|64:144|38:121,1,236.389995310867,6|0,1:0|3:0,0:0:0:0:
109,23,211893,1,0,3:0:0:0:
170,70,212060,1,0,3:0:0:0:
243,37,212227,1,0,3:0:0:0:
459,37,213227,5,6,1:0:0:0:
402,95,213394,1,2,3:0:0:0:
491,197,213561,1,2,3:0:0:0:
377,369,213727,2,0,B|409:295|356:269|387:178,1,157.593330207245,2|0,3:0|0:0,0:0:0:0:
222,294,214227,2,0,P|265:303|319:325,1,78.7966651036225,6|0,1:0|0:0,0:0:0:0:
297,314,214561,1,2,3:0:0:0:
148,254,214728,1,0,3:0:0:0:
165,354,214894,1,0,3:0:0:0:
141,268,215061,1,2,3:0:0:0:
15,338,215227,6,0,P|39:260|42:196,1,118.194997655434,6|0,1:0|2:0,0:0:0:0:
43,224,215561,1,0,3:0:0:0:
88,85,215727,5,6,1:0:0:0:
76,96,215810,2,0,P|128:111|164:134,1,89.0300007471695,0|0,0:0|2:0,0:0:0:0:
157,128,216061,1,2,3:0:0:0:
283,17,216228,6,0,P|240:41|237:99,1,99.2633356810227,6|0,1:0|0:0,0:0:0:0:
232,87,216478,1,0,3:0:0:0:
232,87,216561,1,0,3:0:0:0:
299,141,216728,1,2,3:0:0:0:
375,100,216894,1,0,3:0:0:0:
446,149,217061,1,0,3:0:0:0:
447,68,217228,5,6,1:0:0:0:
373,180,217394,1,2,0:0:0:0:
487,286,217561,1,2,3:0:0:0:
436,340,217727,6,0,B|372:344|342:378|278:383,1,157.593330207245,2|0,3:0|3:0,0:0:0:0:
220,252,218228,1,2,1:0:0:0:
220,252,218310,2,0,P|259:266|286:299,1,78.7966651036225,0|0,0:0|3:0,0:0:0:0:
283,293,218561,1,2,3:0:0:0:
214,341,218728,1,0,3:0:0:0:
131,339,218894,1,0,3:0:0:0:
22,230,219061,1,2,3:0:0:0:
74,165,219227,6,0,B|164:205|213:141|279:178,1,196.991662759056,6|0,1:0|2:0,0:0:0:0:
267,172,219728,1,2,3:0:0:0:
330,230,219894,1,8,0:3:0:0:
305,313,220061,1,8,0:3:0:0:
408,355,220227,5,8,1:2:0:0:
414,324,220393,1,8,0:3:0:0:
398,296,220560,1,8,0:3:0:0:
475,131,220727,1,10,1:2:0:0:
414,174,220893,1,14,0:3:0:0:
300,91,221060,1,14,0:3:0:0:
182,196,221227,6,0,B|119:211|96:118|182:64|282:137|251:211,1,236.389995310867,14|0,1:2|3:0,0:0:0:0:
134,266,221893,1,8,0:3:0:0:
124,271,222060,1,4,0:3:0:0:
229,341,222227,6,0,B|266:368|326:363|356:272|356:272|386:182|476:182|506:242|506:242|446:272|476:333|476:333|446:272|386:302|386:302,1,577.159991193237,4|0,1:0|0:0,0:0:0:0:
