osu file format v14

[General]
AudioFilename: audio.mp3
AudioLeadIn: 0
PreviewTime: 163227
Countdown: 0
SampleSet: Soft
StackLeniency: 0.7
Mode: 0
LetterboxInBreaks: 0
WidescreenStoryboard: 1

[Editor]
DistanceSpacing: 0.4
BeatDivisor: 6
GridSize: 32
TimelineZoom: 1.4

[Metadata]
Title:A New Start
TitleUnicode:A New Start
Artist:Nanashi Mumei
ArtistUnicode:Nanashi Mumei
Creator:SMOKELIND
Version:frozz's Hard
Source:
Tags:Folk English 七詩ムメイ Japanese ホロライブ hololiveEN EN 2nd Generation Council frozz -Keqing Shikibe Mayu Shizuku- Kazato Asa Virtual youtuber vtuber ななしむめい 2 original song Tomoari Taguma 田熊知存 Dream Monster
BeatmapID:3558629
BeatmapSetID:1705429

[Difficulty]
HPDrainRate:5
CircleSize:3.5
OverallDifficulty:6
ApproachRate:8
SliderMultiplier:2.8
SliderTickRate:1

[Events]
//Background and Video events
0,0,"BG.jpg",0,0
Video,-54,"vid.mp4"
//Break Periods
2,163426,170477
//Storyboard Layer 0 (Background)
//Storyboard Layer 1 (Fail)
//Storyboard Layer 2 (Pass)
//Storyboard Layer 3 (Foreground)
//Storyboard Layer 4 (Overlay)
//Storyboard Sound Samples

[TimingPoints]
-773,500,4,2,77,27,1,0
727,-100,4,2,77,37,0,0
977,-100,4,2,77,47,0,0
1227,500,4,2,77,77,1,0
1227,-125,4,2,77,77,0,0
13227,500,4,2,77,57,1,0
13227,-142.857142857143,4,2,77,57,0,0
29227,-166.666666666667,4,2,77,57,0,0
37227,-125,4,2,77,67,0,0
37727,-111.111111111111,4,2,77,67,0,0
38227,-100,4,2,77,77,0,0
38727,-90.909090909091,4,2,77,77,0,0
39227,500,4,2,77,87,1,0
39227,-83.3333333333333,4,2,77,87,0,0
71227,-111.111111111111,4,2,77,77,0,0
79227,-166.666666666666,4,2,77,47,0,0
81227,500,4,2,77,47,1,0
81227,-142.857142857142,4,2,77,47,0,0
89227,-142.857142857142,4,2,77,57,0,0
97227,-166.666666666666,4,2,77,57,0,0
105227,-125,4,2,77,67,0,0
105727,-111.111111111111,4,2,77,67,0,0
106227,-100,4,2,77,77,0,0
106727,-90.9090909090907,4,2,77,77,0,0
107227,500,4,2,77,87,1,0
107227,-83.3333333333333,4,2,77,87,0,0
139227,-111.111111111111,4,2,77,77,0,0
147227,-125,4,2,77,77,0,0
157727,-125,4,2,77,57,0,0
159227,-125,4,2,77,77,0,0
163227,-125,4,2,77,47,0,0
163727,-125,4,2,77,27,0,0
170727,-125,4,2,77,47,0,0
171227,-125,4,2,77,67,0,0
171727,-111.111111111111,4,2,77,67,0,0
172227,-100,4,2,77,77,0,0
172727,-90.9090909090909,4,2,77,77,0,0
173227,500,4,2,77,87,1,0
173227,-83.3333333333333,4,2,77,87,0,0
205227,-111.111111111111,4,2,77,77,0,0
213227,-125,4,2,77,77,0,0
222352,-125,4,2,77,5,0,0

[Colours]
Combo1 : 255,213,170
Combo2 : 255,170,200

[HitObjects]
470,201,1227,6,0,P|454:255|448:315,1,74.6666666666667,6|2,1:0|3:0,0:0:0:0:
466,358,1560,1,2,3:0:0:0:
466,358,1727,2,0,P|396:289|340:320,1,149.333333333333,2|0,3:0|0:0,0:0:0:0:
317,375,2227,1,6,1:0:0:0:
170,308,2560,2,0,P|120:330|77:337,2,74.6666666666667,2|0|0,3:0|3:0|3:0,0:0:0:0:
208,228,3060,5,2,3:0:0:0:
208,228,3227,2,0,L|228:40,1,149.333333333333,6|0,1:0|3:0,0:0:0:0:
143,32,3727,2,0,L|127:180,1,149.333333333333,6|2,1:0|3:0,0:0:0:0:
49,210,4227,1,6,1:0:0:0:
174,311,4560,1,0,3:0:0:0:
174,311,4727,2,0,L|154:413,2,74.6666666666667,2|0|0,3:0|3:0|3:0,0:0:0:0:
252,359,5227,6,0,P|318:339|348:281,1,74.6666666666667,6|2,1:0|0:0,0:0:0:0:
356,260,5560,1,2,3:0:0:0:
356,260,5727,2,0,P|379:361|465:340,1,149.333333333333,2|0,3:0|3:0,0:0:0:0:
476,318,6227,1,6,1:2:0:0:
441,176,6560,2,0,P|451:139|472:90,2,74.6666666666667,2|0|0,3:0|3:0|3:0,0:0:0:0:
354,159,7060,5,2,3:0:0:0:
354,159,7227,2,0,P|250:193|180:233,1,149.333333333333,6|0,1:0|3:0,0:0:0:0:
178,133,7727,2,0,P|245:101|317:80,1,149.333333333333,2|2,3:0|3:0,0:0:0:0:
375,14,8227,2,0,L|467:23,2,74.6666666666667,2|0|2,3:0|3:0|3:0,0:0:0:0:
317,80,8727,2,0,L|308:172,2,74.6666666666667,2|0|2,3:0|3:0|3:0,0:0:0:0:
252,12,9227,1,6,1:0:0:0:
105,76,9560,5,0,3:0:0:0:
105,76,9727,2,0,P|51:50|2:4,2,74.6666666666667,0|0|0,3:0|3:0|3:0,0:0:0:0:
178,133,10227,2,0,P|182:192|166:257,2,74.6666666666667,0|8|8,3:0|0:3|0:3,0:0:0:0:
192,40,10727,1,4,0:3:0:0:
192,40,10893,2,0,P|241:6|305:-12,1,74.6666666666667,6|6,0:3|0:3,0:0:0:0:
338,60,11227,6,0,P|396:123|463:100,1,149.333333333333,6|0,1:0|3:0,0:0:0:0:
511,49,11727,1,0,3:0:0:0:
511,49,11893,2,0,P|490:111|481:159,1,74.6666666666667,0|0,3:0|3:0,0:0:0:0:
403,174,12227,2,0,B|370:248|440:294|433:263|506:312|470:382,1,224,8|0,0:0|0:0,0:0:0:0:
476,365,13227,6,0,P|427:355|361:341,1,65.3333313395183,2|2,1:0|3:0,0:0:0:0:
337,305,13560,1,2,3:0:0:0:
337,305,13727,2,0,P|254:318|176:343,1,130.666662679037,10|2,0:0|3:0,0:0:0:0:
135,369,14227,2,0,P|80:317|115:257,1,130.666662679037,2|0,1:0|3:0,0:0:0:0:
164,223,14727,2,0,P|201:234|240:242,1,65.3333313395183,10|0,0:0|3:0,0:0:0:0:
292,171,15060,5,2,3:0:0:0:
292,171,15227,2,0,P|221:147|149:136,1,130.666662679037,2|0,1:0|3:0,0:0:0:0:
90,84,15727,2,0,P|53:98|2:109,2,65.3333313395183,8|0|2,0:0|3:0|3:0,0:0:0:0:
173,49,16227,1,2,1:0:0:0:
334,87,16560,1,0,3:0:0:0:
334,87,16727,2,0,P|401:73|412:-4,1,130.666662679037,10|2,0:0|3:0,0:0:0:0:
506,17,17227,5,2,1:0:0:0:
512,174,17560,1,0,3:0:0:0:
512,174,17727,2,0,P|466:122|394:151,1,130.666662679037,10|2,0:0|3:0,0:0:0:0:
375,211,18227,1,2,1:0:0:0:
481,307,18560,1,0,3:0:0:0:
481,307,18727,2,0,P|410:321|310:348,1,130.666662679037,10|2,0:0|3:0,0:0:0:0:
280,288,19227,6,0,P|241:238|264:180,1,130.666662679037,2|0,1:0|3:0,0:0:0:0:
246,96,19727,1,8,0:0:0:0:
246,96,19893,2,0,P|164:109|122:95,1,65.3333313395183,2|2,3:0|3:0,0:0:0:0:
101,64,20227,2,0,L|114:-22,2,65.3333313395183,2|0|0,1:0|3:0|3:0,0:0:0:0:
86,178,20727,1,2,0:0:0:0:
236,357,21227,6,0,L|147:337,1,65.3333313395183,6|2,1:0|3:0,0:0:0:0:
78,358,21560,1,2,3:0:0:0:
78,358,21727,2,0,P|131:312|115:228,1,130.666662679037,10|2,0:0|3:0,0:0:0:0:
86,178,22227,2,0,L|99:90,1,65.3333313395183,2|0,1:0|3:0,0:0:0:0:
99,103,22477,1,0,3:0:0:0:
103,93,22560,1,0,3:0:0:0:
23,39,22727,2,0,P|102:22|191:-11,1,130.666662679037,10|2,0:0|3:0,0:0:0:0:
229,47,23227,5,2,1:0:0:0:
489,135,23727,1,10,0:0:0:0:
302,251,24060,1,2,3:0:0:0:
294,232,24227,1,2,1:0:0:0:
454,355,24560,1,0,3:0:0:0:
472,277,24727,2,0,P|396:296|380:381,1,130.666662679037,10|2,0:0|3:0,0:0:0:0:
301,378,25227,5,2,1:0:0:0:
171,217,25560,1,0,3:0:0:0:
171,217,25727,2,0,P|247:198|263:113,1,130.666662679037,10|2,0:0|3:0,0:0:0:0:
235,76,26227,2,0,L|88:60,1,130.666662679037,2|2,1:0|3:0,0:0:0:0:
9,54,26727,1,8,0:0:0:0:
9,54,26893,2,0,P|31:105|43:168,1,65.3333313395183,2|2,3:0|3:0,0:0:0:0:
74,207,27227,6,0,L|58:311,1,65.3333313395183,2|0,1:0|3:0,0:0:0:0:
64,280,27477,1,0,3:0:0:0:
64,289,27560,1,0,3:0:0:0:
124,365,27727,2,0,L|20:381,2,65.3333313395183,8|0|0,0:0|3:0|3:0,0:0:0:0:
173,284,28227,6,0,L|180:207,1,65.3333313395183,0|0,1:0|3:0,0:0:0:0:
251,317,28560,2,0,L|295:253,1,65.3333313395183,8|4,0:3|0:3,0:0:0:0:
310,383,28893,2,0,L|380:350,1,65.3333313395183,12|0,0:3|3:0,0:0:0:0:
476,373,29227,6,0,P|495:327|491:282,1,55.9999982910157,6|2,1:0|0:0,0:0:0:0:
461,249,29560,1,2,0:0:0:0:
461,249,29727,2,0,L|480:102,1,111.999996582031,2|2,3:0|0:0,0:0:0:0:
448,58,30227,2,0,P|378:93|297:108,1,111.999996582031,10|2,0:0|0:0,0:0:0:0:
141,57,31060,5,0,0:0:0:0:
141,57,31227,2,0,P|84:46|47:28,2,55.9999982910157,2|2|2,1:0|0:0|1:0,0:0:0:0:
243,44,31726,2,0,P|210:114|197:187,1,111.999996582031,2|2,3:0|0:0,0:0:0:0:
144,225,32227,2,0,P|99:161|43:113,1,111.999996582031,10|2,0:0|3:0,0:0:0:0:
93,331,33060,5,2,0:0:0:0:
93,331,33227,2,0,P|133:311|184:305,1,55.9999982910157,6|2,1:0|3:0,0:0:0:0:
223,355,33560,1,2,3:0:0:0:
223,355,33727,2,0,L|255:197,1,111.999996582031,10|0,0:0|3:0,0:0:0:0:
308,169,34227,6,0,P|367:155|392:133,1,55.9999982910157,6|2,1:0|3:0,0:0:0:0:
446,114,34560,1,2,3:0:0:0:
446,114,34727,2,0,L|423:241,1,111.999996582031,10|2,0:0|3:0,0:0:0:0:
453,304,35227,5,6,1:0:0:0:
382,56,35727,1,4,1:0:0:0:
134,127,36227,1,4,1:0:0:0:
205,375,36727,1,4,1:0:0:0:
453,304,37227,6,0,L|438:361,3,56,6|2|10|2,1:0|0:0|0:0|0:0,0:0:0:0:
366,306,37727,2,0,L|250:275,3,62.9999980773926,6|2|10|2,1:0|0:0|0:0|0:0,0:0:0:0:
365,220,38227,2,0,L|395:104,3,70,6|2|10|10,1:0|0:0|0:0|0:0,0:0:0:0:
287,167,38727,6,0,L|171:136,1,77.0000023498536,14|2,1:2|3:0,0:0:0:0:
277,75,38977,2,0,L|307:-40,1,77.0000023498536,2|2,3:0|3:0,0:0:0:0:
192,22,39227,6,0,P|99:46|94:151,1,167.999994873047,6|10,1:0|0:0,0:0:0:0:
126,177,39602,1,0,0:0:0:0:
126,177,39727,2,0,L|104:289,1,83.9999974365235,2|0,1:0|3:0,0:0:0:0:
87,353,39977,6,0,P|121:290|244:303,2,167.999994873047,10|0|8,0:0|1:0|0:0,0:0:0:0:
298,342,40727,2,0,P|357:252|323:182,1,167.999994873047,2|10,1:0|0:0,0:0:0:0:
266,175,41102,1,0,0:0:0:0:
266,175,41227,5,2,1:0:0:0:
382,63,41477,1,10,0:0:0:0:
223,85,41727,1,2,1:0:0:0:
364,161,41977,1,10,0:0:0:0:
295,16,42227,1,2,1:0:0:0:
455,28,42477,5,8,0:0:0:0:
455,28,42602,1,0,0:0:0:0:
455,28,42727,2,0,P|463:62|480:132,1,83.9999974365235,2|0,1:0|0:0,0:0:0:0:
439,201,42977,2,0,P|448:241|458:282,1,83.9999974365235,10|0,0:0|3:0,0:0:0:0:
457,381,43227,6,0,P|418:313|302:341,1,167.999994873047,2|10,1:0|0:0,0:0:0:0:
269,363,43602,1,0,0:0:0:0:
269,363,43727,2,0,P|251:321|265:259,1,83.9999974365235,2|0,1:0|3:0,0:0:0:0:
296,203,43977,6,0,P|362:166|352:69,1,167.999994873047,10|0,0:0|1:0,0:0:0:0:
174,175,44477,1,10,0:0:0:0:
174,175,44602,1,0,3:0:0:0:
174,175,44727,2,0,L|-14:208,1,167.999994873047,2|10,1:0|0:0,0:0:0:0:
0,367,45227,6,0,L|101:347,1,83.9999974365235,6|0,1:0|0:0,0:0:0:0:
164,333,45477,1,10,0:0:0:0:
174,175,45727,6,0,L|275:155,1,83.9999974365235,6|0,1:0|3:0,0:0:0:0:
338,141,45977,1,10,0:0:0:0:
512,0,46227,6,0,L|492:101,1,83.9999974365235,6|0,1:0|0:0,0:0:0:0:
478,164,46477,1,8,0:0:0:0:
309,234,46727,6,0,L|289:335,1,83.9999974365235,10|0,0:0|3:0,0:0:0:0:
213,261,46977,2,0,L|112:241,1,83.9999974365235,10|0,0:0|3:0,0:0:0:0:
191,163,47227,6,0,P|171:106|65:97,1,167.999994873047,6|10,1:0|0:0,0:0:0:0:
15,35,47602,1,0,0:0:0:0:
15,35,47727,2,0,P|-8:82|15:148,1,83.9999974365235,2|0,1:0|3:0,0:0:0:0:
57,179,47977,6,0,P|84:277|101:355,2,167.999994873047,10|0|8,0:0|1:0|0:0,0:0:0:0:
216,7,48727,2,0,P|294:37|377:45,1,167.999994873047,2|10,1:0|0:0,0:0:0:0:
483,51,49102,1,0,0:0:0:0:
483,51,49227,5,2,1:0:0:0:
424,210,49477,1,10,0:0:0:0:
378,46,49727,1,2,1:0:0:0:
512,152,49977,1,10,0:0:0:0:
341,145,50227,1,2,1:0:0:0:
421,297,50477,5,8,0:0:0:0:
421,297,50602,1,0,0:0:0:0:
421,297,50727,2,0,P|361:310|293:326,1,83.9999974365235,2|0,1:0|0:0,0:0:0:0:
247,316,50977,2,0,P|187:329|119:345,1,83.9999974365235,10|0,0:0|3:0,0:0:0:0:
77,306,51227,6,0,P|11:263|39:163,1,167.999994873047,2|10,1:0|0:0,0:0:0:0:
91,123,51602,1,0,0:0:0:0:
91,123,51727,2,0,P|157:166|129:266,1,167.999994873047,2|10,1:0|0:0,0:0:0:0:
291,384,52227,6,0,P|328:285|369:201,1,167.999994873047,2|8,1:0|0:0,0:0:0:0:
425,180,52602,1,0,0:0:0:0:
425,180,52727,2,0,L|531:169,1,83.9999974365235,2|0,1:0|3:0,0:0:0:0:
512,80,52977,2,0,L|428:88,1,83.9999974365235,10|0,0:0|3:0,0:0:0:0:
348,131,53227,6,0,P|257:94|265:24,1,167.999994873047,6|0,1:0|0:0,0:0:0:0:
338,0,53602,1,0,3:0:0:0:
338,0,53727,1,0,1:0:0:0:
159,44,53977,5,8,0:0:0:0:
159,44,54102,1,0,3:0:0:0:
159,44,54227,2,0,L|185:150,2,83.9999974365235,2|8|8,1:0|0:0|0:0,0:0:0:0:
14,171,54727,6,0,L|40:277,1,83.9999974365235,10|4,0:3|0:3,0:0:0:0:
127,239,54977,2,0,L|233:213,1,83.9999974365235,10|8,0:0|0:3,0:0:0:0:
201,315,55227,6,0,P|278:373|360:333,1,167.999994873047,6|10,1:0|0:0,0:0:0:0:
431,359,55602,1,0,0:0:0:0:
431,359,55727,2,0,P|441:310|464:250,1,83.9999974365235,2|0,1:0|3:0,0:0:0:0:
512,193,55977,6,0,B|456:231|372:165|423:176|334:91|263:137|263:137|309:171|342:194,1,335.999989746094,10|8,0:0|0:0,0:0:0:0:
340,258,56602,1,0,0:0:0:0:
340,258,56727,2,0,L|164:290,1,167.999994873047,2|10,1:0|0:0,0:0:0:0:
83,300,57102,5,0,0:0:0:0:
83,300,57227,2,0,P|141:246|79:145,1,167.999994873047,2|10,1:0|0:0,0:0:0:0:
78,81,57602,1,0,0:0:0:0:
78,81,57727,2,0,P|132:139|233:77,1,167.999994873047,2|10,1:0|0:0,0:0:0:0:
241,41,58102,1,0,0:0:0:0:
241,41,58227,1,2,1:0:0:0:
374,129,58477,5,8,0:0:0:0:
374,129,58602,1,0,0:0:0:0:
374,129,58727,2,0,L|392:32,1,83.9999974365235,2|0,1:0|0:0,0:0:0:0:
477,0,58977,2,0,L|495:97,1,83.9999974365235,10|0,0:0|3:0,0:0:0:0:
470,183,59227,6,0,P|390:254|428:342,1,167.999994873047,2|10,1:0|0:0,0:0:0:0:
342,381,59602,1,0,0:0:0:0:
342,381,59727,2,0,P|299:366|228:366,1,83.9999974365235,2|0,1:0|3:0,0:0:0:0:
176,334,59977,6,0,P|280:301|262:208,1,167.999994873047,10|0,0:0|1:0,0:0:0:0:
454,104,60477,1,10,0:0:0:0:
454,104,60602,1,0,3:0:0:0:
454,104,60727,2,0,L|479:295,1,167.999994873047,2|10,1:0|0:0,0:0:0:0:
342,381,61227,6,0,L|231:355,1,83.9999974365235,6|0,1:0|0:0,0:0:0:0:
176,334,61477,1,10,0:0:0:0:
166,189,61727,6,0,L|55:163,1,83.9999974365235,6|0,1:0|3:0,0:0:0:0:
0,142,61977,1,10,0:0:0:0:
210,0,62227,6,0,L|243:146,1,83.9999974365235,6|0,1:0|0:0,0:0:0:0:
246,162,62477,1,8,0:0:0:0:
471,147,62727,6,0,L|504:293,1,83.9999974365235,10|0,0:0|3:0,0:0:0:0:
399,220,62977,2,0,L|253:253,1,83.9999974365235,10|0,0:0|3:0,0:0:0:0:
381,316,63227,6,0,P|345:366|220:335,1,167.999994873047,6|10,1:0|0:0,0:0:0:0:
156,366,63602,1,0,0:0:0:0:
156,366,63727,2,0,L|176:259,1,83.9999974365235,2|0,1:0|3:0,0:0:0:0:
138,196,63977,6,0,P|57:185|3:244,2,167.999994873047,10|0|8,0:0|1:0|0:0,0:0:0:0:
232,26,64727,2,0,P|312:49|395:59,1,167.999994873047,2|10,1:0|0:0,0:0:0:0:
495,97,65102,1,0,0:0:0:0:
495,97,65227,5,2,1:0:0:0:
389,231,65477,1,10,0:0:0:0:
395,59,65727,1,2,1:0:0:0:
491,202,65977,1,10,0:0:0:0:
330,142,66227,1,2,1:0:0:0:
359,312,66477,5,8,0:0:0:0:
359,312,66602,1,0,0:0:0:0:
359,312,66727,2,0,P|309:316|244:330,1,83.9999974365235,2|0,1:0|0:0,0:0:0:0:
184,309,66977,2,0,P|134:313|69:327,1,83.9999974365235,10|0,0:0|3:0,0:0:0:0:
9,293,67227,6,0,P|86:233|49:148,1,167.999994873047,2|10,1:0|0:0,0:0:0:0:
7,103,67602,1,0,0:0:0:0:
7,103,67727,2,0,P|145:63|227:25,1,167.999994873047,2|10,1:0|0:0,0:0:0:0:
371,178,68227,6,0,P|389:57|405:-13,1,167.999994873047,2|8,1:0|0:0,0:0:0:0:
202,142,68727,2,0,P|219:202|230:254,1,83.9999974365235,2|0,1:0|3:0,0:0:0:0:
229,307,68977,1,10,0:0:0:0:
383,360,69227,6,0,P|470:336|469:244,1,167.999994873047,2|12,1:0|0:0,0:0:0:0:
512,95,69727,1,0,1:0:0:0:
512,95,69852,1,0,3:0:0:0:
512,95,69977,2,0,P|448:114|385:139,1,83.9999974365235,8|0,0:0|3:0,0:0:0:0:
371,178,70227,1,0,1:0:0:0:
158,171,70477,6,0,P|212:211|255:265,1,83.9999974365235,8|0,0:0|3:0,0:0:0:0:
309,278,70727,2,0,B|247:243|168:289|205:305|141:369|62:315,1,251.999992309571,0|0,1:0|0:0,0:0:0:0:
3,275,71227,6,0,P|-10:318|0:361,1,83.9999974365235,6|2,1:0|3:0,0:0:0:0:
83,328,71560,1,2,3:0:0:0:
83,328,71727,2,0,P|153:341|281:367,1,167.999994873047,2|0,3:0|3:0,0:0:0:0:
315,295,72227,2,0,P|292:220|307:166,1,83.9999974365235,6|0,1:0|0:0,0:0:0:0:
369,167,72560,1,2,3:0:0:0:
369,167,72727,2,0,P|269:151|272:63,1,167.999994873047,0|2,3:0|3:0,0:0:0:0:
334,54,73227,6,0,L|110:27,1,167.999994873047,6|0,1:0|3:0,0:0:0:0:
64,29,73727,2,0,L|91:253,1,167.999994873047,2|2,3:0|3:0,0:0:0:0:
66,286,74227,2,0,P|17:268|-5:211,2,83.9999974365235,6|0|0,1:0|3:0|3:0,0:0:0:0:
153,262,74727,1,2,3:0:0:0:
314,343,75060,5,0,3:0:0:0:
314,343,75227,2,0,P|376:308|419:315,1,83.9999974365235,6|2,1:0|3:0,0:0:0:0:
469,346,75560,1,2,3:0:0:0:
469,346,75727,2,0,P|415:267|481:185,1,167.999994873047,2|0,3:0|3:0,0:0:0:0:
486,127,76227,2,0,B|520:83|517:-13|421:-42|377:38|423:77,1,251.999992309571,6|2,1:0|3:0,0:0:0:0:
188,154,77227,6,0,B|149:199|68:155|97:59|194:56|237:90,1,251.999992309571,6|0,1:0|3:0,0:0:0:0:
311,135,77893,2,0,P|325:82|312:31,2,83.9999974365235,0|0|0,3:0|3:0|3:0,0:0:0:0:
178,251,78560,1,0,3:0:0:0:
178,251,78727,2,0,P|204:320|214:374,1,83.9999974365235,10|8,0:3|0:3,0:0:0:0:
132,384,79060,1,10,0:3:0:0:
132,384,79227,6,0,B|77:301|147:197|184:290|253:169|193:89,1,335.999989746094,2|0,0:0|0:0,0:0:0:0:
34,100,80727,2,0,L|27:145,5,27.9999991455078,0|0|0|0|0|0,0:0|0:0|3:0|3:0|3:0|3:0,0:0:0:0:
67,163,81227,6,0,P|125:149|153:146,1,65.3333313395183,6|2,1:2|0:0,0:0:0:0:
199,95,81560,1,2,0:0:0:0:
199,95,81727,2,0,P|268:117|359:118,1,130.666662679037,2|0,1:0|0:0,0:0:0:0:
410,84,82227,2,0,P|434:8|538:30,1,195.999994018555,2|2,1:0|1:0,0:0:0:0:
490,166,83060,5,2,0:0:0:0:
490,166,83227,2,0,P|466:236|448:375,1,195.999994018555,2|0,1:0|1:0,0:0:0:0:
317,342,84060,1,2,0:0:0:0:
317,342,84227,2,0,P|239:361|167:397,1,130.666662679037,2|0,1:0|0:0,0:0:0:0:
100,375,84727,2,0,P|124:323|130:274,1,65.3333313395183,2|0,1:0|0:0,0:0:0:0:
43,286,85060,5,2,0:0:0:0:
43,286,85227,2,0,P|111:269|110:188,1,130.666662679037,2|0,1:0|0:0,0:0:0:0:
116,126,85727,2,0,P|144:123|195:111,1,65.3333313395183,2|0,1:0|0:0,0:0:0:0:
193,25,86060,1,2,0:0:0:0:
193,25,86227,2,0,P|145:30|59:50,1,130.666662679037,2|0,1:0|0:0,0:0:0:0:
17,117,86727,1,2,1:0:0:0:
43,286,87060,5,2,0:0:0:0:
43,286,87227,2,0,P|145:307|234:333,1,195.999994018555,2|0,1:0|1:0,0:0:0:0:
324,373,87893,2,0,P|366:363|431:352,1,65.3333313395183,2|2,0:0|0:0,0:0:0:0:
476,377,88227,2,0,L|502:234,1,130.666662679037,2|0,1:0|0:0,0:0:0:0:
512,166,88727,1,2,0:0:0:0:
314,202,89227,6,0,P|281:205|248:206,1,65.3333313395183,6|2,1:0|3:0,0:0:0:0:
187,137,89560,1,2,3:0:0:0:
187,137,89727,2,0,P|244:101|241:17,1,130.666662679037,10|2,0:0|3:0,0:0:0:0:
330,22,90227,2,0,L|412:39,1,65.3333313395183,2|0,1:0|3:0,0:0:0:0:
403,37,90477,1,0,3:0:0:0:
413,39,90560,1,0,3:0:0:0:
512,7,90727,2,0,P|489:77|486:97,1,65.3333313395183,10|0,0:0|3:0,0:0:0:0:
413,136,91060,5,2,3:0:0:0:
413,136,91227,2,0,P|442:209|460:282,1,130.666662679037,2|0,1:0|3:0,0:0:0:0:
367,290,91727,2,0,P|338:217|320:144,1,130.666662679037,10|2,0:0|3:0,0:0:0:0:
237,150,92227,2,0,P|221:198|198:235,2,65.3333313395183,2|0|0,1:0|3:0|3:0,0:0:0:0:
193,73,92727,6,0,P|147:55|100:59,1,65.3333313395183,10|0,0:0|0:0,0:0:0:0:
41,84,93060,1,2,3:0:0:0:
41,84,93227,2,0,P|62:166|71:224,1,130.666662679037,2|0,1:0|3:0,0:0:0:0:
60,295,93727,6,0,P|91:329|153:347,1,65.3333313395183,10|0,0:0|0:0,0:0:0:0:
196,320,94060,1,2,3:0:0:0:
196,320,94227,2,0,P|223:234|253:181,1,130.666662679037,2|2,1:0|3:0,0:0:0:0:
328,160,94727,1,8,0:0:0:0:
328,160,94893,2,0,P|384:149|439:118,1,65.3333313395183,2|2,3:0|3:0,0:0:0:0:
477,145,95227,6,0,L|457:236,1,65.3333313395183,2|0,1:0|3:0,0:0:0:0:
462,218,95477,1,0,3:0:0:0:
462,228,95560,1,0,3:0:0:0:
419,313,95727,2,0,P|469:331|520:363,2,65.3333313395183,8|0|0,0:0|3:0|3:0,0:0:0:0:
335,355,96227,6,0,P|330:315|334:271,1,65.3333313395183,0|0,1:0|3:0,0:0:0:0:
217,320,96560,2,0,P|232:283|258:246,1,65.3333313395183,8|4,0:3|0:3,0:0:0:0:
132,230,96893,2,0,P|163:206|204:187,1,65.3333313395183,12|0,0:3|3:0,0:0:0:0:
222,94,97227,6,0,L|127:82,1,55.9999982910157,6|2,1:0|0:0,0:0:0:0:
85,37,97560,1,2,0:0:0:0:
85,37,97727,2,0,P|33:93|49:168,1,111.999996582031,2|2,3:0|0:0,0:0:0:0:
3,219,98227,2,0,L|35:362,1,111.999996582031,10|2,0:0|0:0,0:0:0:0:
205,372,99060,5,0,0:0:0:0:
205,372,99227,2,0,P|257:382|297:401,2,55.9999982910157,2|2|2,1:0|0:0|1:0,0:0:0:0:
134,313,99727,2,0,P|142:246|225:239,1,111.999996582031,2|2,3:0|0:0,0:0:0:0:
264,253,100227,2,0,L|388:280,1,111.999996582031,10|2,0:0|3:0,0:0:0:0:
481,188,101060,5,2,0:0:0:0:
481,188,101227,2,0,P|465:156|460:104,1,55.9999982910157,6|2,1:0|3:0,0:0:0:0:
487,58,101560,1,2,3:0:0:0:
487,58,101727,2,0,L|351:37,1,111.999996582031,10|0,0:0|3:0,0:0:0:0:
279,65,102227,6,0,P|258:107|260:152,1,55.9999982910157,6|2,1:0|3:0,0:0:0:0:
291,198,102560,1,2,3:0:0:0:
291,198,102727,2,0,L|155:219,1,111.999996582031,10|2,0:0|3:0,0:0:0:0:
99,179,103227,5,6,1:0:0:0:
279,65,103727,1,4,1:0:0:0:
393,245,104227,1,4,1:0:0:0:
213,359,104727,1,4,1:0:0:0:
77,127,105227,6,0,L|110:207,3,56,6|2|10|2,1:0|0:0|0:0|0:0,0:0:0:0:
164,121,105727,2,0,L|250:132,3,62.9999980773926,6|2|10|2,1:0|0:0|0:0|0:0,0:0:0:0:
192,207,106227,2,0,L|225:287,3,70,6|2|10|10,1:0|0:0|0:0|0:0,0:0:0:0:
283,213,106727,6,0,L|369:224,1,77.0000023498536,14|2,1:2|3:0,0:0:0:0:
316,304,106977,2,0,L|349:384,1,77.0000023498536,2|2,3:0|3:0,0:0:0:0:
416,309,107227,6,0,P|494:238|470:167,1,167.999994873047,6|10,1:0|0:0,0:0:0:0:
402,145,107602,1,0,0:0:0:0:
402,145,107727,2,0,P|419:89|442:37,1,83.9999974365235,2|0,1:0|3:0,0:0:0:0:
505,4,107977,2,0,P|421:25|311:26,2,167.999994873047,10|0|8,0:0|1:0|0:0,0:0:0:0:
359,223,108727,2,0,P|308:172|178:186,1,167.999994873047,2|10,1:0|0:0,0:0:0:0:
172,249,109102,1,0,0:0:0:0:
172,249,109227,5,2,1:0:0:0:
64,138,109477,1,10,0:0:0:0:
216,164,109727,1,2,1:0:0:0:
78,233,109977,1,10,0:0:0:0:
149,95,110227,1,2,1:0:0:0:
304,87,110477,5,8,0:0:0:0:
304,87,110602,1,0,0:0:0:0:
304,87,110727,2,0,P|353:75|409:56,1,83.9999974365235,2|0,1:0|0:0,0:0:0:0:
472,40,110977,2,0,P|484:80|493:121,1,83.9999974365235,10|0,0:0|3:0,0:0:0:0:
512,218,111227,6,0,P|423:227|418:337,1,167.999994873047,2|10,1:0|0:0,0:0:0:0:
441,368,111602,1,0,0:0:0:0:
441,368,111727,2,0,P|388:379|337:346,1,83.9999974365235,2|0,1:0|3:0,0:0:0:0:
305,293,111977,2,0,L|83:324,1,167.999994873047,10|0,0:0|1:0,0:0:0:0:
59,149,112477,5,10,0:0:0:0:
59,149,112602,1,0,3:0:0:0:
59,149,112727,2,0,P|167:157|204:228,1,167.999994873047,2|10,1:0|0:0,0:0:0:0:
361,369,113227,6,0,L|257:356,1,83.9999974365235,6|0,1:0|0:0,0:0:0:0:
192,346,113477,1,10,0:0:0:0:
197,199,113727,6,0,L|93:186,1,83.9999974365235,6|0,1:0|3:0,0:0:0:0:
28,176,113977,1,10,0:0:0:0:
254,1,114227,6,0,L|269:115,1,83.9999974365235,6|0,1:0|0:0,0:0:0:0:
277,166,114477,1,8,0:0:0:0:
470,171,114727,6,0,L|485:285,1,83.9999974365235,10|0,0:0|3:0,0:0:0:0:
494,349,114977,2,0,L|380:364,1,83.9999974365235,10|0,0:0|3:0,0:0:0:0:
324,374,115227,6,0,P|273:322|320:244,1,167.999994873047,6|10,1:0|0:0,0:0:0:0:
381,197,115602,1,0,0:0:0:0:
381,197,115727,2,0,P|391:138|410:92,1,83.9999974365235,2|0,1:0|3:0,0:0:0:0:
334,49,115977,2,0,P|426:37|498:-7,2,167.999994873047,10|0|8,0:0|1:0|0:0,0:0:0:0:
311,247,116727,2,0,P|213:218|131:210,1,167.999994873047,2|10,1:0|0:0,0:0:0:0:
53,207,117102,1,0,0:0:0:0:
53,207,117227,5,2,1:0:0:0:
94,354,117477,1,10,0:0:0:0:
147,210,117727,1,2,1:0:0:0:
20,296,117977,1,10,0:0:0:0:
173,301,118227,1,2,1:0:0:0:
253,170,118477,5,8,0:0:0:0:
253,170,118602,1,0,0:0:0:0:
253,170,118727,2,0,P|322:182|377:199,1,83.9999974365235,2|0,1:0|0:0,0:0:0:0:
427,201,118977,2,0,P|436:160|442:118,1,83.9999974365235,10|0,0:0|3:0,0:0:0:0:
444,29,119227,6,0,P|349:31|299:92,1,167.999994873047,2|10,1:0|0:0,0:0:0:0:
215,85,119602,1,0,0:0:0:0:
215,85,119727,2,0,P|155:141|73:137,1,167.999994873047,2|10,1:0|0:0,0:0:0:0:
29,327,120227,6,0,P|133:304|223:287,1,167.999994873047,2|8,1:0|0:0,0:0:0:0:
285,275,120602,1,0,0:0:0:0:
285,275,120727,2,0,L|260:398,1,83.9999974365235,2|0,1:0|3:0,0:0:0:0:
354,377,120977,2,0,L|370:294,1,83.9999974365235,10|0,0:0|3:0,0:0:0:0:
348,204,121227,6,0,P|296:134|353:61,1,167.999994873047,6|0,1:0|0:0,0:0:0:0:
410,51,121602,1,0,3:0:0:0:
410,51,121727,1,0,1:0:0:0:
490,185,121977,5,8,0:0:0:0:
490,185,122102,1,0,3:0:0:0:
490,185,122227,2,0,L|468:295,2,83.9999974365235,2|8|8,1:0|0:0|0:0,0:0:0:0:
369,294,122727,6,0,L|270:317,1,83.9999974365235,10|4,0:3|0:3,0:0:0:0:
304,216,122977,2,0,L|234:141,1,83.9999974365235,10|8,0:0|0:3,0:0:0:0:
196,241,123227,6,0,P|112:199|139:97,1,167.999994873047,6|10,1:0|0:0,0:0:0:0:
187,90,123602,1,0,0:0:0:0:
187,90,123727,2,0,P|179:35|182:-6,1,83.9999974365235,2|0,1:0|3:0,0:0:0:0:
277,36,123977,6,0,B|361:2|408:89|371:86|416:145|497:128|497:128|462:158|460:205,1,335.999989746094,10|8,0:0|0:0,0:0:0:0:
493,278,124602,1,0,0:0:0:0:
493,278,124727,2,0,P|385:300|307:323,1,167.999994873047,2|10,1:0|0:0,0:0:0:0:
239,334,125102,5,0,0:0:0:0:
239,334,125227,2,0,P|314:296|293:207,1,167.999994873047,2|10,1:0|0:0,0:0:0:0:
372,160,125602,1,0,0:0:0:0:
372,160,125727,2,0,P|292:163|260:91,1,167.999994873047,2|10,1:0|0:0,0:0:0:0:
310,25,126102,1,0,0:0:0:0:
310,25,126227,1,2,1:0:0:0:
101,45,126477,5,8,0:0:0:0:
101,45,126602,1,0,0:0:0:0:
101,45,126727,2,0,P|88:93|75:151,1,83.9999974365235,2|0,1:0|0:0,0:0:0:0:
61,213,126977,2,0,P|101:222|142:233,1,83.9999974365235,10|0,0:0|3:0,0:0:0:0:
231,256,127227,6,0,P|299:337|359:301,1,167.999994873047,2|10,1:0|0:0,0:0:0:0:
435,322,127602,1,0,0:0:0:0:
435,322,127727,2,0,P|448:260|473:210,1,83.9999974365235,2|0,1:0|3:0,0:0:0:0:
497,159,127977,2,0,P|450:93|478:6,1,167.999994873047,10|0,0:0|1:0,0:0:0:0:
283,52,128477,1,10,0:0:0:0:
283,52,128602,1,0,3:0:0:0:
283,52,128727,2,0,L|310:249,1,167.999994873047,2|10,1:0|0:0,0:0:0:0:
207,337,129227,6,0,L|83:306,1,83.9999974365235,6|0,1:0|0:0,0:0:0:0:
48,290,129477,1,10,0:0:0:0:
146,171,129727,6,0,L|270:202,1,83.9999974365235,6|0,1:0|3:0,0:0:0:0:
305,218,129977,1,10,0:0:0:0:
449,172,130227,6,0,L|439:43,1,83.9999974365235,6|0,1:0|0:0,0:0:0:0:
432,0,130477,1,8,0:0:0:0:
283,52,130727,6,0,L|154:62,1,83.9999974365235,10|0,0:0|3:0,0:0:0:0:
110,66,130977,2,0,L|120:195,1,83.9999974365235,10|0,0:0|3:0,0:0:0:0:
47,209,131227,6,0,P|132:228|144:328,1,167.999994873047,6|10,1:0|0:0,0:0:0:0:
78,341,131602,1,0,0:0:0:0:
78,341,131727,2,0,P|142:385|198:351,1,83.9999974365235,2|0,1:0|3:0,0:0:0:0:
229,355,131977,2,0,P|340:328|427:315,2,167.999994873047,10|0|8,0:0|1:0|0:0,0:0:0:0:
319,215,132727,2,0,P|404:143|380:81,1,167.999994873047,2|10,1:0|0:0,0:0:0:0:
316,32,133102,1,0,0:0:0:0:
316,32,133227,5,2,1:0:0:0:
162,79,133477,1,10,0:0:0:0:
314,131,133727,1,2,1:0:0:0:
222,0,133977,1,10,0:0:0:0:
219,160,134227,1,2,1:0:0:0:
78,237,134477,5,8,0:0:0:0:
78,237,134602,1,0,0:0:0:0:
78,237,134727,2,0,P|89:290|99:347,1,83.9999974365235,2|0,1:0|0:0,0:0:0:0:
171,371,134977,2,0,P|224:360|281:350,1,83.9999974365235,10|0,0:0|3:0,0:0:0:0:
286,273,135227,6,0,P|377:248|430:348,1,167.999994873047,2|10,1:0|0:0,0:0:0:0:
470,379,135602,1,0,0:0:0:0:
470,379,135727,2,0,P|485:282|508:196,1,167.999994873047,2|10,1:0|0:0,0:0:0:0:
478,49,136227,2,0,P|389:85|312:100,1,167.999994873047,2|8,1:0|0:0,0:0:0:0:
155,169,136727,2,0,P|130:104|146:51,1,83.9999974365235,2|0,1:0|3:0,0:0:0:0:
178,21,136977,1,10,0:0:0:0:
318,99,137227,6,0,P|327:219|269:244,1,167.999994873047,2|12,1:0|0:0,0:0:0:0:
193,342,137727,1,0,1:0:0:0:
193,342,137852,1,0,3:0:0:0:
193,342,137977,2,0,P|132:321|85:323,1,83.9999974365235,8|0,0:0|3:0,0:0:0:0:
28,338,138227,1,0,1:0:0:0:
2,179,138477,6,0,P|65:160|123:123,1,83.9999974365235,8|0,0:0|3:0,0:0:0:0:
137,74,138727,2,0,B|217:43|265:104|228:112|290:183|364:136,1,251.999992309571,0|0,1:0|0:0,0:0:0:0:
421,195,139227,6,0,P|440:150|430:99,1,83.9999974365235,6|2,1:0|3:0,0:0:0:0:
512,66,139560,1,2,3:0:0:0:
512,66,139727,2,0,P|428:59|331:13,1,167.999994873047,2|0,3:0|3:0,0:0:0:0:
257,21,140227,2,0,P|274:82|282:164,1,83.9999974365235,6|0,1:0|0:0,0:0:0:0:
209,167,140560,1,2,3:0:0:0:
209,167,140727,2,0,P|141:153|77:153,2,83.9999974365235,0|0|2,3:0|3:0|3:0,0:0:0:0:
256,247,141227,6,0,L|449:286,1,167.999994873047,6|0,1:0|3:0,0:0:0:0:
481,348,141727,2,0,L|288:387,1,167.999994873047,2|2,3:0|3:0,0:0:0:0:
239,336,142227,2,0,P|194:345|140:367,2,83.9999974365235,6|0|0,1:0|3:0|3:0,0:0:0:0:
316,381,142727,1,2,3:0:0:0:
78,329,143227,6,0,P|51:277|54:221,1,83.9999974365235,6|2,1:0|3:0,0:0:0:0:
118,190,143560,1,2,3:0:0:0:
118,190,143727,2,0,P|193:114|162:39,1,167.999994873047,2|0,3:0|3:0,0:0:0:0:
102,20,144227,2,0,B|280:44|280:44|308:134,1,251.999992309571,6|2,1:0|3:0,0:0:0:0:
416,230,145227,6,0,P|498:178|481:104,1,167.999994873047,6|0,1:0|3:0,0:0:0:0:
446,35,145727,2,0,B|313:17,2,83.9999974365235,0|0|0,3:0|3:0|3:0,0:0:0:0:
491,117,146227,1,0,3:0:0:0:
325,203,146560,1,0,3:0:0:0:
325,203,146727,2,0,P|337:248|349:317,1,83.9999974365235,10|8,0:3|0:3,0:0:0:0:
294,353,147060,5,10,0:3:0:0:
294,353,147227,2,0,P|224:325|175:325,1,74.6666666666667,6|2,1:0|3:0,0:0:0:0:
147,362,147560,1,0,0:0:0:0:
147,362,147727,2,0,P|66:322|78:234,1,149.333333333333,10|0,0:0|0:0,0:0:0:0:
132,222,148227,6,0,L|119:116,1,74.6666666666667,0|0,1:0|0:0,0:0:0:0:
121,138,148477,1,0,3:0:0:0:
120,129,148560,1,0,3:0:0:0:
65,57,148727,2,0,P|10:20|9:-28,2,74.6666666666667,8|0|0,0:0|3:0|3:0,0:0:0:0:
150,38,149227,6,0,L|256:51,1,74.6666666666667,2|0,1:0|3:0,0:0:0:0:
234,49,149477,1,0,3:0:0:0:
243,50,149560,1,0,3:0:0:0:
327,92,149727,2,0,P|391:69|454:54,2,74.6666666666667,10|0|0,0:0|3:0|3:0,0:0:0:0:
261,162,150227,2,0,P|197:139|134:124,2,74.6666666666667,2|0|0,1:0|3:0|3:0,0:0:0:0:
314,240,150727,1,10,0:0:0:0:
212,374,151060,5,4,0:3:0:0:
212,374,151227,2,0,P|283:353|340:344,1,74.6666666666667,2|2,1:0|3:0,0:0:0:0:
371,371,151560,1,2,3:0:0:0:
371,371,151727,2,0,P|455:307|439:255,1,149.333333333333,10|0,0:0|3:0,0:0:0:0:
397,209,152227,6,0,L|417:101,1,74.6666666666667,2|0,1:0|3:0,0:0:0:0:
413,126,152477,1,0,3:0:0:0:
416,117,152560,1,0,3:0:0:0:
432,33,152727,2,0,P|484:42|521:65,2,74.6666666666667,8|0|0,0:0|3:0|3:0,0:0:0:0:
343,56,153227,6,0,L|235:76,1,74.6666666666667,2|0,1:0|3:0,0:0:0:0:
260,72,153477,1,0,3:0:0:0:
251,75,153560,1,0,3:0:0:0:
165,83,153727,2,0,P|159:18|180:-17,2,74.6666666666667,10|0|0,0:0|3:0|3:0,0:0:0:0:
165,171,154227,2,0,P|224:198|244:233,2,74.6666666666667,2|0|0,1:0|3:0|3:0,0:0:0:0:
88,127,154727,2,0,P|34:164|-6:164,2,74.6666666666667,10|0|0,0:0|3:0|3:0,0:0:0:0:
165,171,155227,6,0,L|139:277,1,74.6666666666667,6|2,1:0|3:0,0:0:0:0:
99,328,155560,1,2,3:0:0:0:
99,328,155727,2,0,P|170:292|281:307,1,149.333333333333,10|0,0:0|3:0,0:0:0:0:
314,350,156227,6,0,L|403:333,1,74.6666666666667,0|0,1:0|3:0,0:0:0:0:
398,333,156477,1,0,3:0:0:0:
409,331,156560,1,0,3:0:0:0:
477,258,156727,2,0,L|499:157,1,74.6666666666667,8|0,0:0|3:0,0:0:0:0:
451,111,157060,1,0,3:0:0:0:
382,162,157227,6,0,P|295:139|308:48,1,149.333333333333,4|0,1:0|0:0,0:0:0:0:
225,26,157727,2,0,P|248:112|163:147,1,149.333333333333,4|0,1:0|0:0,0:0:0:0:
186,230,158227,2,0,P|249:166|321:222,1,149.333333333333,4|0,1:0|0:0,0:0:0:0:
318,266,158727,1,4,1:0:0:0:
177,339,159060,5,0,0:0:0:0:
177,339,159227,2,0,P|126:322|49:324,1,74.6666666666667,6|2,1:0|3:0,0:0:0:0:
19,354,159560,1,2,3:0:0:0:
19,354,159727,2,0,P|72:293|55:214,1,149.333333333333,10|0,0:0|3:0,0:0:0:0:
13,148,160227,6,0,L|29:66,2,74.6666666666667,2|0|0,1:0|3:0|3:0,0:0:0:0:
114,128,160727,1,10,0:0:0:0:
114,128,160893,2,0,P|164:114|217:78,1,74.6666666666667,0|0,3:0|3:0,0:0:0:0:
275,62,161227,6,0,L|263:166,1,74.6666666666667,6|0,1:0|3:0,0:0:0:0:
266,147,161477,1,0,3:0:0:0:
266,158,161560,1,0,3:0:0:0:
238,256,161727,2,0,P|188:270|135:306,2,74.6666666666667,8|0|0,0:0|3:0|3:0,0:0:0:0:
327,263,162227,6,0,P|350:204|399:171,1,74.6666666666667,8|8,0:0|0:3,0:0:0:0:
398,302,162560,2,0,P|447:262|506:258,1,74.6666666666667,8|8,0:3|0:3,0:0:0:0:
440,378,162893,2,0,P|502:368|555:394,2,74.6666666666667,4|4|0,0:3|0:3|3:0,0:0:0:0:
482,366,171227,6,0,L|492:311,3,56,6|2|10|2,1:0|0:0|0:0|0:0,0:0:0:0:
404,350,171727,2,0,L|414:287,3,62.9999980773926,6|2|10|2,1:0|0:0|0:0|0:0,0:0:0:0:
323,337,172227,2,0,L|335:269,3,70,6|2|10|10,1:0|0:0|0:0|0:0,0:0:0:0:
239,324,172727,6,0,L|252:248,1,77.0000023498536,14|2,1:2|3:0,0:0:0:0:
173,233,172977,2,0,L|159:308,1,77.0000023498536,2|2,3:0|3:0,0:0:0:0:
87,368,173227,6,0,L|53:170,1,167.999994873047,6|10,1:0|0:0,0:0:0:0:
132,148,173602,1,0,0:0:0:0:
132,148,173727,2,0,P|167:83|161:38,1,83.9999974365235,2|0,1:0|3:0,0:0:0:0:
84,39,173977,6,0,P|192:26|310:-10,2,167.999994873047,10|0|8,0:0|1:0|0:0,0:0:0:0:
173,233,174727,2,0,P|262:238|339:325,1,167.999994873047,2|10,1:0|0:0,0:0:0:0:
372,369,175102,1,0,0:0:0:0:
372,369,175227,5,2,1:0:0:0:
475,247,175477,1,10,0:0:0:0:
320,286,175727,1,2,1:0:0:0:
468,346,175977,1,10,0:0:0:0:
385,211,176227,1,2,1:0:0:0:
302,76,176477,5,8,0:0:0:0:
302,76,176602,1,0,0:0:0:0:
302,76,176727,2,0,P|214:63|175:62,1,83.9999974365235,2|0,1:0|0:0,0:0:0:0:
139,89,176977,2,0,P|51:76|12:75,1,83.9999974365235,10|0,0:0|3:0,0:0:0:0:
0,9,177227,6,0,L|49:220,1,167.999994873047,2|10,1:0|0:0,0:0:0:0:
123,233,177602,1,0,0:0:0:0:
123,233,177727,2,0,P|90:294|81:354,1,83.9999974365235,2|0,1:0|3:0,0:0:0:0:
35,381,177977,6,0,P|97:336|206:345,1,167.999994873047,10|0,0:0|1:0,0:0:0:0:
285,195,178477,1,10,0:0:0:0:
285,195,178602,1,0,3:0:0:0:
285,195,178727,2,0,L|304:379,1,167.999994873047,2|10,1:0|0:0,0:0:0:0:
512,302,179227,6,0,L|362:261,1,83.9999974365235,6|0,1:0|0:0,0:0:0:0:
348,262,179477,1,10,0:0:0:0:
356,114,179727,6,0,L|206:73,1,83.9999974365235,6|0,1:0|3:0,0:0:0:0:
192,74,179977,1,10,0:0:0:0:
0,0,180227,6,0,L|41:150,1,83.9999974365235,6|0,1:0|0:0,0:0:0:0:
40,164,180477,1,8,0:0:0:0:
210,204,180727,6,0,L|251:354,1,83.9999974365235,10|0,0:0|3:0,0:0:0:0:
319,280,180977,2,0,L|360:430,1,83.9999974365235,10|0,0:0|3:0,0:0:0:0:
429,381,181227,6,0,P|509:313|472:237,1,167.999994873047,6|10,1:0|0:0,0:0:0:0:
423,214,181602,1,0,0:0:0:0:
423,214,181727,2,0,P|410:143|416:113,1,83.9999974365235,2|0,1:0|3:0,0:0:0:0:
452,48,181977,6,0,P|376:121|311:93,2,167.999994873047,10|0|8,0:0|1:0|0:0,0:0:0:0:
254,4,182727,2,0,L|215:216,1,167.999994873047,2|10,1:0|0:0,0:0:0:0:
134,205,183102,1,0,0:0:0:0:
134,205,183227,5,2,1:0:0:0:
124,50,183477,1,10,0:0:0:0:
223,169,183727,1,2,1:0:0:0:
72,131,183977,1,10,0:0:0:0:
217,73,184227,1,2,1:0:0:0:
362,15,184477,5,8,0:0:0:0:
362,15,184602,1,0,0:0:0:0:
362,15,184727,2,0,P|352:66|344:126,1,83.9999974365235,2|0,1:0|0:0,0:0:0:0:
392,174,184977,2,0,P|382:225|374:285,1,83.9999974365235,10|0,0:0|3:0,0:0:0:0:
380,345,185227,6,0,P|360:271|270:237,1,167.999994873047,2|10,1:0|0:0,0:0:0:0:
199,271,185602,1,0,0:0:0:0:
199,271,185727,2,0,P|218:344|308:378,1,167.999994873047,2|10,1:0|0:0,0:0:0:0:
495,319,186227,6,0,L|473:103,1,167.999994873047,2|8,1:0|0:0,0:0:0:0:
402,103,186602,1,0,0:0:0:0:
402,103,186727,2,0,P|413:48|438:-14,1,83.9999974365235,2|0,1:0|3:0,0:0:0:0:
330,0,186977,2,0,P|319:55|294:117,1,83.9999974365235,10|0,0:0|3:0,0:0:0:0:
236,141,187227,6,0,P|138:111|148:20,1,167.999994873047,6|0,1:0|0:0,0:0:0:0:
196,1,187602,1,0,3:0:0:0:
196,1,187727,1,0,1:0:0:0:
52,128,187977,5,8,0:0:0:0:
52,128,188102,1,0,3:0:0:0:
52,128,188227,2,0,L|77:242,2,83.9999974365235,2|8|8,1:0|0:0|0:0,0:0:0:0:
202,274,188727,6,0,L|320:250,1,83.9999974365235,10|4,0:3|0:3,0:0:0:0:
304,343,188977,2,0,L|221:359,1,83.9999974365235,10|8,0:0|0:3,0:0:0:0:
120,329,189227,6,0,P|51:280|86:197,1,167.999994873047,6|10,1:0|0:0,0:0:0:0:
150,172,189602,1,0,0:0:0:0:
150,172,189727,2,0,P|141:104|126:67,1,83.9999974365235,2|0,1:0|3:0,0:0:0:0:
62,31,189977,6,0,B|133:-7|202:67|147:63|214:143|278:149|360:121|336:32,1,335.999989746094,10|8,0:0|0:0,0:0:0:0:
409,10,190602,1,0,0:0:0:0:
409,10,190727,2,0,P|423:109|441:183,1,167.999994873047,2|10,1:0|0:0,0:0:0:0:
497,244,191102,5,0,0:0:0:0:
497,244,191227,2,0,P|406:229|347:303,1,167.999994873047,2|10,1:0|0:0,0:0:0:0:
308,355,191602,1,0,0:0:0:0:
308,355,191727,2,0,P|323:264|249:205,1,167.999994873047,2|10,1:0|0:0,0:0:0:0:
197,231,192102,1,0,0:0:0:0:
197,231,192227,1,2,1:0:0:0:
39,317,192477,5,8,0:0:0:0:
39,317,192602,1,0,0:0:0:0:
39,317,192727,2,0,P|57:243|61:190,1,83.9999974365235,2|0,1:0|0:0,0:0:0:0:
19,156,192977,2,0,P|37:82|41:29,1,83.9999974365235,10|0,0:0|3:0,0:0:0:0:
125,36,193227,6,0,P|211:7|258:84,1,167.999994873047,2|10,1:0|0:0,0:0:0:0:
322,131,193602,1,0,0:0:0:0:
322,131,193727,2,0,L|302:230,1,83.9999974365235,2|0,1:0|3:0,0:0:0:0:
367,284,193977,6,0,P|453:313|500:236,1,167.999994873047,10|0,0:0|1:0,0:0:0:0:
268,297,194477,1,10,0:0:0:0:
268,297,194602,1,0,3:0:0:0:
268,297,194727,2,0,L|57:347,1,167.999994873047,2|10,1:0|0:0,0:0:0:0:
0,206,195227,6,0,L|122:226,1,83.9999974365235,6|0,1:0|0:0,0:0:0:0:
163,237,195477,1,10,0:0:0:0:
322,131,195727,6,0,L|200:111,1,83.9999974365235,6|0,1:0|3:0,0:0:0:0:
159,100,195977,1,10,0:0:0:0:
376,0,196227,6,0,L|402:136,1,83.9999974365235,6|0,1:0|0:0,0:0:0:0:
411,162,196477,1,8,0:0:0:0:
260,271,196727,6,0,L|286:407,1,83.9999974365235,10|0,0:0|3:0,0:0:0:0:
361,342,196977,2,0,L|345:259,1,83.9999974365235,10|0,0:0|3:0,0:0:0:0:
289,180,197227,6,0,P|248:134|115:159,1,167.999994873047,6|10,1:0|0:0,0:0:0:0:
99,212,197602,1,0,0:0:0:0:
99,212,197727,2,0,P|110:260|119:328,1,83.9999974365235,2|0,1:0|3:0,0:0:0:0:
40,347,197977,6,0,P|8:236|16:149,2,167.999994873047,10|0|8,0:0|1:0|0:0,0:0:0:0:
212,380,198727,2,0,P|229:291|272:185,1,167.999994873047,2|10,1:0|0:0,0:0:0:0:
336,178,199102,1,0,0:0:0:0:
336,178,199227,5,2,1:0:0:0:
359,322,199477,1,10,0:0:0:0:
255,218,199727,1,2,1:0:0:0:
399,242,199977,1,10,0:0:0:0:
269,307,200227,1,2,1:0:0:0:
139,372,200477,5,8,0:0:0:0:
139,372,200602,1,0,0:0:0:0:
139,372,200727,2,0,L|156:263,1,83.9999974365235,2|0,1:0|0:0,0:0:0:0:
91,223,200977,2,0,L|108:114,1,83.9999974365235,10|0,0:0|3:0,0:0:0:0:
35,82,201227,6,0,P|125:92|153:-4,1,167.999994873047,2|10,1:0|0:0,0:0:0:0:
245,9,201602,1,0,0:0:0:0:
245,9,201727,2,0,L|426:48,1,167.999994873047,2|10,1:0|0:0,0:0:0:0:
497,205,202227,6,0,P|385:243|322:272,1,167.999994873047,2|8,1:0|0:0,0:0:0:0:
184,363,202727,2,0,P|152:306|162:248,1,83.9999974365235,2|0,1:0|3:0,0:0:0:0:
176,207,202977,1,10,0:0:0:0:
77,37,203227,6,0,P|131:108|224:96,1,167.999994873047,2|12,1:0|0:0,0:0:0:0:
389,103,203727,1,0,1:0:0:0:
389,103,203852,1,0,3:0:0:0:
389,103,203977,2,0,P|356:161|343:209,1,83.9999974365235,8|0,0:0|3:0,0:0:0:0:
339,263,204227,1,0,1:0:0:0:
161,239,204477,6,0,P|193:297|206:345,1,83.9999974365235,8|0,0:0|3:0,0:0:0:0:
277,360,204727,2,0,B|215:395|136:349|173:333|109:269|30:323,1,251.999992309571,0|0,1:0|0:0,0:0:0:0:
27,230,205227,6,0,P|13:173|42:122,2,83.9999974365235,6|2|2,1:0|3:0|3:0,0:0:0:0:
117,261,205727,2,0,P|123:163|89:92,1,167.999994873047,2|0,3:0|3:0,0:0:0:0:
158,35,206227,6,0,P|220:55|287:46,1,83.9999974365235,6|0,1:0|0:0,0:0:0:0:
328,33,206560,1,2,3:0:0:0:
328,33,206727,2,0,P|390:95|367:197,1,167.999994873047,0|2,3:0|3:0,0:0:0:0:
292,188,207227,6,0,L|111:231,1,167.999994873047,6|0,1:0|3:0,0:0:0:0:
163,313,207727,2,0,L|344:356,1,167.999994873047,6|2,1:2|3:0,0:0:0:0:
417,375,208227,2,0,B|515:336|465:232|465:232|359:272,1,251.999992309571,6|2,1:0|3:0,0:0:0:0:
226,184,209227,6,0,P|202:130|206:79,1,83.9999974365235,6|2,1:0|3:0,0:0:0:0:
228,24,209560,1,2,3:0:0:0:
228,24,209727,2,0,P|187:96|56:70,1,167.999994873047,2|0,3:0|3:0,0:0:0:0:
38,50,210227,6,0,B|101:209|101:209|61:305,1,251.999992309571,6|2,1:0|3:0,0:0:0:0:
193,384,211060,1,0,3:0:0:0:
193,384,211227,2,0,P|235:324|338:324,1,167.999994873047,6|0,1:0|3:0,0:0:0:0:
413,307,211727,2,0,P|400:367|377:395,2,83.9999974365235,0|0|0,3:0|3:0|3:0,0:0:0:0:
349,233,212227,1,0,3:0:0:0:
463,103,212727,5,0,0:0:0:0:
328,43,213060,5,0,0:0:0:0:
328,43,213227,2,0,P|274:68|218:70,1,74.6666666666667,6|2,1:0|3:0,0:0:0:0:
179,29,213560,1,2,3:0:0:0:
179,29,213727,2,0,L|130:208,1,149.333333333333,2|0,3:0|0:0,0:0:0:0:
122,259,214227,2,0,P|29:245|21:179,1,149.333333333333,6|2,1:0|3:0,0:0:0:0:
32,55,215060,5,2,3:0:0:0:
32,55,215227,2,0,P|128:44|204:18,1,149.333333333333,6|0,1:0|3:0,0:0:0:0:
245,94,215727,2,0,P|341:105|417:131,1,149.333333333333,6|2,1:0|3:0,0:0:0:0:
453,48,216227,2,0,B|481:119|410:167|424:131|358:184|392:251,1,224,6|2,1:0|3:0,0:0:0:0:
208,371,217227,6,0,P|188:307|169:261,1,74.6666666666667,6|2,1:0|0:0,0:0:0:0:
112,251,217560,1,2,3:0:0:0:
112,251,217727,2,0,P|199:253|229:167,1,149.333333333333,2|0,3:0|3:0,0:0:0:0:
259,124,218227,2,0,L|308:305,1,149.333333333333,2|2,1:0|3:0,0:0:0:0:
451,376,219060,5,2,3:0:0:0:
451,376,219227,2,0,P|469:260|486:199,1,149.333333333333,6|0,1:0|3:0,0:0:0:0:
410,170,219727,2,0,P|369:185|316:194,2,74.6666666666667,2|8|8,3:0|0:3|0:3,0:0:0:0:
441,92,220227,2,0,P|482:107|535:116,2,74.6666666666667,8|8|8,1:2|0:3|0:3,0:0:0:0:
360,58,220727,5,10,1:2:0:0:
360,58,220893,2,0,L|253:94,1,74.6666666666667,14|14,0:3|0:3,0:0:0:0:
213,42,221227,2,0,L|194:218,1,149.333333333333,14|0,1:2|3:0,0:0:0:0:
192,280,221727,2,0,L|96:303,2,74.6666666666667,0|8|4,3:0|0:3|0:3,0:0:0:0:
256,352,222227,1,4,1:0:0:0:
256,192,222352,12,0,224227,0:0:0:0:
