osu file format v14

[General]
AudioFilename: audio.mp3
AudioLeadIn: 0
PreviewTime: 163227
Countdown: 0
SampleSet: Soft
StackLeniency: 0.7
Mode: 0
LetterboxInBreaks: 0
WidescreenStoryboard: 1

[Editor]
DistanceSpacing: 0.4
BeatDivisor: 6
GridSize: 32
TimelineZoom: 1.5

[Metadata]
Title:A New Start
TitleUnicode:A New Start
Artist:Nanashi Mumei
ArtistUnicode:Nanashi Mumei
Creator:SMOKELIND
Version:Mayu's Insane
Source:
Tags:Folk English 七詩ムメイ Japanese ホロライブ hololiveEN EN 2nd Generation Council frozz -Keqing Shikibe Mayu Shizuku- Kazato Asa Virtual youtuber vtuber ななしむめい 2 original song Tomoari Taguma 田熊知存 Dream Monster
BeatmapID:3573610
BeatmapSetID:1705429

[Difficulty]
HPDrainRate:5
CircleSize:4
OverallDifficulty:8
ApproachRate:9
SliderMultiplier:2.17
SliderTickRate:1

[Events]
//Background and Video events
0,0,"BG.jpg",0,0
Video,-54,"vid.mp4"
//Break Periods
2,163427,170627
//Storyboard Layer 0 (Background)
//Storyboard Layer 1 (Fail)
//Storyboard Layer 2 (Pass)
//Storyboard Layer 3 (Foreground)
//Storyboard Layer 4 (Overlay)
//Storyboard Sound Samples

[TimingPoints]
-773,500,4,2,77,27,1,0
727,-100,4,2,77,37,0,0
977,-100,4,2,77,47,0,0
1227,500,4,2,77,77,1,0
1227,-100,4,2,77,77,0,0
1977,-100,4,2,77,5,0,0
2060,-100,4,2,77,77,0,0
3477,-100,4,2,77,5,0,0
3560,-100,4,2,77,77,0,0
7477,-100,4,2,77,5,0,0
7560,-100,4,2,77,77,0,0
9227,-71.4285714285714,4,2,77,77,0,0
10727,-90.9090909090909,4,2,77,77,0,0
13227,500,4,2,77,57,1,0
13227,-90.9090909090909,4,2,77,57,0,0
13727,-100,4,2,77,57,0,0
34977,-100,4,2,77,5,0,0
35060,-100,4,2,77,57,0,0
37227,-100,4,2,77,67,0,0
37977,-83.3333333333333,4,2,77,67,0,0
38227,-83.3333333333333,4,2,77,77,0,0
38477,-76.9230769230769,4,2,77,77,0,0
39227,500,4,2,77,87,1,0
39227,-66.6666666666667,4,2,77,87,0,0
40914,-66.6666666666667,4,2,77,5,0,0
40977,-66.6666666666667,4,2,77,87,0,0
45727,-58.8235294117647,4,2,77,87,0,0
46227,-62.5,4,2,77,87,0,0
46977,-76.9230769230769,4,2,77,87,0,0
47227,-62.5,4,2,77,87,0,0
50477,-100,4,2,77,87,0,0
51227,-66.6666666666667,4,2,77,87,0,0
53727,-83.3333333333333,4,2,77,87,0,0
54227,-71.4285714285714,4,2,77,87,0,0
55977,-62.5,4,2,77,87,0,0
56477,-76.9230769230769,4,2,77,87,0,0
57227,-62.5,4,2,77,87,0,0
57727,-76.9230769230769,4,2,77,87,0,0
58227,-66.6666666666667,4,2,77,87,0,0
59164,-66.6666666666667,4,2,77,5,0,0
59227,-66.6666666666667,4,2,77,87,0,0
61727,-58.8235294117647,4,2,77,87,0,0
62227,-62.5,4,2,77,87,0,0
62977,-76.9230769230769,4,2,77,87,0,0
63227,-62.5,4,2,77,87,0,0
65164,-62.5,4,2,77,5,0,0
65227,-62.5,4,2,77,87,0,0
66477,-100,4,2,77,87,0,0
67227,-66.6666666666667,4,2,77,87,0,0
69977,-83.3333333333333,4,2,77,87,0,0
71227,-83.3333333333333,4,2,77,77,0,0
71976,-83.3333333333333,4,2,77,5,0,0
72060,-83.3333333333333,4,2,77,77,0,0
76476,-83.3333333333333,4,2,77,5,0,0
76560,-83.3333333333333,4,2,77,77,0,0
79227,-125,4,2,77,47,0,0
81227,500,4,2,77,47,1,0
81727,-100,4,2,77,47,0,0
89227,-100,4,2,77,57,0,0
97227,-111.111111111111,4,2,77,57,0,0
105227,-111.111111111111,4,2,77,67,0,0
105477,-90.9090909090909,4,2,77,67,0,0
105977,-83.3333333333333,4,2,77,67,0,0
106227,-83.3333333333333,4,2,77,77,0,0
106477,-76.9230769230769,4,2,77,77,0,0
107227,500,4,2,77,87,1,0
107227,-66.6666666666667,4,2,77,87,0,0
108914,-66.6666666666667,4,2,77,5,0,0
108977,-66.6666666666667,4,2,77,87,0,0
113727,-58.8235294117647,4,2,77,87,0,0
114227,-62.5,4,2,77,87,0,0
116914,-62.5,4,2,77,5,0,0
116977,-62.5,4,2,77,87,0,0
118477,-100,4,2,77,87,0,0
119227,-66.6666666666667,4,2,77,87,0,0
121977,-90.9090909090909,4,2,77,87,0,0
122477,-71.4285714285714,4,2,77,87,0,0
123977,-62.5,4,2,77,87,0,0
124477,-76.9230769230769,4,2,77,87,0,0
125227,-62.5,4,2,77,87,0,0
125977,-76.9230769230769,4,2,77,87,0,0
126477,-90.9090909090909,4,2,77,87,0,0
127227,-66.6666666666667,4,2,77,87,0,0
129727,-58.8235294117647,4,2,77,87,0,0
130227,-62.5,4,2,77,87,0,0
130977,-76.9230769230769,4,2,77,87,0,0
131227,-62.5,4,2,77,87,0,0
132477,-83.3333333333333,4,2,77,87,0,0
133227,-71.4285714285714,4,2,77,87,0,0
134477,-100,4,2,77,87,0,0
135227,-66.6666666666667,4,2,77,87,0,0
137977,-83.3333333333333,4,2,77,87,0,0
139227,-83.3333333333333,4,2,77,77,0,0
142476,-83.3333333333333,4,2,77,5,0,0
142560,-83.3333333333333,4,2,77,77,0,0
157727,-83.3333333333333,4,2,77,57,0,0
159227,-83.3333333333333,4,2,77,77,0,0
162727,-125,4,2,77,77,0,0
163227,-125,4,2,77,47,0,0
171227,-125,4,2,77,67,0,0
171477,-90.9090909090909,4,2,77,67,0,0
171977,-83.3333333333333,4,2,77,67,0,0
172227,-83.3333333333333,4,2,77,77,0,0
172477,-76.9230769230769,4,2,77,77,0,0
173227,500,4,2,77,87,1,0
173227,-66.6666666666667,4,2,77,87,0,0
179727,-58.8235294117647,4,2,77,87,0,0
180227,-62.5,4,2,77,87,0,0
180977,-76.9230769230769,4,2,77,87,0,0
181227,-62.5,4,2,77,87,0,0
184477,-100,4,2,77,87,0,0
185227,-66.6666666666667,4,2,77,87,0,0
188727,-71.4285714285714,4,2,77,87,0,0
189977,-62.5,4,2,77,87,0,0
190727,-76.9230769230769,4,2,77,87,0,0
191227,-62.5,4,2,77,87,0,0
193227,-66.6666666666667,4,2,77,87,0,0
193664,-66.6666666666667,4,2,77,5,0,0
193727,-66.6666666666667,4,2,77,87,0,0
195727,-58.8235294117647,4,2,77,87,0,0
196227,-62.5,4,2,77,87,0,0
196977,-76.9230769230769,4,2,77,87,0,0
197227,-62.5,4,2,77,87,0,0
200477,-100,4,2,77,87,0,0
201227,-66.6666666666667,4,2,77,87,0,0
202977,-83.3333333333333,4,2,77,87,0,0
205227,-83.3333333333333,4,2,77,77,0,0
207976,-83.3333333333333,4,2,77,5,0,0
208060,-83.3333333333333,4,2,77,77,0,0
213227,-90.9090909090909,4,2,77,77,0,0
214477,-90.9090909090909,4,2,77,5,0,0
214560,-90.9090909090909,4,2,77,77,0,0
222393,-90.9090909090909,4,2,77,5,0,0

[Colours]
Combo1 : 255,213,170
Combo2 : 255,170,200

[HitObjects]
488,100,227,6,0,L|496:63,11,36.1666666666667,0|0|0|0|0|0|0|0|0|0|0|0,3:0|3:0|3:0|3:0|3:0|3:0|3:0|3:0|3:0|3:0|3:0|3:0,3:0:0:0:
483,122,1227,5,6,1:0:0:0:
379,103,1393,1,2,3:0:0:0:
328,190,1560,1,2,3:0:0:0:
456,285,1727,6,0,P|443:232|421:183,1,108.5,2|0,3:0|0:0,2:0:0:0:
421,183,2060,1,0,2:0:0:0:
423,19,2227,6,0,P|356:68|289:57,1,144.666666666667,6|2,1:0|3:0,2:0:0:0:
196,5,2727,2,0,P|190:42|180:79,1,72.3333333333333,0|0,3:0|3:0,2:0:0:0:
221,195,3060,1,2,3:0:0:0:
22,181,3227,6,0,P|97:166|140:150,1,108.5,6|0,1:0|0:0,2:0:0:0:
134,151,3560,1,0,3:0:0:0:
234,293,3727,2,0,P|196:279|162:273,1,72.3333333333333,6|0,1:0|2:0,2:0:0:0:
221,195,4060,1,2,3:0:0:0:
330,376,4227,6,0,P|399:354|469:339,1,144.666666666667,6|0,1:0|3:0,2:0:0:0:
511,259,4727,5,2,3:0:0:0:
452,199,4893,1,0,3:0:0:0:
372,230,5060,1,0,3:0:0:0:
301,78,5227,6,0,P|306:45|317:5,1,72.3333333333333,6|2,1:0|2:0,2:0:0:0:
316,7,5560,1,2,3:0:0:0:
209,130,5727,6,0,P|150:152|62:176,1,144.666666666667,2|0,3:0|3:0,2:0:0:0:
303,251,6227,2,0,P|332:240|376:228,1,72.3333333333333,6|0,1:2|2:0,2:0:0:0:
371,229,6477,1,0,3:0:0:0:
371,229,6560,1,2,3:0:0:0:
422,151,6727,2,0,P|431:109|440:73,2,72.3333333333333,0|0|2,3:0|3:0|3:0,2:0:0:0:
489,373,7227,6,0,P|443:343|390:337,1,108.5,6|0,1:0|0:0,2:0:0:0:
380,342,7560,1,0,3:0:0:0:
284,356,7727,6,0,P|293:312|304:283,1,72.3333333333333,2|0,3:0|3:0,2:0:0:0:
269,177,8060,1,2,3:0:0:0:
364,208,8227,5,2,3:0:0:0:
364,208,8310,1,0,3:0:0:0:
364,208,8393,1,0,3:0:0:0:
214,256,8560,1,2,3:0:0:0:
242,97,8727,6,0,L|232:62,2,36.1666666666667,2|0|0,3:0|3:0|3:0,2:0:0:0:
269,177,9060,1,2,3:0:0:0:
346,100,9227,6,0,B|238:76|259:191|115:154,1,202.533327152507,6|0,1:0|2:0,2:0:0:0:
48,109,9727,5,0,3:0:0:0:
80,18,9893,1,0,3:0:0:0:
48,109,10060,1,0,3:0:0:0:
161,161,10227,5,0,3:0:0:0:
181,237,10393,1,8,2:3:0:0:
161,161,10560,1,8,2:3:0:0:
243,94,10727,6,0,P|280:106|319:115,1,79.5666690948487,4|6,2:3|2:3,2:0:0:0:
260,192,11060,1,4,2:3:0:0:
400,56,11227,5,6,1:0:0:0:
400,56,11393,2,0,P|407:74|413:93,2,39.7833345474244,0|0|0,2:0|3:0|3:0,2:0:0:0:
339,278,11727,6,0,P|381:288|422:308,1,79.5666690948487,0|0,3:0|3:0,2:0:0:0:
413,303,12060,1,0,3:0:0:0:
506,266,12227,6,0,B|435:240|368:298|427:314|363:365|282:344,1,238.700007284546,8|0,2:0|2:0,2:0:0:0:
123,368,13227,5,2,1:0:0:0:
93,283,13393,1,2,3:0:0:0:
123,368,13560,1,2,3:0:0:0:
9,251,13727,6,0,P|88:239|145:191,1,144.666666666667,10|2,2:0|3:0,2:0:0:0:
316,240,14227,2,0,P|237:252|180:300,1,144.666666666667,2|0,1:0|3:0,2:0:0:0:
136,196,14727,6,0,L|152:126,2,72.3333333333333,10|0|2,2:0|3:0|3:0,2:0:0:0:
187,290,15227,6,0,P|273:301|326:345,1,144.666666666667,2|0,1:0|3:0,2:0:0:0:
512,331,15727,5,8,2:0:0:0:
435,313,15893,1,0,3:0:0:0:
390,383,16060,1,2,3:0:0:0:
320,229,16227,6,0,P|351:243|392:243,2,72.3333333333333,2|0|0,1:0|3:0|3:0,2:0:0:0:
497,115,16727,5,10,2:0:0:0:
422,80,16893,1,0,2:0:0:0:
491,32,17060,1,2,3:0:0:0:
497,129,17227,6,0,P|439:166|357:143,1,144.666666666667,2|0,1:0|3:0,2:0:0:0:
282,12,17727,2,0,P|268:52|261:93,1,72.3333333333333,10|0,2:0|2:0,2:0:0:0:
189,31,18060,1,2,3:0:0:0:
288,167,18227,6,0,P|242:178|208:187,1,72.3333333333333,2|0,1:0|3:0,2:0:0:0:
217,184,18477,1,0,3:0:0:0:
217,184,18560,1,0,3:0:0:0:
83,136,18727,2,0,P|129:125|163:116,2,72.3333333333333,10|0|2,2:0|3:0|3:0,2:0:0:0:
31,234,19227,6,0,P|21:273|13:307,1,72.3333333333333,2|0,1:0|3:0,2:0:0:0:
13,304,19477,1,0,3:0:0:0:
13,304,19560,1,0,3:0:0:0:
210,377,19727,5,8,2:0:0:0:
218,341,19893,1,2,3:0:0:0:
201,307,20060,1,2,3:0:0:0:
147,236,20227,5,2,1:0:0:0:
225,189,20393,1,0,3:0:0:0:
254,105,20560,1,0,3:0:0:0:
213,30,20727,1,0,2:0:0:0:
213,30,21227,6,0,P|170:45|136:52,2,72.3333333333333,6|2|2,1:0|3:0|3:0,2:0:0:0:
254,105,21727,2,0,P|327:126|390:156,1,144.666666666667,10|2,2:0|3:0,2:0:0:0:
453,27,22227,6,0,P|378:34|341:96,1,144.666666666667,2|0,1:0|3:0,2:0:0:0:
486,193,22727,2,0,P|477:156|476:120,1,72.3333333333333,10|0,2:0|3:0,2:0:0:0:
388,155,23060,1,2,3:0:0:0:
443,280,23227,6,0,P|357:246|288:241,1,144.666666666667,2|0,1:0|3:0,2:0:0:0:
193,367,23727,2,0,P|223:348|258:337,1,72.3333333333333,10|0,2:0|2:0,2:0:0:0:
258,337,24060,1,2,3:0:0:0:
162,211,24227,5,2,1:0:0:0:
98,273,24393,1,0,3:0:0:0:
12,251,24560,1,0,3:0:0:0:
162,211,24727,6,0,P|202:155|184:71,1,144.666666666667,10|2,2:0|3:0,2:0:0:0:
47,115,25227,6,0,P|88:123|120:136,1,72.3333333333333,2|0,1:0|2:0,2:0:0:0:
116,134,25560,1,0,3:0:0:0:
231,0,25727,6,0,P|182:49|109:44,1,144.666666666667,10|2,2:0|3:0,2:0:0:0:
239,163,26227,2,0,P|335:182|385:203,1,144.666666666667,2|2,1:0|3:0,2:0:0:0:
487,114,26727,5,8,2:0:0:0:
407,88,26893,1,2,3:0:0:0:
469,29,27060,1,2,3:0:0:0:
378,199,27227,6,0,P|400:246|407:277,1,72.3333333333333,2|0,1:0|3:0,2:0:0:0:
406,275,27477,1,0,3:0:0:0:
403,281,27560,1,0,3:0:0:0:
473,202,27727,5,8,2:0:0:0:
320,267,27893,1,0,3:0:0:0:
443,366,28060,1,0,3:0:0:0:
403,281,28227,6,0,P|337:296|246:322,2,144.666666666667,0|8|12,1:0|2:3|2:3,2:0:0:0:
169,0,29227,5,6,1:0:0:0:
91,26,29393,1,2,2:0:0:0:
62,105,29560,1,2,2:0:0:0:
114,173,29727,2,0,P|184:157|255:144,1,144.666666666667,2|2,3:0|2:0,2:0:0:0:
255,144,30227,1,10,2:0:0:0:
444,25,30560,1,2,2:0:0:0:
492,100,30727,2,0,P|429:108|367:53,1,144.666666666667,0|0,2:0|2:0,2:0:0:0:
492,100,31227,5,2,1:0:0:0:
415,140,31393,1,2,2:0:0:0:
394,220,31560,1,2,1:0:0:0:
441,293,31726,6,0,P|364:251|287:271,1,144.666666666667,2|2,3:0|2:0,2:0:0:0:
310,258,32227,1,10,2:0:0:0:
179,219,32560,2,0,P|194:131|225:60,1,144.666666666667,2|0,3:0|3:0,2:0:0:0:
262,12,33060,1,2,2:0:0:0:
221,92,33227,6,0,P|230:139|248:181,1,72.3333333333333,6|2,1:0|3:0,2:0:0:0:
303,101,33560,1,2,3:0:0:0:
149,149,33727,2,0,P|76:122|7:115,1,144.666666666667,10|0,2:0|2:0,2:0:0:0:
152,161,34227,5,6,1:0:0:0:
82,198,34393,1,2,3:0:0:0:
50,275,34560,1,2,3:0:0:0:
90,350,34727,2,0,P|143:334|211:321,1,108.5,10|0,2:0|0:0,2:0:0:0:
195,323,35060,1,2,3:0:0:0:
256,256,35227,5,6,1:0:0:0:
256,192,35310,12,4,36727,1:0:0:0:
440,88,37227,5,6,1:0:0:0:
416,68,37352,1,2,2:0:0:0:
387,80,37477,2,0,P|381:106|373:132,1,54.25,10|0,2:0|2:0,2:0:0:0:
296,45,37727,5,6,1:0:0:0:
242,33,37852,1,2,2:0:0:0:
204,77,37977,2,0,P|227:108|233:146,1,65.0999980133057,10|2,2:0|2:0,2:0:0:0:
107,43,38227,5,6,1:0:0:0:
51,41,38352,1,2,2:0:0:0:
34,99,38477,2,0,P|61:131|75:168,1,70.5249967716219,10|10,2:0|2:0,2:0:0:0:
1,277,38727,5,14,1:2:0:0:
78,251,38852,1,2,3:0:0:0:
161,271,38977,1,2,3:0:0:0:
201,346,39102,1,2,3:0:0:0:
280,300,39227,6,0,P|288:260|305:221,1,81.37500310421,6|0,1:0|2:0,2:0:0:0:
448,284,39477,2,0,P|440:323|422:363,1,81.37500310421,10|0,2:0|2:0,2:0:0:0:
368,296,39727,5,2,1:0:0:0:
368,296,39852,1,0,3:0:0:0:
367,296,39977,2,0,P|286:286|211:256,1,162.75000620842,10|0,2:0|1:0,2:0:0:0:
172,184,40352,1,0,2:0:0:0:
236,120,40477,2,0,P|258:82|241:43,1,81.37500310421,8|0,2:0|2:0,2:0:0:0:
367,296,40727,6,0,P|411:255|471:253,1,122.062504656315,2|0,1:0|0:0,2:0:0:0:
478,257,40977,2,0,P|511:223|496:186,1,81.37500310421,10|0,2:0|2:0,2:0:0:0:
246,48,41227,6,0,P|281:119|371:120,1,162.75000620842,2|10,1:0|2:0,2:0:0:0:
425,168,41602,1,0,2:0:0:0:
361,120,41727,2,0,P|314:128|288:167,1,81.37500310421,2|0,1:0|2:0,2:0:0:0:
208,200,41977,2,0,P|215:247|255:273,1,81.37500310421,10|0,2:0|2:0,2:0:0:0:
101,90,42227,6,0,P|38:107|1:27,1,162.75000620842,2|8,1:0|2:0,2:0:0:0:
144,8,42602,5,0,2:0:0:0:
148,16,42727,2,0,P|127:97|111:179,1,162.75000620842,2|10,1:0|2:0,2:0:0:0:
162,247,43102,1,0,3:0:0:0:
222,188,43227,6,0,P|144:211|58:246,2,162.75000620842,2|10|2,1:0|2:0|1:0,2:0:0:0:
222,188,43852,1,0,2:0:0:0:
283,267,43977,2,0,P|264:316|254:369,1,81.37500310421,10|0,2:0|2:0,2:0:0:0:
404,184,44227,6,0,P|385:95|379:21,1,162.75000620842,0|10,1:0|2:0,2:0:0:0:
285,84,44602,1,0,3:0:0:0:
285,84,44727,2,0,P|328:95|356:136,1,81.37500310421,2|0,1:0|2:0,2:0:0:0:
490,15,44977,2,0,P|463:53|464:107,1,81.37500310421,10|0,2:0|2:0,2:0:0:0:
509,302,45227,6,0,P|439:278|339:270,1,162.75000620842,6|10,1:0|2:0,2:0:0:0:
435,238,45602,1,0,2:0:0:0:
332,368,45727,6,0,P|311:278|274:193,1,184.450003518105,6|10,1:0|2:0,2:0:0:0:
435,238,46102,1,0,2:0:0:0:
231,338,46227,6,0,P|153:301|54:290,1,173.6,6|0,1:0|0:0,2:0:0:0:
14,213,46602,1,0,3:0:0:0:
25,165,46727,1,10,2:0:0:0:
67,139,46852,1,0,3:0:0:0:
116,144,46977,2,0,P|122:178|133:212,1,70.5249967716219,10|0,2:0|2:0,2:0:0:0:
320,252,47227,6,0,P|339:160|371:84,2,173.6,6|10|2,1:0|2:0|1:0,2:0:0:0:
408,340,47852,1,0,3:0:0:0:
408,340,47977,2,0,P|441:313|490:323,1,86.8,10|0,2:0|2:0,2:0:0:0:
438,150,48227,6,0,P|350:131|274:90,1,173.6,0|8,1:0|2:0,2:0:0:0:
201,137,48602,1,0,2:0:0:0:
126,85,48727,6,0,P|139:50|146:1,2,86.8,2|0|10,1:0|3:0|2:0,2:0:0:0:
5,254,49227,6,0,B|104:267|58:313|165:330,2,173.6,2|10|2,1:0|2:0|1:0,2:0:0:0:
220,383,49852,1,0,3:0:0:0:
283,321,49977,2,0,P|273:272|261:232,1,86.8,10|0,2:0|2:0,2:0:0:0:
388,69,50227,5,2,1:0:0:0:
439,55,50352,1,0,2:0:0:0:
470,96,50477,2,0,P|458:124|452:156,1,54.25,8|0,2:0|2:0,2:0:0:0:
496,250,50727,5,2,1:0:0:0:
416,224,50852,1,0,2:0:0:0:
371,293,50977,2,0,P|383:325|389:356,1,54.25,10|0,2:0|2:0,2:0:0:0:
262,236,51227,6,0,P|183:217|104:188,2,162.75000620842,2|10|2,1:0|2:0|1:0,2:0:0:0:
219,315,51852,1,0,2:0:0:0:
219,315,51977,2,0,P|183:279|185:234,1,81.37500310421,10|0,2:0|2:0,2:0:0:0:
344,2,52227,6,0,P|294:71|215:64,1,162.75000620842,2|8,1:0|2:0,2:0:0:0:
161,10,52602,1,0,2:0:0:0:
230,61,52727,2,0,P|273:69|317:32,1,81.37500310421,2|0,1:0|2:0,2:0:0:0:
180,193,52977,2,0,P|139:195|100:224,1,81.37500310421,10|0,2:0|2:0,2:0:0:0:
36,157,53227,6,0,P|100:203|188:187,1,162.75000620842,6|0,1:0|0:0,2:0:0:0:
223,174,53602,1,0,3:0:0:0:
258,210,53727,2,0,P|245:240|236:277,1,65.0999980133057,0|0,1:0|2:0,2:0:0:0:
327,355,53977,5,8,2:0:0:0:
405,384,54102,1,0,3:0:0:0:
470,328,54227,2,0,P|474:291|487:250,1,75.94999768219,2|8,1:0|2:0,2:0:0:0:
388,167,54477,2,0,P|383:203|371:244,1,75.94999768219,8|0,2:0|2:0,2:0:0:0:
206,384,54727,5,10,2:3:0:0:
189,346,54852,1,4,2:3:0:0:
150,330,54977,1,10,2:0:0:0:
114,337,55102,1,8,2:3:0:0:
81,363,55227,6,0,P|45:360|3:347,1,75.94999768219,6|0,1:0|2:0,2:0:0:0:
50,189,55477,2,0,P|86:192|128:205,1,75.94999768219,10|0,2:0|2:0,2:0:0:0:
63,279,55727,5,2,1:0:0:0:
63,279,55852,1,0,3:0:0:0:
63,279,55977,2,0,P|39:206|32:102,1,173.6,10|0,2:0|1:0,2:0:0:0:
94,53,56352,1,0,2:0:0:0:
170,89,56477,2,0,P|197:114|246:107,1,70.5249967716219,8|0,2:0|2:0,2:0:0:0:
370,299,56727,5,2,1:0:0:0:
293,324,56852,1,0,3:0:0:0:
234,272,56977,2,0,P|225:238|236:205,1,70.5249967716219,10|0,2:0|2:0,2:0:0:0:
473,13,57227,6,0,P|416:109|346:100,1,173.6,2|10,1:0|2:0,2:0:0:0:
300,53,57602,1,0,2:0:0:0:
364,103,57727,2,0,P|405:104|434:86,1,70.5249967716219,2|0,1:0|2:0,2:0:0:0:
507,216,57977,5,10,2:0:0:0:
431,195,58102,1,0,2:0:0:0:
381,265,58227,2,0,B|299:249|313:304|222:280,1,162.75000620842,2|8,1:0|2:0,2:0:0:0:
141,252,58602,1,0,2:0:0:0:
88,330,58727,2,0,P|96:363|138:379,1,81.37500310421,2|0,1:0|2:0,2:0:0:0:
145,144,58977,6,0,P|71:162|48:206,1,122.062504656315,10|0,2:0|0:0,2:0:0:0:
48,207,59227,6,0,P|-3:143|8:62,2,162.75000620842,2|10|2,1:0|2:0|1:0,2:0:0:0:
195,85,59852,1,0,2:0:0:0:
278,113,59977,2,0,P|322:100|358:84,1,81.37500310421,10|0,2:0|2:0,2:0:0:0:
224,178,60227,6,0,P|239:94|260:16,1,162.75000620842,0|10,1:0|2:0,2:0:0:0:
258,19,60602,1,0,3:0:0:0:
354,85,60727,2,0,P|346:127|336:166,1,81.37500310421,2|0,1:0|2:0,2:0:0:0:
456,308,60977,5,10,2:0:0:0:
456,308,61102,1,0,3:0:0:0:
512,236,61227,2,0,P|444:264|336:292,1,162.75000620842,6|10,1:0|2:0,2:0:0:0:
456,308,61602,1,0,2:0:0:0:
292,372,61727,6,0,P|317:283|324:191,1,184.450003518105,6|10,1:0|2:0,2:0:0:0:
456,308,62102,1,0,2:0:0:0:
440,168,62227,6,0,P|316:209|188:231,1,260.4,6|0,1:0|2:0,2:0:0:0:
17,304,62727,5,10,2:0:0:0:
64,291,62852,1,0,3:0:0:0:
99,323,62977,2,0,P|110:365|140:378,1,70.5249967716219,10|0,2:0|2:0,2:0:0:0:
324,191,63227,6,0,P|344:86|373:16,2,173.6,6|10|2,1:0|2:0|1:0,2:0:0:0:
391,233,63852,1,0,3:0:0:0:
389,242,63977,2,0,P|354:273|297:270,1,86.8,10|0,2:0|2:0,2:0:0:0:
133,149,64227,6,0,P|217:133|301:91,1,173.6,0|8,1:0|2:0,2:0:0:0:
371,55,64602,1,0,2:0:0:0:
440,118,64727,2,0,P|453:76|477:37,1,86.8,2|0,1:0|2:0,2:0:0:0:
389,242,64977,2,0,P|401:311|436:368,1,130.2,10|0,2:0|0:0,2:0:0:0:
431,362,65227,6,0,P|360:324|264:315,2,173.6,2|10|2,1:0|2:0|1:0,2:0:0:0:
263,310,65852,1,0,3:0:0:0:
192,381,65977,2,0,P|180:336|158:292,1,86.8,10|0,2:0|2:0,2:0:0:0:
105,199,66227,5,2,1:0:0:0:
67,159,66352,1,0,2:0:0:0:
20,179,66477,2,0,P|16:212|1:255,1,54.25,8|0,2:0|2:0,2:0:0:0:
179,82,66727,5,2,1:0:0:0:
236,17,66852,1,0,2:0:0:0:
316,55,66977,2,0,P|307:80|304:107,1,54.25,10|0,2:0|2:0,2:0:0:0:
353,265,67227,6,0,P|443:236|519:226,2,162.75000620842,2|10|2,1:0|2:0|1:0,2:0:0:0:
353,265,67852,1,0,2:0:0:0:
369,182,67977,6,0,P|406:197|430:230,1,81.37500310421,10|0,2:0|2:0,2:0:0:0:
470,384,68227,6,0,P|401:302|249:319,1,244.12500931263,2|0,1:0|2:0,2:0:0:0:
163,263,68727,5,2,1:0:0:0:
115,331,68852,1,0,3:0:0:0:
42,301,68977,2,0,P|29:262|7:228,1,81.37500310421,10|0,2:0|2:0,2:0:0:0:
184,68,69227,5,2,1:0:0:0:
184,68,69352,1,0,2:0:0:0:
109,128,69477,2,0,B|200:103|182:148|276:123,1,162.75000620842,12|0,2:0|1:0,2:0:0:0:
342,80,69852,1,0,3:0:0:0:
385,155,69977,2,0,P|377:186|371:218,1,65.0999980133057,8|0,2:0|2:0,2:0:0:0:
290,384,70227,6,0,P|281:352|275:320,1,65.0999980133057,0|0,1:0|2:0,2:0:0:0:
472,200,70477,2,0,P|480:231|486:263,1,65.0999980133057,8|0,2:0|2:0,2:0:0:0:
404,320,70727,2,0,L|358:310,4,43.3999986755371,0|0|0|0|0,3:0|3:0|3:0|3:0|3:0,2:0:0:0:
186,245,71227,6,0,P|145:262|97:271,1,86.7999973510743,6|2,1:0|3:0,2:0:0:0:
172,338,71560,1,2,3:0:0:0:
20,260,71727,6,0,P|70:294|77:376,1,130.199996026611,2|0,3:0|0:0,2:0:0:0:
78,370,72060,1,0,3:0:0:0:
9,263,72227,6,0,B|23:171|70:221|85:107,1,173.599994702149,6|2,1:0|3:0,2:0:0:0:
101,9,72727,2,0,P|62:25|9:35,1,86.7999973510743,0|0,3:0|3:0,2:0:0:0:
18,34,73060,1,2,3:0:0:0:
155,192,73227,6,0,P|178:86|211:10,1,173.599994702149,6|0,1:0|3:0,2:0:0:0:
328,244,73727,2,0,P|359:163|375:78,1,173.599994702149,2|2,3:0|3:0,2:0:0:0:
276,88,74227,2,0,P|260:128|252:170,1,86.7999973510743,6|0,1:0|2:0,2:0:0:0:
252,170,74477,1,0,2:0:0:0:
252,170,74560,1,0,3:0:0:0:
432,212,74727,2,0,P|447:171|455:129,2,86.7999973510743,2|0|0,3:0|3:0|3:0,2:0:0:0:
448,380,75227,5,6,1:0:0:0:
384,320,75393,1,2,3:0:0:0:
300,344,75560,1,2,3:0:0:0:
240,232,75727,6,0,P|248:184|260:144,1,86.7999973510743,2|0,3:0|2:0,2:0:0:0:
288,72,76060,1,0,3:0:0:0:
100,148,76227,6,0,P|72:60|52:16,1,130.199996026611,6|0,1:0|0:0,2:0:0:0:
50,15,76560,1,0,3:0:0:0:
45,210,76727,2,0,P|78:232|131:224,1,86.7999973510743,2|0,3:0|3:0,2:0:0:0:
184,168,77060,1,0,3:0:0:0:
56,316,77227,6,0,P|120:272|220:280,1,173.599994702149,6|0,1:0|2:0,2:0:0:0:
282,196,77727,5,0,3:0:0:0:
372,190,77893,1,0,3:0:0:0:
419,266,78060,1,0,3:0:0:0:
304,373,78227,6,0,P|313:314|327:275,1,86.7999973510743,0|0,3:0|2:0,2:0:0:0:
324,281,78477,1,0,3:0:0:0:
330,275,78560,1,0,3:0:0:0:
444,151,78727,6,0,P|396:163|369:196,1,86.7999973510743,10|8,2:3|2:3,2:0:0:0:
371,189,79060,1,10,2:3:0:0:
512,224,79227,6,0,B|402:265|324:161|406:169|289:63|206:126,1,347.2,2|0,2:0|2:0,2:0:0:0:
214,120,81227,5,6,1:2:0:0:
228,43,81393,1,2,2:0:0:0:
161,0,81560,1,2,2:0:0:0:
7,104,81727,6,0,P|75:75|151:78,1,144.666666666667,2|0,1:0|2:0,2:0:0:0:
214,120,82227,2,0,P|188:180|188:261,1,144.666666666667,2|0,1:0|2:0,2:0:0:0:
191,268,82643,1,0,2:0:0:0:
197,274,82727,1,2,1:0:0:0:
277,245,82893,1,0,2:0:0:0:
335,316,83060,1,2,2:0:0:0:
422,322,83227,2,0,P|329:343|208:382,1,217,2|0,1:0|1:0,2:0:0:0:
175,308,83893,1,0,2:0:0:0:
94,295,84060,1,2,2:0:0:0:
23,348,84227,6,0,P|12:308|-3:275,1,72.3333333333333,2|0,1:0|2:0,2:0:0:0:
156,210,84560,1,0,2:0:0:0:
147,128,84727,2,0,P|118:194|100:264,1,144.666666666667,2|2,1:0|2:0,2:0:0:0:
217,373,85227,1,2,1:0:0:0:
217,373,85560,5,0,2:0:0:0:
304,352,85727,2,0,P|332:285|350:215,1,144.666666666667,2|2,1:0|2:0,2:0:0:0:
299,145,86227,2,0,P|259:161|219:169,1,72.3333333333333,2|0,1:0|2:0,2:0:0:0:
180,241,86560,1,0,2:0:0:0:
306,139,86727,6,0,P|224:138|140:104,1,144.666666666667,2|2,1:0|2:0,2:0:0:0:
89,84,87227,1,2,1:0:0:0:
0,273,87560,5,0,2:0:0:0:
0,273,87727,2,0,P|40:268|77:250,1,72.3333333333333,0|2,1:0|2:0,2:0:0:0:
128,322,88060,1,2,2:0:0:0:
189,257,88227,2,0,P|162:180|167:108,1,144.666666666667,2|0,1:0|2:0,2:0:0:0:
196,41,88727,1,2,2:0:0:0:
473,243,89227,5,6,1:0:0:0:
412,173,89393,1,2,3:0:0:0:
326,198,89560,1,2,3:0:0:0:
371,324,89727,6,0,P|385:287|391:252,1,72.3333333333333,10|0,2:0|2:0,2:0:0:0:
390,254,90060,1,2,3:0:0:0:
297,384,90227,6,0,P|268:304|224:254,1,144.666666666667,2|0,1:0|3:0,2:0:0:0:
200,165,90727,5,10,2:0:0:0:
281,127,90893,1,0,3:0:0:0:
326,198,91060,1,2,3:0:0:0:
175,328,91227,6,0,P|107:285|38:274,1,144.666666666667,2|0,1:0|3:0,2:0:0:0:
200,165,91727,2,0,P|188:199|190:234,1,72.3333333333333,10|0,2:0|2:0,2:0:0:0:
297,384,92060,1,2,3:0:0:0:
406,300,92227,6,0,P|333:301|268:270,1,144.666666666667,2|0,1:0|3:0,2:0:0:0:
102,195,92727,1,10,2:0:0:0:
102,195,93060,5,2,3:0:0:0:
180,96,93227,6,0,P|196:134|200:171,1,72.3333333333333,2|0,1:0|2:0,2:0:0:0:
199,164,93560,1,0,3:0:0:0:
223,23,93727,6,0,P|155:59|64:72,1,144.666666666667,10|2,2:0|3:0,2:0:0:0:
301,153,94227,6,0,P|405:170|448:202,1,144.666666666667,2|2,1:0|3:0,2:0:0:0:
500,88,94727,1,8,2:0:0:0:
420,55,94893,1,2,3:0:0:0:
376,127,95060,1,2,3:0:0:0:
372,273,95227,6,0,P|388:312|392:346,1,72.3333333333333,2|0,1:0|3:0,2:0:0:0:
389,350,95477,1,0,3:0:0:0:
383,352,95560,1,0,3:0:0:0:
259,221,95727,5,8,2:0:0:0:
301,153,95893,1,0,3:0:0:0:
280,77,96060,1,0,3:0:0:0:
203,55,96227,6,0,P|171:69|121:78,1,72.3333333333333,0|0,1:0|3:0,2:0:0:0:
101,156,96560,1,8,2:3:0:0:
14,127,96727,2,0,P|18:91|30:57,2,72.3333333333333,4|12|0,2:3|2:3|2:0,2:0:0:0:
2,279,97227,6,0,B|58:303|122:243|122:243|74:295|104:395|203:403|217:350|207:301|168:290,1,390.599988079834,6|10,1:0|2:0,2:0:0:0:
177,293,98560,5,2,2:0:0:0:
247,236,98727,2,0,P|235:172|210:113,1,130.199996026611,0|0,2:0|2:0,2:0:0:0:
256,8,99227,6,0,B|226:142|104:204|-28:108|17:14|80:17|121:60,1,390.599988079834,2|10,1:0|2:0,2:0:0:0:
103,45,100560,5,2,3:0:0:0:
163,148,100727,2,0,P|150:177|141:209,2,65.0999980133057,0|0|2,2:0|3:0|2:0,2:0:0:0:
14,150,101227,6,0,P|51:139|78:128,1,65.0999980133057,6|2,1:0|3:0,2:0:0:0:
106,45,101560,1,2,3:0:0:0:
148,220,101727,6,0,P|167:282|181:345,1,130.199996026611,10|0,2:0|2:0,2:0:0:0:
243,252,102227,5,6,1:0:0:0:
90,293,102393,1,2,3:0:0:0:
243,252,102560,1,2,3:0:0:0:
80,171,102727,6,0,P|92:80|119:20,1,130.199996026611,10|2,2:0|3:0,2:0:0:0:
105,44,103227,5,6,1:0:0:0:
256,192,103352,12,4,104727,1:0:0:0:
61,68,105227,5,6,1:0:0:0:
81,68,105352,1,2,2:0:0:0:
102,88,105477,2,0,P|89:119|92:155,1,59.6750018211365,10|2,2:0|2:0,2:0:0:0:
189,12,105727,5,6,1:0:0:0:
240,19,105852,1,2,2:0:0:0:
263,60,105977,2,0,P|237:83|221:120,1,65.0999980133057,10|2,2:0|2:0,2:0:0:0:
433,33,106227,5,6,1:0:0:0:
440,91,106352,1,2,2:0:0:0:
411,135,106477,2,0,P|374:150|341:201,1,70.5249967716219,10|10,2:0|2:0,2:0:0:0:
491,335,106727,5,14,1:2:0:0:
441,272,106852,1,2,3:0:0:0:
361,259,106977,1,2,3:0:0:0:
286,289,107102,1,2,3:0:0:0:
243,212,107227,6,0,P|235:172|216:131,1,81.37500310421,6|0,1:0|2:0,2:0:0:0:
65,183,107477,2,0,P|73:223|92:264,1,81.37500310421,10|0,2:0|2:0,2:0:0:0:
155,199,107727,5,2,1:0:0:0:
155,199,107852,1,0,3:0:0:0:
155,199,107977,2,0,P|84:227|-6:247,1,162.75000620842,10|0,2:0|1:0,2:0:0:0:
144,368,108352,1,0,2:0:0:0:
59,380,108477,2,0,P|68:338|86:304,1,81.37500310421,8|0,2:0|2:0,2:0:0:0:
232,151,108727,6,0,P|184:103|128:96,1,122.062504656315,2|0,1:0|0:0,2:0:0:0:
125,101,108977,2,0,P|83:78|80:31,1,81.37500310421,10|0,2:0|2:0,2:0:0:0:
320,115,109227,6,0,P|316:197|243:240,1,162.75000620842,2|10,1:0|2:0,2:0:0:0:
167,276,109602,1,0,2:0:0:0:
244,235,109727,2,0,P|286:236|321:272,1,81.37500310421,2|0,1:0|2:0,2:0:0:0:
432,152,109977,2,0,P|405:184|410:234,1,81.37500310421,10|0,2:0|2:0,2:0:0:0:
267,73,110227,5,2,1:0:0:0:
260,83,110352,1,0,2:0:0:0:
247,89,110477,2,0,P|301:98|327:127,1,81.37500310421,8|0,2:0|2:0,2:0:0:0:
352,384,110727,5,2,1:0:0:0:
330,356,110852,1,0,2:0:0:0:
288,340,110977,1,10,2:0:0:0:
256,347,111102,1,0,3:0:0:0:
176,291,111227,6,0,P|183:251|198:213,1,81.37500310421,2|0,1:0|2:0,2:0:0:0:
47,171,111477,2,0,P|39:210|24:248,1,81.37500310421,10|0,2:0|2:0,2:0:0:0:
184,129,111727,2,0,P|144:121|106:106,1,81.37500310421,2|0,1:0|2:0,2:0:0:0:
47,327,111977,2,0,P|86:334|124:349,1,81.37500310421,10|0,2:0|2:0,2:0:0:0:
320,256,112227,6,0,P|286:184|292:97,1,162.75000620842,0|10,1:0|2:0,2:0:0:0:
400,40,112602,1,0,3:0:0:0:
400,40,112727,6,0,P|386:76|386:123,1,81.37500310421,2|0,1:0|2:0,2:0:0:0:
464,144,112977,2,0,P|478:108|478:61,1,81.37500310421,10|0,2:0|2:0,2:0:0:0:
287,13,113227,6,0,P|209:38|129:51,1,162.75000620842,6|10,1:0|2:0,2:0:0:0:
192,128,113602,1,0,2:0:0:0:
86,230,113727,6,0,P|99:138|129:51,1,184.450003518105,6|10,1:0|2:0,2:0:0:0:
0,216,114102,1,0,2:0:0:0:
136,312,114227,6,0,P|215:277|304:256,1,173.6,6|0,1:0|0:0,2:0:0:0:
511,323,114602,5,0,2:0:0:0:
468,362,114727,1,10,2:0:0:0:
409,365,114852,1,0,3:0:0:0:
362,326,114977,1,10,2:0:0:0:
352,268,115102,1,0,3:0:0:0:
387,214,115227,6,0,P|405:174|408:131,1,86.8,6|0,1:0|2:0,2:0:0:0:
253,91,115477,2,0,P|234:130|231:173,1,86.8,10|0,2:0|2:0,2:0:0:0:
324,152,115727,5,2,1:0:0:0:
324,152,115852,1,0,3:0:0:0:
324,152,115977,2,0,P|231:171|151:199,1,173.6,10|0,2:0|1:0,2:0:0:0:
34,86,116352,1,0,2:0:0:0:
41,79,116477,2,0,P|87:100|93:143,1,86.8,8|0,2:0|2:0,2:0:0:0:
171,330,116727,6,0,P|135:279|56:284,1,130.2,2|0,1:0|0:0,2:0:0:0:
98,351,116977,2,0,P|161:345|175:310,1,86.8,10|0,2:0|2:0,2:0:0:0:
320,152,117227,2,0,P|272:193|281:230,1,86.8,2|0,1:0|2:0,2:0:0:0:
342,260,117477,2,0,P|389:218|380:181,1,86.8,10|0,2:0|2:0,2:0:0:0:
238,133,117727,6,0,P|253:177|263:226,1,86.8,2|0,1:0|2:0,2:0:0:0:
404,108,117977,2,0,P|389:64|379:15,1,86.8,10|0,2:0|2:0,2:0:0:0:
422,279,118227,5,2,1:0:0:0:
387,251,118352,1,0,2:0:0:0:
342,260,118477,2,0,P|335:297|320:333,1,54.25,8|0,2:0|2:0,2:0:0:0:
178,271,118727,5,2,1:0:0:0:
101,251,118852,1,0,2:0:0:0:
59,319,118977,2,0,P|78:352|88:383,1,54.25,10|0,2:0|2:0,2:0:0:0:
261,168,119227,6,0,P|276:85|312:14,2,162.75000620842,2|10|2,1:0|2:0|1:0,2:0:0:0:
285,242,119852,1,0,2:0:0:0:
281,251,119977,2,0,P|248:259|206:213,1,81.37500310421,10|0,2:0|2:0,2:0:0:0:
48,24,120227,6,0,P|130:44|144:128,1,162.75000620842,2|8,1:0|2:0,2:0:0:0:
149,112,120602,1,0,2:0:0:0:
149,112,120727,2,0,P|102:136|95:187,1,81.37500310421,2|0,1:0|2:0,2:0:0:0:
177,363,120977,5,10,2:0:0:0:
200,367,121102,1,0,3:0:0:0:
211,352,121227,2,0,P|193:269|170:195,2,162.75000620842,6|8|0,1:0|2:0|1:0,2:0:0:0:
304,248,121852,5,0,3:0:0:0:
304,248,121977,2,0,P|286:278|288:326,1,59.6750018211365,8|0,2:0|2:0,2:0:0:0:
512,219,122227,5,2,1:0:0:0:
433,244,122352,1,8,2:0:0:0:
381,181,122477,2,0,P|393:136|426:113,1,75.94999768219,8|0,2:0|2:0,2:0:0:0:
282,313,122727,5,10,2:3:0:0:
211,352,122852,1,4,2:3:0:0:
124,353,122977,1,10,2:0:0:0:
73,286,123102,1,8,2:3:0:0:
88,208,123227,6,0,P|77:165|61:127,1,75.94999768219,6|0,1:0|2:0,2:0:0:0:
229,85,123477,2,0,P|240:128|256:166,1,75.94999768219,10|0,2:0|2:0,2:0:0:0:
160,144,123727,5,2,1:0:0:0:
160,144,123852,1,0,3:0:0:0:
160,144,123977,2,0,P|244:134|327:100,1,173.6,10|0,2:0|1:0,2:0:0:0:
394,45,124352,1,0,2:0:0:0:
401,201,124477,6,0,P|443:212|480:233,1,70.5249967716219,8|0,2:0|2:0,2:0:0:0:
512,144,124727,2,0,P|470:133|433:112,1,70.5249967716219,2|0,1:0|2:0,2:0:0:0:
354,280,124977,2,0,P|374:316|386:354,1,70.5249967716219,10|0,2:0|2:0,2:0:0:0:
226,182,125227,6,0,P|253:105|266:5,2,173.6,2|10|2,1:0|2:0|1:0,2:0:0:0:
225,261,125852,1,0,3:0:0:0:
236,264,125977,2,0,P|277:250|291:222,1,70.5249967716219,10|0,2:0|2:0,2:0:0:0:
127,103,126227,5,2,1:0:0:0:
74,90,126352,1,0,2:0:0:0:
48,137,126477,2,0,P|65:174|79:218,1,59.6750018211365,8|0,2:0|2:0,2:0:0:0:
165,350,126727,5,2,1:0:0:0:
89,384,126852,1,0,2:0:0:0:
27,329,126977,2,0,P|42:288|47:263,1,59.6750018211365,10|0,2:0|2:0,2:0:0:0:
248,368,127227,6,0,P|326:342|408:332,2,162.75000620842,2|10|2,1:0|2:0|1:0,2:0:0:0:
473,384,127852,1,0,3:0:0:0:
473,384,127977,2,0,P|491:354|479:301,1,81.37500310421,10|0,2:0|2:0,2:0:0:0:
273,267,128227,6,0,P|197:259|179:153,1,162.75000620842,0|10,1:0|2:0,2:0:0:0:
102,125,128602,1,0,3:0:0:0:
171,181,128727,2,0,P|137:211|85:210,1,81.37500310421,2|0,1:0|2:0,2:0:0:0:
31,78,128977,2,0,P|65:48|117:49,1,81.37500310421,10|0,2:0|2:0,2:0:0:0:
332,12,129227,6,0,P|293:83|292:175,1,162.75000620842,6|10,1:0|2:0,2:0:0:0:
289,163,129727,6,0,P|323:138|381:133,1,92.2250017590523,6|0,1:0|2:0,2:0:0:0:
451,93,129977,1,10,2:0:0:0:
451,93,130102,1,0,2:0:0:0:
354,229,130227,6,0,P|441:253|489:322,2,173.6,6|8|10,1:0|2:0|2:0,2:0:0:0:
259,321,130852,1,0,3:0:0:0:
318,373,130977,2,0,P|339:338|327:298,1,70.5249967716219,10|0,2:0|2:0,2:0:0:0:
139,230,131227,6,0,P|55:210|41:114,2,173.6,6|10|2,1:0|2:0|1:0,2:0:0:0:
199,162,131852,1,0,3:0:0:0:
274,214,131977,2,0,P|261:254|247:307,1,86.8,10|0,2:0|2:0,2:0:0:0:
395,368,132227,5,0,1:0:0:0:
445,384,132352,1,0,2:0:0:0:
482,353,132477,2,0,P|469:319|463:288,1,65.0999980133057,8|0,2:0|2:0,2:0:0:0:
497,167,132727,5,2,1:0:0:0:
419,199,132852,1,0,3:0:0:0:
354,147,132977,2,0,P|369:103|370:69,1,65.0999980133057,10|0,2:0|2:0,2:0:0:0:
249,297,133227,6,0,B|170:284|187:330|87:312,2,151.89999536438,2|10|2,1:0|2:0|1:0,2:0:0:0:
351,342,133852,1,0,3:0:0:0:
361,333,133977,2,0,P|355:280|341:248,1,75.94999768219,10|0,2:0|2:0,2:0:0:0:
416,160,134227,5,2,1:0:0:0:
474,150,134352,1,0,2:0:0:0:
509,195,134477,2,0,P|497:224|491:252,1,54.25,8|0,2:0|2:0,2:0:0:0:
336,31,134727,5,2,1:0:0:0:
286,98,134852,1,0,2:0:0:0:
202,73,134977,2,0,P|191:46|174:12,1,54.25,10|0,2:0|2:0,2:0:0:0:
259,207,135227,6,0,P|231:283|215:364,2,162.75000620842,2|10|2,1:0|2:0|1:0,2:0:0:0:
341,180,135852,1,0,2:0:0:0:
386,249,135977,2,0,P|436:235|465:218,1,81.37500310421,10|0,2:0|2:0,2:0:0:0:
206,282,136227,6,0,P|148:249|42:226,1,162.75000620842,2|8,1:0|2:0,2:0:0:0:
23,150,136602,1,0,2:0:0:0:
97,103,136727,2,0,P|155:136|261:159,1,162.75000620842,2|10,1:0|2:0,2:0:0:0:
386,249,137102,1,0,3:0:0:0:
342,314,137227,2,0,P|315:297|315:245,1,81.37500310421,2|0,1:0|2:0,2:0:0:0:
508,36,137477,6,0,P|451:107|363:98,1,162.75000620842,12|0,2:0|1:0,2:0:0:0:
329,168,137852,1,0,3:0:0:0:
378,105,137977,2,0,P|401:126|408:169,1,65.0999980133057,8|0,2:0|2:0,2:0:0:0:
424,384,138227,6,0,P|432:348|444:308,1,65.0999980133057,0|0,1:0|2:0,2:0:0:0:
280,280,138477,2,0,P|272:316|260:356,1,65.0999980133057,8|0,2:0|2:0,2:0:0:0:
348,352,138727,2,0,P|352:334|360:308,4,43.3999986755371,0|0|0|0|0,3:0|3:0|3:0|3:0|3:0,2:0:0:0:
197,218,139227,6,0,P|158:242|102:247,1,86.7999973510743,6|2,1:0|3:0,2:0:0:0:
180,332,139560,1,2,3:0:0:0:
52,328,139727,6,0,P|83:252|73:161,1,173.599994702149,2|0,3:0|3:0,2:0:0:0:
72,16,140227,6,0,P|72:100|164:112,1,173.599994702149,6|2,1:0|3:0,2:0:0:0:
228,212,140727,1,0,3:0:0:0:
311,169,140893,1,0,3:0:0:0:
361,245,141060,1,2,3:0:0:0:
471,107,141227,6,0,P|395:149|311:169,1,173.599994702149,6|0,1:0|3:0,2:0:0:0:
336,327,141727,2,0,P|345:281|361:243,1,86.7999973510743,2|0,3:0|3:0,2:0:0:0:
431,308,142060,1,2,3:0:0:0:
247,383,142227,6,0,P|235:320|210:260,1,130.199996026611,6|0,1:0|0:0,2:0:0:0:
206,254,142560,1,0,3:0:0:0:
269,204,142727,2,0,P|244:177|186:179,2,86.7999973510743,2|0|0,3:0|3:0|3:0,2:0:0:0:
380,20,143227,6,0,P|316:68|218:74,1,173.599994702149,6|2,1:0|3:0,2:0:0:0:
400,212,143727,2,0,P|432:188|481:185,1,86.7999973510743,2|0,3:0|2:0,2:0:0:0:
336,152,144060,1,0,3:0:0:0:
269,204,144227,6,0,P|238:285|222:370,1,173.599994702149,6|0,1:0|3:0,2:0:0:0:
144,248,144727,2,0,P|174:166|190:81,1,173.599994702149,2|0,3:0|3:0,2:0:0:0:
36,72,145227,6,0,P|64:152|152:144,1,173.599994702149,6|0,1:0|2:0,2:0:0:0:
280,28,145727,5,0,3:0:0:0:
363,50,145893,1,0,3:0:0:0:
300,109,146060,1,0,3:0:0:0:
443,22,146227,6,0,P|412:40|359:49,1,86.7999973510743,0|0,3:0|2:0,2:0:0:0:
300,109,146560,1,0,3:0:0:0:
381,162,146727,2,0,P|412:144|465:135,1,86.7999973510743,10|8,2:3|2:3,2:0:0:0:
461,134,147060,1,10,2:3:0:0:
296,198,147227,6,0,P|279:243|273:293,1,86.7999973510743,6|0,1:0|2:0,2:0:0:0:
188,215,147560,1,0,2:0:0:0:
247,376,147727,2,0,P|217:267|180:203,1,173.599994702149,10|0,2:0|2:0,2:0:0:0:
294,101,148227,6,0,P|359:120|425:123,1,130.199996026611,0|0,1:0|3:0,2:0:0:0:
428,117,148560,1,0,3:0:0:0:
379,220,148727,2,0,P|335:203|293:197,2,86.7999973510743,8|0|0,2:0|3:0|3:0,2:0:0:0:
200,312,149227,6,0,P|161:164|117:63,2,260.399992053223,2|10|2,1:0|2:0|1:0,2:0:0:0:
120,364,150393,1,0,3:0:0:0:
56,304,150560,1,0,3:0:0:0:
88,222,150727,6,0,B|178:198|154:252|280:219,1,173.599994702149,10|4,2:0|2:3,2:0:0:0:
407,351,151227,5,2,1:0:0:0:
475,285,151393,1,2,3:0:0:0:
496,377,151560,1,2,3:0:0:0:
403,360,151727,6,0,P|338:279|361:200,1,173.599994702149,10|0,2:0|3:0,2:0:0:0:
480,40,152227,2,0,P|453:107|397:121,1,130.199996026611,2|0,1:0|3:0,2:0:0:0:
395,118,152560,1,0,3:0:0:0:
316,80,152727,2,0,P|308:40|280:0,2,86.7999973510743,8|0|0,2:0|3:0|3:0,2:0:0:0:
288,256,153227,6,0,P|292:208|307:170,1,86.7999973510743,2|0,1:0|3:0,2:0:0:0:
311,168,153477,1,0,3:0:0:0:
320,165,153560,1,0,3:0:0:0:
380,232,153727,6,0,P|288:220|208:172,1,173.599994702149,10|0,2:0|3:0,2:0:0:0:
160,244,154227,2,0,P|140:288|132:332,1,86.7999973510743,2|0,1:0|3:0,2:0:0:0:
220,304,154560,1,0,3:0:0:0:
56,232,154727,6,0,P|36:188|28:144,2,86.7999973510743,10|0|0,2:0|3:0|3:0,2:0:0:0:
154,91,155227,5,6,1:0:0:0:
227,64,155393,1,2,3:0:0:0:
287,128,155560,1,2,3:0:0:0:
368,3,155727,6,0,P|321:60|210:54,1,173.599994702149,10|0,2:0|3:0,2:0:0:0:
159,191,156227,6,0,P|223:209|240:237,1,86.7999973510743,0|0,1:0|3:0,2:0:0:0:
239,233,156477,1,0,3:0:0:0:
242,242,156560,1,0,3:0:0:0:
276,317,156727,6,0,P|315:294|322:251,1,86.7999973510743,8|0,2:0|3:0,2:0:0:0:
442,137,157060,1,0,3:0:0:0:
505,195,157227,6,0,P|431:167|337:164,1,173.599994702149,4|0,1:0|2:0,2:0:0:0:
408,61,157727,2,0,P|448:103|444:144,1,86.7999973510743,4|0,1:0|2:0,2:0:0:0:
322,255,158060,1,0,2:0:0:0:
484,292,158227,6,0,P|418:256|311:258,1,173.599994702149,4|0,1:0|2:0,2:0:0:0:
119,32,158727,2,0,P|185:68|292:66,1,173.599994702149,4|0,1:0|2:0,2:0:0:0:
442,103,159227,5,6,1:0:0:0:
319,145,159393,1,2,3:0:0:0:
351,22,159560,1,2,3:0:0:0:
404,189,159727,6,0,P|367:262|275:260,1,173.599994702149,10|0,2:0|3:0,2:0:0:0:
130,381,160227,6,0,P|117:339|98:292,2,86.7999973510743,2|0|0,1:0|3:0|3:0,2:0:0:0:
178,269,160727,5,10,2:0:0:0:
117,217,160893,1,0,3:0:0:0:
42,240,161060,1,0,3:0:0:0:
183,278,161227,6,0,P|236:279|271:254,1,86.7999973510743,6|0,1:0|3:0,2:0:0:0:
269,254,161477,1,0,3:0:0:0:
270,245,161560,1,0,3:0:0:0:
223,99,161727,6,0,P|216:154|202:196,2,86.7999973510743,8|0|0,2:0|3:0|3:0,2:0:0:0:
296,8,162227,5,8,2:0:0:0:
431,33,162393,1,8,2:3:0:0:
320,92,162560,1,8,2:3:0:0:
403,136,162727,2,0,P|437:140|466:147,1,57.8666666666667,8|4,2:3|2:3,2:0:0:0:
460,145,163060,1,4,2:3:0:0:
344,216,163227,5,0,3:0:0:0:
481,126,171227,5,6,1:0:0:0:
445,98,171352,1,2,2:0:0:0:
401,106,171477,2,0,P|382:140|379:172,1,59.6750018211365,10|2,2:0|2:0,2:0:0:0:
306,26,171727,5,6,1:0:0:0:
243,15,171852,1,2,2:0:0:0:
206,64,171977,2,0,P|226:95|258:111,1,65.0999980133057,10|2,2:0|2:0,2:0:0:0:
23,78,172227,5,6,1:0:0:0:
11,141,172352,1,2,2:0:0:0:
58,177,172477,2,0,P|101:165|124:131,1,70.5249967716219,10|10,2:0|2:0,2:0:0:0:
306,26,172727,5,14,1:2:0:0:
258,98,172852,1,2,3:0:0:0:
231,181,172977,1,2,3:0:0:0:
242,260,173102,1,2,3:0:0:0:
193,370,173227,6,0,P|153:373|111:356,1,81.37500310421,6|0,1:0|2:0,2:0:0:0:
138,218,173477,2,0,P|178:215|220:232,1,81.37500310421,10|0,2:0|2:0,2:0:0:0:
171,299,173727,5,2,1:0:0:0:
171,299,173852,1,0,3:0:0:0:
171,299,173977,2,0,P|146:218|146:139,1,162.75000620842,10|0,2:0|1:0,2:0:0:0:
214,95,174352,1,0,2:0:0:0:
287,133,174477,2,0,P|299:173|299:213,1,81.37500310421,8|0,2:0|2:0,2:0:0:0:
401,271,174727,5,2,1:0:0:0:
409,279,174852,1,0,3:0:0:0:
421,276,174977,2,0,P|462:264|507:256,1,81.37500310421,10|0,2:0|2:0,2:0:0:0:
472,163,175227,2,0,P|431:175|386:183,1,81.37500310421,2|0,1:0|2:0,2:0:0:0:
291,362,175477,5,10,2:0:0:0:
245,383,175602,1,0,2:0:0:0:
198,359,175727,1,2,1:0:0:0:
181,312,175852,1,0,3:0:0:0:
207,270,175977,2,0,P|218:230|217:190,1,81.37500310421,10|0,2:0|2:0,2:0:0:0:
147,23,176227,5,2,1:0:0:0:
65,5,176352,1,0,2:0:0:0:
6,67,176477,1,8,2:0:0:0:
20,143,176602,1,0,2:0:0:0:
93,176,176727,2,0,P|131:163|157:132,1,81.37500310421,2|0,1:0|2:0,2:0:0:0:
384,24,176977,5,10,2:0:0:0:
384,24,177102,1,0,3:0:0:0:
384,24,177227,2,0,P|355:103|344:181,1,162.75000620842,2|10,1:0|2:0,2:0:0:0:
308,255,177602,1,0,2:0:0:0:
239,205,177727,2,0,P|203:224|163:231,1,81.37500310421,2|0,1:0|2:0,2:0:0:0:
294,333,177977,2,0,P|295:292|308:254,1,81.37500310421,10|0,2:0|2:0,2:0:0:0:
205,382,178227,5,0,1:0:0:0:
205,382,178352,1,0,2:0:0:0:
205,382,178477,2,0,P|183:347|152:321,1,81.37500310421,10|0,2:0|2:0,2:0:0:0:
389,322,178727,1,2,1:0:0:0:
389,322,178852,1,0,2:0:0:0:
389,322,178977,2,0,P|390:280|404:242,1,81.37500310421,10|0,2:0|2:0,2:0:0:0:
240,136,179227,6,0,P|165:168|85:183,1,162.75000620842,6|10,1:0|2:0,2:0:0:0:
174,209,179602,1,0,2:0:0:0:
56,91,179727,6,0,P|48:183|24:272,1,184.450003518105,6|10,1:0|2:0,2:0:0:0:
174,209,180102,1,0,2:0:0:0:
142,353,180227,6,0,P|131:310|113:271,1,86.8,6|0,1:0|2:0,2:0:0:0:
240,136,180477,2,0,P|250:178|268:217,1,86.8,0|0,2:0|2:0,2:0:0:0:
259,364,180727,5,10,2:0:0:0:
250,370,180852,1,0,3:0:0:0:
239,361,180977,2,0,P|244:327|278:308,1,70.5249967716219,10|0,2:0|2:0,2:0:0:0:
449,275,181227,6,0,P|393:273|354:255,1,86.8,6|0,1:0|2:0,2:0:0:0:
384,104,181477,2,0,P|440:106|479:124,1,86.8,10|0,2:0|2:0,2:0:0:0:
416,192,181727,5,2,1:0:0:0:
416,192,181852,1,0,3:0:0:0:
416,192,181977,2,0,P|442:118|442:24,1,173.6,10|0,2:0|1:0,2:0:0:0:
397,7,182352,1,0,2:0:0:0:
369,42,182477,2,0,P|321:34|303:-15,1,86.8,8|0,2:0|2:0,2:0:0:0:
195,140,182727,5,2,1:0:0:0:
267,110,182852,1,0,3:0:0:0:
327,169,182977,2,0,P|321:229|284:253,1,86.8,10|0,2:0|2:0,2:0:0:0:
64,340,183227,6,0,P|148:331|216:381,2,173.6,2|10|2,1:0|2:0|1:0,2:0:0:0:
233,279,183852,1,0,3:0:0:0:
297,330,183977,2,0,P|345:318|373:280,1,86.8,10|0,2:0|2:0,2:0:0:0:
280,136,184227,5,2,1:0:0:0:
271,149,184352,1,0,2:0:0:0:
283,159,184477,2,0,P|293:181|302:219,1,54.25,8|0,2:0|2:0,2:0:0:0:
502,372,184727,1,2,1:0:0:0:
465,384,184852,1,0,2:0:0:0:
439,359,184977,2,0,P|445:337|449:299,1,54.25,10|0,2:0|2:0,2:0:0:0:
394,194,185227,6,0,P|463:176|501:95,2,162.75000620842,2|10|2,1:0|2:0|1:0,2:0:0:0:
331,110,185852,1,0,3:0:0:0:
372,41,185977,2,0,P|408:89|400:134,1,81.37500310421,10|0,2:0|2:0,2:0:0:0:
293,285,186227,6,0,P|305:207|328:120,2,162.75000620842,2|8|2,1:0|2:0|1:0,2:0:0:0:
282,368,186852,1,0,3:0:0:0:
294,374,186977,2,0,P|341:366|356:328,1,81.37500310421,10|0,2:0|2:0,2:0:0:0:
181,275,187227,5,6,1:0:0:0:
139,323,187352,1,0,2:0:0:0:
82,310,187477,1,8,2:0:0:0:
28,182,187727,5,0,1:0:0:0:
88,122,187852,1,0,3:0:0:0:
166,146,187977,1,8,2:0:0:0:
371,354,188227,5,2,1:0:0:0:
446,331,188352,1,8,2:0:0:0:
480,254,188477,1,8,2:0:0:0:
465,177,188602,1,0,3:0:0:0:
390,138,188727,6,0,P|346:157|291:172,1,75.94999768219,10|4,2:3|2:3,2:0:0:0:
280,256,188977,2,0,P|243:267|209:283,1,75.94999768219,10|8,2:0|2:3,2:0:0:0:
87,153,189227,6,0,P|100:68|119:0,2,151.89999536438,6|10|2,1:0|2:0|1:0,2:0:0:0:
159,200,189852,1,0,3:0:0:0:
115,269,189977,2,0,P|68:282|25:303,1,86.8,10|0,2:0|2:0,2:0:0:0:
244,173,190227,6,0,P|257:90|285:4,1,173.6,0|8,1:0|2:0,2:0:0:0:
353,56,190602,1,0,2:0:0:0:
353,56,190727,2,0,P|315:87|281:83,1,70.5249967716219,2|0,1:0|2:0,2:0:0:0:
361,292,190977,5,10,2:0:0:0:
361,292,191102,1,0,2:0:0:0:
361,292,191227,2,0,P|401:276|446:265,1,86.8,2|0,1:0|2:0,2:0:0:0:
256,161,191477,2,0,P|271:201|283:246,1,86.8,10|0,2:0|2:0,2:0:0:0:
377,60,191727,2,0,P|336:75|292:87,1,86.8,2|0,1:0|2:0,2:0:0:0:
478,187,191977,2,0,P|462:146|451:102,1,86.8,10|0,2:0|2:0,2:0:0:0:
282,243,192227,5,2,1:0:0:0:
236,241,192352,1,0,2:0:0:0:
201,283,192477,1,8,2:0:0:0:
66,371,192727,5,2,1:0:0:0:
18,346,192852,1,0,2:0:0:0:
4,297,192977,1,10,2:0:0:0:
25,250,193102,1,0,3:0:0:0:
69,236,193227,2,0,P|110:254|122:299,1,81.37500310421,2|0,1:0|2:0,2:0:0:0:
305,136,193477,6,0,P|247:180|202:170,1,122.062504656315,10|0,2:0|0:0,2:0:0:0:
203,170,193727,2,0,P|231:207|234:249,1,81.37500310421,2|0,1:0|2:0,2:0:0:0:
401,237,193977,2,0,P|362:245|338:277,1,81.37500310421,10|0,2:0|2:0,2:0:0:0:
140,376,194227,6,0,P|114:288|53:224,1,162.75000620842,0|10,1:0|2:0,2:0:0:0:
141,71,194602,1,0,3:0:0:0:
141,71,194727,2,0,P|98:72|53:47,1,81.37500310421,2|0,1:0|2:0,2:0:0:0:
46,155,194977,2,0,P|89:154|134:179,1,81.37500310421,10|0,2:0|2:0,2:0:0:0:
341,19,195227,6,0,P|263:48|251:126,1,162.75000620842,6|10,1:0|2:0,2:0:0:0:
248,119,195602,1,0,2:0:0:0:
210,231,195727,6,0,P|305:241|338:327,1,184.450003518105,6|10,1:0|2:0,2:0:0:0:
339,314,196102,1,0,2:0:0:0:
440,339,196227,6,0,P|347:354|246:396,1,173.6,6|0,1:0|0:0,2:0:0:0:
176,361,196602,1,0,2:0:0:0:
165,334,196727,1,10,2:0:0:0:
172,308,196852,1,0,3:0:0:0:
197,292,196977,2,0,P|217:254|205:225,1,70.5249967716219,10|0,2:0|2:0,2:0:0:0:
396,42,197227,6,0,P|377:89|374:129,1,86.8,6|0,1:0|2:0,2:0:0:0:
278,96,197477,2,0,P|297:49|300:9,1,86.8,10|0,2:0|2:0,2:0:0:0:
464,137,197727,5,2,1:0:0:0:
464,137,197852,1,0,3:0:0:0:
464,137,197977,2,0,B|371:141|385:187|283:189,1,173.6,10|0,2:0|1:0,2:0:0:0:
241,241,198352,1,0,2:0:0:0:
241,241,198477,2,0,P|284:241|322:261,1,86.8,8|0,2:0|2:0,2:0:0:0:
291,39,198727,5,2,1:0:0:0:
210,16,198852,1,0,3:0:0:0:
152,75,198977,2,0,P|108:94|66:96,1,86.8,10|0,2:0|2:0,2:0:0:0:
79,8,199227,6,0,P|109:88|118:181,1,173.6,2|10,1:0|2:0,2:0:0:0:
118,175,199602,1,0,2:0:0:0:
40,320,199727,6,0,P|10:240|1:147,1,173.6,2|10,1:0|2:0,2:0:0:0:
0,152,200102,1,0,2:0:0:0:
152,75,200227,5,2,1:0:0:0:
208,132,200352,1,0,2:0:0:0:
284,112,200477,2,0,P|316:100|348:100,1,54.25,0|0,2:0|2:0,2:0:0:0:
241,241,200727,5,2,1:0:0:0:
265,253,200852,1,0,2:0:0:0:
257,277,200977,2,0,P|230:283|205:293,1,54.25,10|0,2:0|2:0,2:0:0:0:
326,190,201227,6,0,B|413:184|390:215|500:218,1,162.75000620842,2|10,1:0|2:0,2:0:0:0:
408,327,201602,1,0,2:0:0:0:
408,327,201727,2,0,P|400:279|390:248,1,81.37500310421,2|0,1:0|2:0,2:0:0:0:
442,50,201977,2,0,P|450:98|460:129,1,81.37500310421,10|0,2:0|2:0,2:0:0:0:
319,196,202227,6,0,B|184:168|219:241|53:203,1,244.12500931263,2|0,1:0|2:0,2:0:0:0:
8,268,202727,5,2,1:0:0:0:
23,272,202852,1,0,3:0:0:0:
29,286,202977,2,0,P|22:310|16:356,1,65.0999980133057,10|0,2:0|2:0,2:0:0:0:
152,168,203227,6,0,P|108:132|20:152,1,130.199996026611,2|12,1:0|2:0,2:0:0:0:
38,138,203602,1,0,2:0:0:0:
146,266,203727,6,0,P|218:246|246:190,1,130.199996026611,0|8,1:0|2:0,2:0:0:0:
244,201,204102,1,0,3:0:0:0:
244,201,204227,2,0,P|265:231|270:269,1,65.0999980133057,0|0,1:0|2:0,2:0:0:0:
364,221,204477,2,0,P|342:190|337:152,1,65.0999980133057,8|0,2:0|2:0,2:0:0:0:
343,312,204727,6,0,L|356:357,4,43.3999986755371,0|0|0|0|0,1:0|3:0|3:0|3:0|3:0,2:0:0:0:
506,309,205227,6,0,B|472:268|417:294,1,86.7999973510743,6|2,1:0|3:0,2:0:0:0:
427,289,205560,1,2,3:0:0:0:
284,384,205727,6,0,P|303:299|314:213,1,173.599994702149,2|0,3:0|3:0,2:0:0:0:
280,41,206227,6,0,P|375:62|379:136,1,173.599994702149,6|2,1:0|3:0,2:0:0:0:
382,272,206727,5,0,3:0:0:0:
459,246,206893,1,0,3:0:0:0:
506,309,207060,1,2,3:0:0:0:
376,281,207227,6,0,P|282:296|227:241,1,173.599994702149,6|0,1:0|3:0,2:0:0:0:
288,81,207727,6,0,P|316:137|315:213,1,130.199996026611,6|0,1:2|0:0,2:0:0:0:
314,213,208060,1,2,3:0:0:0:
193,384,208227,6,0,P|167:306|83:267,1,173.599994702149,6|0,1:0|3:0,2:0:0:0:
24,200,208727,6,0,P|66:190|107:177,1,86.7999973510743,2|0,3:0|3:0,2:0:0:0:
89,267,209060,1,0,3:0:0:0:
160,112,209227,6,0,P|226:157|230:246,1,173.599994702149,6|2,1:0|3:0,2:0:0:0:
324,376,209727,5,2,3:0:0:0:
412,350,209893,1,0,2:0:0:0:
342,292,210060,1,0,3:0:0:0:
332,381,210227,6,0,P|374:280|366:204,1,173.599994702149,6|0,1:0|3:0,2:0:0:0:
232,8,210727,2,0,P|193:85|194:171,1,173.599994702149,2|0,3:0|3:0,2:0:0:0:
284,192,211227,6,0,B|384:168|360:216|464:184,1,173.599994702149,6|0,1:0|2:0,2:0:0:0:
400,110,211727,2,0,P|408:67|422:22,2,86.7999973510743,0|0|0,3:0|3:0|3:0,2:0:0:0:
348,292,212227,6,0,B|321:237|244:216|184:244|184:244|225:244|247:274,1,260.399992053223,0|0,3:0|2:0,2:0:0:0:
247,273,213227,6,0,P|255:241|275:197,1,79.5666690948487,6|2,1:0|3:0,2:0:0:0:
240,104,213560,1,2,3:0:0:0:
324,124,213727,2,0,P|280:176|188:164,1,159.133338189697,2|0,3:0|2:0,2:0:0:0:
114,4,214227,2,0,P|155:45|148:106,1,119.350003642273,6|0,1:0|0:0,2:0:0:0:
143,109,214560,1,2,3:0:0:0:
0,93,214727,2,0,P|39:85|76:72,1,79.5666690948487,0|0,3:0|3:0,2:0:0:0:
161,291,215060,1,2,3:0:0:0:
95,236,215227,6,0,P|174:242|259:281,1,159.133338189697,6|0,1:0|3:0,2:0:0:0:
392,128,215727,2,0,P|352:125|310:105,1,79.5666690948487,6|0,1:0|2:0,2:0:0:0:
316,109,216060,1,2,3:0:0:0:
292,196,216227,6,0,P|279:117|253:42,1,159.133338189697,6|0,1:0|3:0,2:0:0:0:
92,80,216727,2,0,P|104:158|130:233,1,159.133338189697,2|0,3:0|3:0,2:0:0:0:
76,304,217227,6,0,P|36:288|-8:288,1,79.5666690948487,6|2,1:0|2:0,2:0:0:0:
130,233,217560,1,2,3:0:0:0:
160,364,217727,2,0,B|236:332|312:320|312:320,1,159.133338189697,2|0,3:0|3:0,2:0:0:0:
281,240,218227,6,0,P|290:198|308:158,1,79.5666690948487,2|0,1:0|2:0,2:0:0:0:
308,158,218477,1,0,3:0:0:0:
313,154,218560,1,2,3:0:0:0:
407,191,218727,2,0,P|398:233|380:273,1,79.5666690948487,0|0,3:0|3:0,2:0:0:0:
312,319,219060,1,2,3:0:0:0:
160,140,219227,6,0,P|87:172|10:192,1,159.133338189697,6|0,1:0|2:0,2:0:0:0:
48,284,219727,2,0,P|120:251|197:231,1,159.133338189697,2|8,3:0|2:3,2:0:0:0:
321,277,220227,5,8,1:2:0:0:
378,219,220393,1,8,2:3:0:0:
344,150,220560,1,8,2:3:0:0:
111,34,220727,5,10,1:2:0:0:
171,102,220893,1,14,2:3:0:0:
259,64,221060,1,14,2:3:0:0:
192,232,221227,6,0,P|219:310|230:398,1,159.133338189697,14|0,1:2|2:0,2:0:0:0:
312,260,221727,5,0,3:0:0:0:
402,240,221893,1,8,2:3:0:0:
444,320,222060,1,4,2:3:0:0:
457,329,222143,1,4,2:3:0:0:
472,328,222227,1,4,1:0:0:0:
256,192,222310,12,0,224227,2:0:0:0:
