osu file format v14

[General]
AudioFilename: audio.mp3
AudioLeadIn: 0
PreviewTime: 85687
Countdown: 0
SampleSet: Soft
StackLeniency: 0.7
Mode: 0
LetterboxInBreaks: 0
WidescreenStoryboard: 0

[Editor]
DistanceSpacing: 1.6
BeatDivisor: 4
GridSize: 32
TimelineZoom: 1.060006

[Metadata]
Title:Hyoukai
TitleUnicode:氷解
Artist:Nanase Hikaru
ArtistUnicode:七瀬光
Creator:Garden
Version:Normal
Source:シゴフミ
Tags:shigofumi bgm
BeatmapID:1401528
BeatmapSetID:662092

[Difficulty]
HPDrainRate:3
CircleSize:4
OverallDifficulty:3
ApproachRate:5
SliderMultiplier:1.2
SliderTickRate:1

[Events]
//Background and Video events
0,0,"aaa.jpg",0,0
//Break Periods
//Storyboard Layer 0 (Background)
//Storyboard Layer 1 (Fail)
//Storyboard Layer 2 (Pass)
//Storyboard Layer 3 (Foreground)
//Storyboard Sound Samples

[TimingPoints]
596,847.457627118644,4,2,1,30,1,0
3985,862.068965517241,4,2,1,30,1,0
5278,-100,4,2,1,5,0,0
5709,-100,4,2,1,30,0,0
7433,853.48506401138,4,2,1,30,1,0
8286,-100,4,2,1,5,0,0
8713,-100,4,2,1,30,0,0
10866,858.369098712446,4,2,1,30,1,0
12154,-100,4,2,1,5,0,0
12583,-100,4,2,1,30,0,0
17733,860.832137733142,4,2,1,30,1,0
21176,821.917808219178,4,2,1,30,1,0
22819,916.030534351145,4,2,1,30,1,0
23735,845.070422535211,4,2,1,30,1,0
24157,-100,4,2,1,5,0,0
24580,847.457627118644,4,2,1,30,1,0
27969,872.093023255814,4,2,1,30,1,0
34923,882.352941176471,4,2,1,30,1,0
36659,847.457627118644,4,2,1,30,1,0
38330,847.457627118644,4,2,1,30,1,0
41719,837.988826815642,4,2,1,30,1,0
44232,872.093023255814,4,2,1,30,1,0
45155,827.586206896552,4,2,1,30,1,0
45982,902.255639097744,4,2,1,30,1,0
46886,865.800865800866,4,2,1,30,1,0
48618,874.63556851312,4,2,1,30,1,0
50367,820.217808219178,4,2,1,30,1,0
52017,833.333333333333,4,2,1,30,1,0
53683,-100,4,2,1,40,0,0
54517,952.380952380952,4,2,1,30,1,0
55469,853.48506401138,4,2,1,30,1,0
58029,812.457808219176,4,2,1,30,1,0
58882,833.333333333333,4,2,1,30,1,0
61443,853.48506401138,4,2,1,30,1,0
62296,819.672131147541,4,2,1,30,1,0
63115,848.656294200849,4,2,1,30,1,0
65660,873.362445414847,4,2,1,30,1,0
69153,854.700854700855,4,2,1,30,1,0
71717,827.586206896552,4,2,1,30,1,0
72571,854.700854700855,4,2,1,30,1,0
75990,863.309352517986,4,2,1,30,1,0
77716,826.446280991736,4,2,1,30,1,0
79443,842.696629213483,4,2,1,30,1,0
80726,882.352941176471,4,2,1,30,1,0
81194,869.565217391304,4,2,1,50,1,0
81411,-100,4,2,1,10,0,0
82933,847.457627118644,4,2,1,10,1,0
84627,-100,4,2,1,20,0,0
86322,843.881856540084,4,2,1,30,1,0
89697,874.63556851312,4,2,1,30,1,0
91446,833.333333333333,4,2,1,30,1,0
93140,865.800865800866,4,2,1,30,1,0
94871,842.696629213483,4,2,1,30,1,0
95713,900.900900900901,4,2,1,30,1,0
96613,804.289544235925,4,2,1,30,1,0
97417,853.48506401138,4,2,1,30,1,0
98296,848.656294200849,4,2,1,30,1,0
99144,869.565217391304,4,2,1,30,1,0
100051,797.872340425532,4,2,1,30,1,0
100848,886.262924667651,4,2,1,30,1,0
101734,832.177531206657,4,2,1,30,1,0
102566,827.470409711684,4,2,1,30,1,0
103476,809.716599190283,4,2,1,30,1,0
104285,847.457627118644,4,2,1,30,1,0
105979,916.030534351145,4,2,1,30,1,0
106895,849.85835694051,4,2,1,30,1,0
109444,826.446280991736,4,2,1,30,1,0
110294,849.85835694051,4,2,1,30,1,0
113693,872.093023255814,4,2,1,30,1,0
115437,831.024930747922,4,2,1,30,1,0
116268,887.573964497042,4,2,1,30,1,0
117155,860.832137733142,4,2,1,30,1,0
118876,-100,4,2,1,40,0,0
120598,847.457627118644,4,2,1,30,1,0
123140,857.142857142857,4,2,1,30,1,0
124049,828.729281767956,4,2,1,30,1,0
125706,894.187779433681,4,2,1,30,1,0
126600,-100,4,2,1,10,0,0
127047,-100,4,2,1,30,0,0
127494,806.988826815642,4,2,1,30,1,0
128331,789.473684210526,4,2,1,30,1,0
129169,884.955752212389,4,2,1,30,1,0
130938,1090.90909090909,4,2,1,50,1,0
131210,-100,4,2,1,5,0,0

[Colours]
Combo1 : 221,221,221
Combo2 : 174,255,255

[HitObjects]
87,55,596,5,2,0:0:0:0:
87,55,1867,5,0,0:0:0:0:
173,96,2290,2,0,P|212:95|249:82,1,60,2|0,0:0|0:0,0:0:0:0:
305,27,3138,2,0,P|341:27|373:36,1,60
451,69,3985,5,2,0:0:0:0:
414,157,4416,2,0,B|402:198|402:198|414:283,1,120
502,308,5709,1,2,0:0:0:0:
502,308,7433,6,0,P|446:291|375:305,1,120,2|0,0:0|0:0,0:0:0:0:
305,352,8713,1,0,0:0:0:0:
224,300,9139,2,0,L|214:223,1,60,2|0,0:0|0:0,0:0:0:0:
301,196,9993,2,0,L|308:129,1,60
271,43,10866,6,0,P|194:34|232:115,1,180,2|0,0:0|0:0,0:0:0:0:
301,133,12583,1,2,0:0:0:0:
212,122,14299,6,0,B|88:115,1,120,2|0,0:0|0:0,0:0:0:0:
4,155,15587,1,0,0:0:0:0:
75,220,16016,2,0,P|97:274|81:352,1,120,2|0,0:0|0:0,0:0:0:0:
8,384,17304,1,0,0:0:0:0:
8,288,17733,6,0,L|160:263,1,120,2|0,0:0|0:0,0:0:0:0:
219,292,19024,1,0,0:0:0:0:
311,318,19454,1,2,0:0:0:0:
311,318,21176,6,0,P|363:371|364:261,1,240,2|2,0:0|0:0,0:0:0:0:
294,227,23277,1,0,0:0:0:0:
214,294,23735,2,0,L|143:290,1,60
58,286,24580,1,2,0:0:0:0:
58,286,25851,6,0,L|52:250,1,20
96,188,26274,1,2,0:0:0:0:
96,188,27969,6,0,P|152:165|217:177,1,120,2|0,0:0|0:0,0:0:0:0:
301,203,29277,1,0,0:0:0:0:
256,287,29713,2,0,P|250:326|256:369,1,60,2|0,0:0|0:0,0:0:0:0:
342,375,30585,2,0,L|419:361,1,60,2|0,0:0|0:0,0:0:0:0:
483,314,31457,5,2,0:0:0:0:
420,241,31893,2,0,B|403:204|403:204|414:113,1,120
450,36,33201,2,0,L|509:44,2,60,2|0|0,0:0|0:0|0:0,0:0:0:0:
355,18,34509,1,2,0:0:0:0:
313,98,34923,6,0,P|259:123|183:103,1,120,2|0,0:0|0:0,0:0:0:0:
115,70,36246,1,0,0:0:0:0:
47,134,36659,2,0,L|41:210,1,60,2|0,0:0|0:0,0:0:0:0:
127,238,37506,2,0,L|136:314,1,60,2|0,0:0|0:0,0:0:0:0:
211,346,38330,6,0,P|270:345|322:316,1,120,2|0,0:0|0:0,0:0:0:0:
382,242,39601,1,0,0:0:0:0:
332,161,40024,2,0,L|335:89,2,60,2|0|0,0:0|0:0|0:0,0:0:0:0:
280,242,41296,1,0,0:0:0:0:
192,200,41719,6,0,L|70:193,1,120,2|0,0:0|0:0,0:0:0:0:
19,112,42975,1,0,0:0:0:0:
82,40,43394,2,0,L|224:47,1,120,2|0,0:0|0:0,0:0:0:0:
292,14,44668,1,2,0:0:0:0:
381,82,45155,6,0,P|409:129|401:213,1,120,2|0,0:0|0:0,0:0:0:0:
364,277,46433,1,0,0:0:0:0:
277,226,46886,2,0,P|249:179|255:107,1,120,2|0,0:0|0:0,0:0:0:0:
298,32,48184,1,0,0:0:0:0:
386,70,48618,6,0,L|462:61,1,60,2|0,0:0|0:0,0:0:0:0:
507,137,49492,2,0,P|511:166|506:198,1,60
421,252,50367,2,0,L|343:260,2,60,2|0|0,0:0|0:0|0:0,0:0:0:0:
494,312,51597,1,2,0:0:0:0:
425,377,52017,6,0,L|348:371,1,60,2|0,0:0|0:0,0:0:0:0:
285,319,52850,2,0,P|222:313|161:340,1,120,2|2,0:0|0:1,0:0:0:0:
170,333,55469,6,0,P|204:332|240:315,1,60
320,347,56322,2,0,P|344:322|360:291,1,60,2|0,0:0|0:0,0:0:0:0:
450,282,57175,2,0,P|470:229|461:153,1,120,2|0,0:0|0:0,0:0:0:0:
436,75,58435,1,2,0:0:0:0:
346,125,58882,6,0,L|208:120,1,120,2|0,0:0|0:0,0:0:0:0:
142,73,60132,1,0,0:0:0:0:
57,28,60548,1,2,0:0:0:0:
57,28,61443,6,0,P|50:94|86:158,1,120
146,201,62705,1,0,0:0:0:0:
227,157,63115,2,0,L|304:149,1,60,2|0,0:0|0:0,0:0:0:0:
338,70,63963,2,0,L|480:82,1,120,2|0,0:0|0:0,0:0:0:0:
504,163,65236,1,0,0:0:0:0:
439,230,65660,6,0,L|448:360,1,120,2|0,0:0|0:0,0:0:0:0:
356,318,66970,1,0,0:0:0:0:
271,362,67406,2,0,P|196:366|142:336,1,120,2|0,0:0|0:0,0:0:0:0:
156,347,69153,6,0,P|148:318|145:275,1,60
227,239,70007,2,0,P|235:206|237:166,1,60,2|0,0:0|0:0,0:0:0:0:
224,84,70862,2,0,L|81:77,1,120,2|0,0:0|0:0,0:0:0:0:
16,118,72130,1,2,0:0:0:0:
36,215,72571,6,0,L|32:284,2,60,2|0|0,0:0|0:0|0:0,0:0:0:0:
122,171,73853,1,0,0:0:0:0:
202,224,74281,2,0,L|342:214,1,120,2|0,0:0|0:0,0:0:0:0:
402,161,75563,1,0,0:0:0:0:
487,202,75990,6,0,P|490:229|484:261,1,60,2|0,0:0|0:0,0:0:0:0:
409,321,76853,2,0,P|378:330|328:328,2,60
363,236,78129,1,0,0:0:0:0:
379,141,78542,1,2,0:0:0:0:
455,82,78955,1,0,0:0:0:0:
356,30,79443,6,0,B|222:38,1,120,2|0,0:0|0:0,0:0:0:0:
181,116,80726,2,0,L|186:159,2,30,2|0|2,0:0|0:0|0:1,0:0:0:0:
256,192,81411,12,2,84627,0:0:0:0:
256,189,85899,5,0,0:0:0:0:
193,116,86322,2,0,P|185:86|182:57,2,60,2|0|0,0:0|0:0|0:0,0:0:0:0:
278,71,87587,1,0,0:0:0:0:
364,112,88009,2,0,L|443:106,1,60,2|0,0:0|0:0,0:0:0:0:
455,198,88853,2,0,L|373:205,1,60,2|0,0:0|0:0,0:0:0:0:
304,184,89697,5,2,0:0:0:0:
215,221,90134,2,0,P|197:271|217:343,1,120
295,278,91446,2,0,P|328:273|365:273,2,60
335,365,92696,1,2,0:0:0:0:
427,332,93140,6,0,P|448:277|425:207,1,120,2|0,0:0|0:0,0:0:0:0:
384,137,94438,1,0,0:0:0:0:
294,178,94871,2,0,L|220:172,1,60,2|0,0:0|0:0,0:0:0:0:
154,131,95713,2,0,L|144:62,1,60,2|0,0:0|0:0,0:0:0:0:
249,46,96613,6,0,P|280:53|318:50,2,60,2|0|0,0:0|0:0|0:0,0:0:0:0:
154,26,97843,1,0,0:0:0:0:
86,99,98296,2,0,P|83:135|92:170,2,60,2|0|0,0:0|0:0|0:0,0:0:0:0:
179,122,99578,1,0,0:0:0:0:
270,54,100051,6,0,P|335:41|391:56,1,120,2|0,0:0|0:0,0:0:0:0:
456,119,101291,1,0,0:0:0:0:
408,209,101734,2,0,L|420:348,1,120,2|0,0:0|0:0,0:0:0:0:
336,378,102979,1,2,0:0:0:0:
234,318,103476,6,0,B|196:301|196:301|112:317,1,120,2|0,0:0|0:0,0:0:0:0:
38,367,104708,1,0,0:0:0:0:
0,279,105132,2,0,L|6:149,1,120,2|0,0:0|0:0,0:0:0:0:
5,159,106895,6,0,P|69:169|126:144,1,120,2|0,0:0|0:0,0:0:0:0:
199,97,108169,1,0,0:0:0:0:
280,46,108594,2,0,P|347:38|410:64,1,120,2|0,0:0|0:0,0:0:0:0:
475,108,109857,1,2,0:0:0:0:
409,178,110294,6,0,L|416:255,1,60,2|0,0:0|0:0,0:0:0:0:
362,318,111144,2,0,P|306:331|244:310,1,120,0|2,0:0|0:1,0:0:0:0:
247,312,113693,6,0,L|368:298,1,120,2|2,0:0|0:0,0:0:0:0:
456,330,115001,1,0,0:0:0:0:
505,242,115437,2,0,P|509:178|480:121,1,120,2|0,0:0|0:0,0:0:0:0:
422,56,116711,1,2,0:0:0:0:
340,112,117155,6,0,P|280:133|223:117,1,120,2|0,0:0|0:0,0:0:0:0:
152,58,118446,1,2,0:0:0:0:
70,108,118876,1,2,0:1:0:0:
70,108,120598,6,0,P|61:144|62:180,1,60,2|0,0:0|0:0,0:0:0:0:
153,191,121445,2,0,P|163:226|182:257,1,60
269,235,122292,2,0,P|295:260|327:277,1,60,2|0,0:0|0:0,0:0:0:0:
403,237,123140,2,0,P|439:246|475:245,1,60
441,136,124049,6,0,P|368:133|316:171,1,120,2|0,0:0|0:0,0:0:0:0:
329,156,125706,2,0,L|189:152,1,120,2|0,0:0|0:0,0:0:0:0:
120,114,127047,1,0,0:0:0:0:
64,204,127494,6,0,P|61:240|65:266,1,60,2|0,0:0|0:0,0:0:0:0:
93,364,128331,1,0,0:0:0:0:
185,337,128725,1,0,0:0:0:0:
167,242,129169,6,0,P|242:178|257:278,1,240,2|2,0:0|0:1,0:0:0:0:
256,192,131210,12,0,135301,0:0:0:0:
