osu file format v14

[General]
AudioFilename: audio.mp3
AudioLeadIn: 0
PreviewTime: 85687
Countdown: 0
SampleSet: Soft
StackLeniency: 0.7
Mode: 0
LetterboxInBreaks: 0
WidescreenStoryboard: 0

[Editor]
DistanceSpacing: 1.8
BeatDivisor: 2
GridSize: 32
TimelineZoom: 1.060006

[Metadata]
Title:Hyoukai
TitleUnicode:氷解
Artist:Nanase Hikaru
ArtistUnicode:七瀬光
Creator:Garden
Version:Easy
Source:シゴフミ
Tags:shigofumi bgm
BeatmapID:1401527
BeatmapSetID:662092

[Difficulty]
HPDrainRate:1
CircleSize:3
OverallDifficulty:1
ApproachRate:3
SliderMultiplier:1
SliderTickRate:1

[Events]
//Background and Video events
0,0,"aaa.jpg",0,0
//Break Periods
//Storyboard Layer 0 (Background)
//Storyboard Layer 1 (Fail)
//Storyboard Layer 2 (Pass)
//Storyboard Layer 3 (Foreground)
//Storyboard Sound Samples

[TimingPoints]
596,847.457627118644,4,2,1,30,1,0
3985,862.068965517241,4,2,1,30,1,0
5278,-100,4,2,1,5,0,0
5709,-100,4,2,1,30,0,0
7433,853.48506401138,4,2,1,30,1,0
8286,-100,4,2,1,5,0,0
8713,-100,4,2,1,30,0,0
10866,858.369098712446,4,2,1,30,1,0
17733,860.832137733142,4,2,1,30,1,0
21176,821.917808219178,4,2,1,30,1,0
22819,916.030534351145,4,2,1,30,1,0
23735,845.070422535211,4,2,1,30,1,0
24580,847.457627118644,4,2,1,30,1,0
27969,872.093023255814,4,2,1,30,1,0
34923,882.352941176471,4,2,1,30,1,0
36659,847.457627118644,4,2,1,30,1,0
38330,847.457627118644,4,2,1,30,1,0
41719,837.988826815642,4,2,1,30,1,0
44232,872.093023255814,4,2,1,30,1,0
45155,827.586206896552,4,2,1,30,1,0
45982,902.255639097744,4,2,1,30,1,0
46886,865.800865800866,4,2,1,30,1,0
48618,874.63556851312,4,2,1,30,1,0
50367,820.217808219178,4,2,1,30,1,0
52017,833.333333333333,4,2,1,30,1,0
53683,-100,4,2,1,40,0,0
54517,952.380952380952,4,2,1,30,1,0
55469,853.48506401138,4,2,1,30,1,0
58029,812.457808219176,4,2,1,30,1,0
58882,833.333333333333,4,2,1,30,1,0
61443,853.48506401138,4,2,1,30,1,0
62296,819.672131147541,4,2,1,30,1,0
63115,848.656294200849,4,2,1,30,1,0
65660,873.362445414847,4,2,1,30,1,0
69153,854.700854700855,4,2,1,30,1,0
71717,827.586206896552,4,2,1,30,1,0
72571,854.700854700855,4,2,1,30,1,0
75990,863.309352517986,4,2,1,30,1,0
77716,826.446280991736,4,2,1,30,1,0
79443,842.696629213483,4,2,1,30,1,0
80726,882.352941176471,4,2,1,30,1,0
81194,869.565217391304,4,2,1,50,1,0
81411,-100,4,2,1,10,0,0
82933,847.457627118644,4,2,1,10,1,0
84627,-100,4,2,1,20,0,0
86322,843.881856540084,4,2,1,30,1,0
89697,874.63556851312,4,2,1,30,1,0
91446,833.333333333333,4,2,1,30,1,0
93140,865.800865800866,4,2,1,30,1,0
94871,842.696629213483,4,2,1,30,1,0
95713,900.900900900901,4,2,1,30,1,0
96613,804.289544235925,4,2,1,30,1,0
97417,853.48506401138,4,2,1,30,1,0
98296,848.656294200849,4,2,1,30,1,0
99144,869.565217391304,4,2,1,30,1,0
100051,797.872340425532,4,2,1,30,1,0
100848,886.262924667651,4,2,1,30,1,0
101734,832.177531206657,4,2,1,30,1,0
102566,827.470409711684,4,2,1,30,1,0
103476,809.716599190283,4,2,1,30,1,0
104285,847.457627118644,4,2,1,30,1,0
105979,916.030534351145,4,2,1,30,1,0
106895,849.85835694051,4,2,1,30,1,0
109444,826.446280991736,4,2,1,30,1,0
110294,849.85835694051,4,2,1,30,1,0
113693,872.093023255814,4,2,1,30,1,0
115437,831.024930747922,4,2,1,30,1,0
116268,887.573964497042,4,2,1,30,1,0
117155,860.832137733142,4,2,1,30,1,0
118876,-100,4,2,1,40,0,0
120598,847.457627118644,4,2,1,30,1,0
123140,857.142857142857,4,2,1,30,1,0
124049,828.729281767956,4,2,1,30,1,0
125706,894.187779433681,4,2,1,30,1,0
126600,-100,4,2,1,10,0,0
127047,-100,4,2,1,30,0,0
127494,806.988826815642,4,2,1,30,1,0
128331,789.473684210526,4,2,1,30,1,0
129169,884.955752212389,4,2,1,30,1,0
130938,1090.90909090909,4,2,1,50,1,0
131210,-100,4,2,1,5,0,0

[Colours]
Combo1 : 221,221,221
Combo2 : 174,255,255

[HitObjects]
224,129,596,5,2,0:0:0:0:
224,129,1867,5,0,0:0:0:0:
160,192,2290,2,0,P|108:187|51:187,2,100,2|0|2,0:0|0:0|0:0,0:0:0:0:
225,253,4416,2,0,P|308:270|368:225,1,150,0|2,0:0|0:0,0:0:0:0:
359,236,7433,6,0,L|368:81,1,150,2|0,0:0|0:0,0:0:0:0:
290,40,9139,2,0,P|243:31|177:43,1,100,2|0,0:0|0:0,0:0:0:0:
367,86,10866,1,2,0:0:0:0:
367,86,12583,1,2,0:0:0:0:
498,126,14299,6,0,P|454:113|388:121,1,100,2|0,0:0|0:0,0:0:0:0:
325,166,15587,1,0,0:0:0:0:
396,220,16016,2,0,L|405:335,1,100,2|0,0:0|0:0,0:0:0:0:
336,379,17304,1,0,0:0:0:0:
255,339,17733,6,0,P|209:329|144:339,1,100,2|0,0:0|0:0,0:0:0:0:
77,291,19024,2,0,L|67:223,1,50,0|2,0:0|0:0,0:0:0:0:
69,241,21176,6,0,B|169:210|172:274|274:235,1,200,2|2,0:0|0:0,0:0:0:0:
336,183,23277,1,0,0:0:0:0:
420,231,23735,2,0,L|433:347,1,100,0|2,0:0|0:0,0:0:0:0:
236,143,25851,2,0,L|243:81,1,50,0|2,0:0|0:0,0:0:0:0:
241,93,27969,6,0,L|247:199,1,100,2|0,0:0|0:0,0:0:0:0:
213,276,29277,1,0,0:0:0:0:
132,235,29713,2,0,P|84:227|23:241,2,100,2|2|2,0:0|0:0|0:0,0:0:0:0:
213,276,31893,2,0,P|243:282|276:281,1,50,0|0,0:0|0:0,0:0:0:0:
425,206,33201,2,0,P|452:209|484:217,2,50,2|0|0,0:0|0:0|0:0,0:0:0:0:
315,71,34923,6,0,P|326:100|331:136,1,50,2|0,0:0|0:0,0:0:0:0:
280,194,35805,2,0,L|213:192,1,50
150,157,36659,2,0,P|97:157|46:185,1,100,2|2,0:0|0:0,0:0:0:0:
41,351,38330,6,0,L|91:342,1,50,2|0,0:0|0:0,0:0:0:0:
165,293,39177,2,0,L|233:301,1,50
278,363,40024,2,0,P|332:365|385:340,1,100,2|0,0:0|0:0,0:0:0:0:
442,289,41296,1,0,0:0:0:0:
394,211,41719,6,0,L|401:96,2,100,2|0|2,0:0|0:0|0:0,0:0:0:0:
234,144,44232,2,0,P|265:142|302:135,1,50,0|2,0:0|0:0,0:0:0:0:
247,39,45155,6,0,P|199:26|143:34,1,100,2|0,0:0|0:0,0:0:0:0:
73,79,46433,1,0,0:0:0:0:
124,158,46886,2,0,L|128:273,1,100,2|0,0:0|0:0,0:0:0:0:
280,349,48618,6,0,P|324:371|373:370,1,100,2|0,0:0|0:0,0:0:0:0:
375,179,50367,2,0,P|320:177|267:203,1,100,2|0,0:0|0:0,0:0:0:0:
217,259,51597,1,2,0:0:0:0:
144,205,52017,2,0,L|137:102,2,100,2|2|2,0:0|0:0|0:1,0:0:0:0:
144,205,55469,6,0,P|199:194|255:204,1,100,0|2,0:0|0:0,0:0:0:0:
324,236,56749,1,0,0:0:0:0:
409,209,57175,2,0,L|405:96,1,100,2|0,0:0|0:0,0:0:0:0:
495,100,58435,2,0,L|498:160,1,50,0|2,0:0|0:0,0:0:0:0:
456,334,59715,2,0,P|482:342|505:345,2,50,0|0|2,0:0|0:0|0:0,0:0:0:0:
305,219,61443,1,0,0:0:0:0:
133,294,62296,6,0,L|134:348,1,50
220,336,63115,2,0,L|219:214,1,100,2|2,0:0|0:0,0:0:0:0:
134,76,64812,2,0,P|131:108|133:129,1,50
218,145,65660,2,0,B|330:167|309:98|437:140,1,200,2|2,0:0|0:0,0:0:0:0:
499,291,68280,1,0,0:0:0:0:
337,377,69153,6,0,L|340:258,1,100,0|2,0:0|0:0,0:0:0:0:
399,209,70435,1,0,0:0:0:0:
459,142,70862,2,0,P|464:89|441:32,1,100,2|0,0:0|0:0,0:0:0:0:
360,34,72130,2,0,L|300:49,1,50,0|2,0:0|0:0,0:0:0:0:
312,231,73425,1,0,0:0:0:0:
154,146,74281,2,0,L|160:45,1,100,2|0,0:0|0:0,0:0:0:0:
20,156,75990,6,0,P|11:214|35:278,2,100,2|0|0,0:0|0:0|0:0,0:0:0:0:
81,90,78129,2,0,L|76:30,2,50,0|2|0,0:0|0:0|0:0,0:0:0:0:
169,144,79443,2,0,L|287:131,1,100,2|0,0:0|0:0,0:0:0:0:
428,231,81194,2,0,B|324:216|341:288|237:266,1,200,2|2,0:1|0:0,0:0:0:0:
230,262,85899,5,0,0:0:0:0:
230,262,86322,6,0,P|289:264|352:232,1,100,2|0,0:0|0:0,0:0:0:0:
394,190,87587,1,0,0:0:0:0:
476,224,88009,2,0,L|473:335,2,100,2|2|2,0:0|0:0|0:0,0:0:0:0:
469,134,90134,2,0,P|427:105|329:109,1,150,0|0,0:0|0:0,0:0:0:0:
171,325,92696,5,2,0:0:0:0:
98,267,93140,2,0,P|87:207|98:156,1,100,2|0,0:0|0:0,0:0:0:0:
126,84,94438,1,0,0:0:0:0:
215,106,94871,2,0,L|331:96,1,100,2|2,0:0|0:0,0:0:0:0:
389,48,96163,1,0,0:0:0:0:
449,128,96613,6,0,L|445:239,1,100,2|0,0:0|0:0,0:0:0:0:
340,382,98296,2,0,L|331:257,1,100,2|0,0:0|0:0,0:0:0:0:
283,83,100051,6,0,P|216:92|182:124,1,100,2|0,0:0|0:0,0:0:0:0:
136,181,101291,1,0,0:0:0:0:
203,249,101734,2,0,L|200:377,1,100,2|0,0:0|0:0,0:0:0:0:
383,261,103476,2,0,L|505:251,1,100,2|0,0:0|0:0,0:0:0:0:
511,167,104708,1,0,0:0:0:0:
470,86,105132,2,0,L|361:94,1,100,2|0,0:0|0:0,0:0:0:0:
214,208,106895,6,0,B|316:249|312:169|425:214,2,200,2|2|2,0:0|0:0|0:0,0:0:0:0:
136,162,110719,1,0,0:0:0:0:
58,207,111144,2,0,P|32:263|38:318,1,100,0|2,0:0|0:1,0:0:0:0:
32,300,113693,6,0,L|146:290,2,100,2|2|2,0:0|0:0|0:0,0:0:0:0:
285,349,116711,1,2,0:0:0:0:
236,269,117155,2,0,P|230:224|256:154,2,100,2|2|2,0:0|0:0|0:1,0:0:0:0:
236,269,120598,6,0,P|146:296|62:235,1,200,2|0,0:0|0:0,0:0:0:0:
0,73,123140,1,0,0:0:0:0:
161,183,124049,2,0,L|381:161,1,200,2|2,0:0|0:0,0:0:0:0:
146,326,127047,1,0,0:0:0:0:
83,248,127494,6,0,P|74:206|85:146,1,100,2|0,0:0|0:0,0:0:0:0:
256,185,129169,2,0,P|222:239|232:164,1,200,2|2,0:0|0:1,0:0:0:0:
256,192,131210,12,0,135301,0:0:0:0:
