osu file format v14

[General]
AudioFilename: audio.mp3
AudioLeadIn: 0
PreviewTime: 51329
Countdown: 0
SampleSet: Soft
StackLeniency: 0.7
Mode: 0
LetterboxInBreaks: 0
WidescreenStoryboard: 0

[Editor]
Bookmarks: 12500,28958,39929,52272,63243,76958
DistanceSpacing: 0.4
BeatDivisor: 4
GridSize: 4
TimelineZoom: 1.2

[Metadata]
Title:Yuriyurarararayuruyuri Daijiken
TitleUnicode:ゆりゆららららゆるゆり大事件
Artist:Nanamori-chu*Gorakubu
ArtistUnicode:七森中☆ごらく部
Creator:Pata-Mon
Version:xxdeathx's Yuri
Source:ゆるゆり
Tags:IamKwaN ZZHBOY Karen Rizia kawaiwkyik Doormat kencho xxdeathx yuruyuri yuru yuri Nanamori chu Gorakubu Anime OP opening tv size akaza akari 赤座あかり mikami shiori 三上枝織 toshinou kyouko 歳納京子 ootsubo yuka 大坪由佳 funami yui 船見結衣 tsuda minami 津田美波 yoshikawa chinatsu 吉川ちなつ ookubo rumi 大久保瑠美
BeatmapID:1102963
BeatmapSetID:519161

[Difficulty]
HPDrainRate:6
CircleSize:4
OverallDifficulty:8.5
ApproachRate:9.2
SliderMultiplier:1.6
SliderTickRate:1

[Events]
//Background and Video events
Video,-50,"video.flv"
0,0,"BG.jpg",0,0
//Break Periods
//Storyboard Layer 0 (Background)
//Storyboard Layer 1 (Fail)
//Storyboard Layer 2 (Pass)
//Storyboard Layer 3 (Foreground)
//Storyboard Sound Samples

[TimingPoints]
158,342.857142857143,4,2,1,60,1,0
12500,-86.9565217391304,4,2,1,70,0,0
28615,-66.6666666666667,4,2,1,70,0,0
28958,-100,4,2,1,60,0,0
39929,-133.333333333333,4,2,1,50,0,0
48158,-133.333333333333,4,2,1,60,0,0
49529,-66.6666666666667,4,2,1,60,0,0
51415,-100,4,2,1,50,0,0
52272,-86.9565217391304,4,2,1,70,0,1
72843,-68.9655172413793,4,2,1,70,0,1
74215,-133.333333333333,4,2,1,50,0,0
76958,-100,4,2,1,60,0,0
85186,-66.6666666666667,4,2,1,60,0,0

[Colours]
Combo1 : 119,143,227
Combo2 : 222,61,61
Combo3 : 75,233,87
Combo4 : 251,172,85

[HitObjects]
464,128,1529,6,0,P|400:172|308:168,1,160,4|0,0:0|0:0,0:0:0:0:
216,108,2043,2,0,L|200:200,1,80,2|0,0:0|0:0,0:0:0:0:
292,356,2386,2,0,L|276:268,1,80,2|0,0:0|0:0,0:0:0:0:
96,296,2729,2,0,P|136:296|188:272,1,80,2|0,0:0|0:0,0:0:0:0:
460,296,3072,2,0,P|425:276|368:270,1,80,2|0,0:0|0:0,0:0:0:0:
277,277,3415,1,0,0:0:0:0:
476,152,3586,5,2,0:0:0:0:
460,296,3758,1,0,0:0:0:0:
404,116,3929,1,2,0:0:0:0:
386,268,4100,1,0,0:0:0:0:
324,84,4272,6,0,P|248:88|212:156,1,160,2|0,0:0|0:0,0:0:0:0:
306,275,4786,2,0,L|390:267,1,80,2|0,0:0|0:0,0:0:0:0:
211,156,5129,2,0,L|111:148,1,80,2|0,0:0|0:0,0:0:0:0:
156,348,5472,2,0,P|176:312|169:260,1,80,2|0,0:0|0:0,0:0:0:0:
148,74,5815,2,0,P|130:110|134:161,1,80,2|0,0:0|0:0,0:0:0:0:
174,274,6158,1,0,0:0:0:0:
324,76,6329,5,2,0:0:0:0:
248,228,6500,1,0,0:0:0:0:
252,24,6672,1,2,0:0:0:0:
324,180,6843,1,0,0:0:0:0:
174,274,7015,6,0,L|0:268,1,160,2|0,0:0|0:0,0:0:0:0:
51,130,7529,2,0,P|87:114|143:134,1,80,2|0,0:0|0:0,0:0:0:0:
219,334,7872,2,0,P|187:310|176:252,1,80,2|0,0:0|0:0,0:0:0:0:
315,94,8215,2,0,P|310:133|265:171,1,80,2|0,0:0|0:0,0:0:0:0:
219,334,8558,2,0,L|327:326,1,80,2|0,0:0|0:0,0:0:0:0:
415,326,8900,1,0,0:0:0:0:
192,188,9072,5,2,0:0:0:0:
383,138,9243,1,0,0:0:0:0:
173,273,9415,1,2,0:0:0:0:
399,58,9586,1,0,0:0:0:0:
80,136,9758,5,8,0:0:0:0:
432,136,10100,1,8,0:0:0:0:
80,136,10443,5,8,0:0:0:0:
432,136,10615,1,8,0:0:0:0:
80,136,10958,5,4,0:0:0:0:
80,136,11300,1,8,0:0:0:0:
308,72,11472,1,8,0:0:0:0:
212,272,11643,1,8,0:0:0:0:
396,188,11815,5,8,0:0:0:0:
396,188,11900,1,8,0:0:0:0:
396,188,11986,2,0,L|384:244,1,40,8|8,0:0|0:0,0:0:0:0:
268,352,12158,1,8,0:3:0:0:
152,196,12329,1,8,0:0:0:0:
360,312,12500,6,0,P|440:304|472:204,1,184.000003509522,4|0,0:0|0:0,0:0:0:0:
420,64,13015,2,0,L|412:116,1,46.0000008773804
387,227,13186,1,2,0:0:0:0:
276,60,13358,2,0,P|228:60|184:92,1,92.0000017547608,2|0,0:0|0:0,0:0:0:0:
120,192,13700,1,0,0:0:0:0:
260,192,13872,6,0,P|308:280|232:336,1,184.000003509522,2|0,0:0|0:0,0:0:0:0:
74,195,14386,2,0,L|144:190,1,46.0000008773804
260,192,14558,1,2,0:0:0:0:
52,96,14729,2,0,P|28:56|44:0,1,92.0000017547608,2|0,0:0|0:0,0:0:0:0:
260,192,15072,6,0,L|252:252,1,46.0000008773804
244,360,15243,1,2,0:0:0:0:
360,196,15415,2,0,P|400:172|468:188,1,92.0000017547608,2|0,0:0|0:0,0:0:0:0:
244,360,15758,2,0,L|168:348,1,46.0000008773804
84,320,15929,1,2,0:0:0:0:
324,304,16100,2,0,P|348:268|344:212,1,92.0000017547608,2|0,0:0|0:0,0:0:0:0:
280,68,16443,1,0,0:0:0:0:
160,192,16615,6,0,P|108:188|64:136,1,92.0000017547608,2|0,0:0|0:0,0:0:0:0:
40,36,16958,1,2,0:0:0:0:
472,36,17300,1,2,0:0:0:0:
172,280,17643,1,8,0:0:0:0:
176,308,17729,1,8,0:0:0:0:
180,336,17815,1,8,0:3:0:0:
328,240,17986,6,0,L|320:56,1,184.000003509522,4|0,0:0|0:0,0:0:0:0:
40,104,18500,2,0,P|52:120|80:136,1,46.0000008773804
196,140,18672,1,2,0:0:0:0:
0,232,18843,1,2,0:0:0:0:
144,332,19015,2,0,L|252:324,1,92.0000017547608,8|0,0:0|0:0,0:0:0:0:
452,272,19358,6,0,P|372:232|368:132,1,184.000003509522,2|0,0:0|0:0,0:0:0:0:
472,16,19872,2,0,P|480:40|476:72,1,46.0000008773804
452,176,20043,1,2,0:0:0:0:
368,48,20215,2,0,P|320:56|284:88,1,92.0000017547608,2|8,0:0|0:0,0:0:0:0:
60,188,20558,6,0,P|92:184|112:172,1,46.0000008773804
205,129,20729,1,2,0:0:0:0:
52,296,20900,2,0,P|60:328|114:364,1,92.0000017547608,2|8,0:0|0:0,0:0:0:0:
205,129,21243,2,0,P|181:106|158:97,1,46.0000008773804
36,84,21415,1,2,0:0:0:0:
248,228,21586,2,0,P|296:228|344:184,1,92.0000017547608,2|8,0:0|0:0,0:0:0:0:
376,88,21929,1,0,0:0:0:0:
136,216,22100,5,2,0:0:0:0:
205,129,22272,1,0,0:0:0:0:
248,228,22443,2,0,L|252:324,1,92.0000017547608,8|0,0:0|0:0,0:0:0:0:
448,196,22786,2,0,P|404:176|352:184,1,92.0000017547608,8|0,0:0|0:0,0:0:0:0:
40,292,23129,1,8,0:0:0:0:
66,295,23214,1,8,0:0:0:0:
93,299,23300,1,8,0:0:0:0:
119,303,23386,1,8,0:0:0:0:
145,307,23472,6,0,L|133:191,1,92.0000017547608,2|0,0:0|0:0,0:0:0:0:
192,64,23815,1,0,0:0:0:0:
308,252,23986,2,0,P|380:270|448:188,1,184.000003509522,2|0,0:0|0:0,0:0:0:0:
352,8,24500,2,0,B|336:100|336:100|352:152,1,138.000002632141,8|0,0:0|0:0,0:0:0:0:
361,180,24843,5,2,0:0:0:0:
456,72,25015,1,0,0:0:0:0:
376,288,25186,1,0,0:0:0:0:
228,96,25358,2,0,P|172:84|96:180,1,184.000003509522,2|0,0:0|0:0,0:0:0:0:
184,348,25872,2,0,L|296:332,1,92.0000017547608,8|0,0:0|0:0,0:0:0:0:
464,224,26215,5,2,0:0:0:0:
268,252,26386,1,0,0:0:0:0:
328,40,26558,5,2,0:0:0:0:
268,252,26729,1,0,0:0:0:0:
64,96,26900,5,2,0:0:0:0:
304,144,27072,1,0,0:0:0:0:
220,380,27243,5,10,0:0:0:0:
304,144,27415,1,0,0:0:0:0:
16,316,27586,5,2,0:0:0:0:
16,316,27929,1,8,0:0:0:0:
112,28,28100,1,8,0:0:0:0:
112,28,28443,1,0,0:0:0:0:
191,126,28615,2,0,P|237:150|321:134,1,120.000004577637,8|0,0:0|0:0,0:0:0:0:
484,92,28958,5,4,0:0:0:0:
408,156,29129,1,0,0:0:0:0:
408,156,29215,1,0,0:0:0:0:
408,156,29300,2,0,L|420:244,1,80,8|0,0:0|0:0,0:0:0:0:
436,384,29643,1,2,0:0:0:0:
348,312,29815,2,0,P|308:300|256:308,1,80,2|8,0:0|0:0,0:0:0:0:
96,352,30158,1,0,0:0:0:0:
176,292,30329,6,0,P|176:252|156:212,1,80,2|0,0:0|0:0,0:0:0:0:
72,176,30672,1,8,0:0:0:0:
256,200,30843,2,0,P|332:192|384:108,1,160,2|2,0:0|0:0,0:0:0:0:
360,28,31358,2,0,L|456:48,1,80,8|0,0:0|0:0,0:0:0:0:
281,100,31701,5,2,0:0:0:0:
380,128,31872,1,0,0:0:0:0:
222,186,32043,1,8,0:0:0:0:
281,100,32215,1,0,0:0:0:0:
285,267,32386,1,2,0:0:0:0:
222,186,32558,1,0,0:0:0:0:
383,232,32729,1,8,0:0:0:0:
281,100,32900,1,0,0:0:0:0:
184,284,33072,6,0,P|116:296|68:264,1,120,2|0,0:0|0:0,0:0:0:0:
56,248,33415,2,0,L|48:152,1,80,8|2,0:0|0:0,0:0:0:0:
72,64,33758,1,0,0:0:0:0:
304,164,33929,5,8,0:0:0:0:
74,271,34100,1,8,0:0:0:0:
304,164,34272,1,8,0:0:0:0:
164,104,34443,5,4,0:0:0:0:
240,24,34615,1,0,0:0:0:0:
240,24,34700,1,0,0:0:0:0:
240,24,34786,2,0,L|332:16,1,80,8|0,0:0|0:0,0:0:0:0:
472,8,35129,1,2,0:0:0:0:
404,88,35300,2,0,P|392:128|412:180,1,80,2|8,0:0|0:0,0:0:0:0:
472,336,35643,1,0,0:0:0:0:
400,260,35815,6,0,P|360:264|312:308,1,80,2|0,0:0|0:0,0:0:0:0:
280,376,36158,1,8,0:0:0:0:
284,192,36329,2,0,P|248:128|164:108,1,160,2|2,0:0|0:0,0:0:0:0:
76,168,36843,2,0,L|52:76,1,80,8|0,0:0|0:0,0:0:0:0:
232,16,37186,5,2,0:0:0:0:
180,208,37358,1,0,0:0:0:0:
344,20,37529,1,8,0:0:0:0:
168,107,37700,1,0,0:0:0:0:
384,212,37872,1,2,0:0:0:0:
168,107,38043,1,0,0:0:0:0:
184,308,38215,1,8,0:0:0:0:
64,168,38386,1,0,0:0:0:0:
280,124,38558,6,0,L|384:116,1,80,2|0,0:0|0:0,0:0:0:0:
476,112,38900,1,8,0:0:0:0:
312,32,39072,1,2,0:0:0:0:
416,28,39243,1,0,0:0:0:0:
288,280,39415,5,8,0:0:0:0:
188,80,39586,1,8,0:0:0:0:
196,320,39758,1,8,0:0:0:0:
280,124,39929,6,0,P|344:120|392:172,1,120.000004577637,4|0,0:0|0:0,0:0:0:0:
408,240,40443,1,0,0:0:0:0:
384,154,40615,2,0,P|392:124|420:96,1,60.0000022888184,2|0,0:0|0:0,0:0:0:0:
492,60,40958,1,8,0:0:0:0:
260,268,41300,6,0,L|120:264,1,120.000004577637,2|0,0:0|0:0,0:0:0:0:
48,264,41815,1,0,0:0:0:0:
96,188,41986,2,0,P|96:156|80:124,1,60.0000022888184,2|0,0:0|0:0,0:0:0:0:
40,52,42329,1,8,0:0:0:0:
368,344,42672,6,0,B|392:300|352:268|372:220,1,120.000004577637,2|0,0:0|0:0,0:0:0:0:
424,156,43186,1,0,0:0:0:0:
296,184,43358,2,0,P|264:180|232:148,1,60.0000022888184,2|0,0:0|0:0,0:0:0:0:
188,92,43700,1,8,0:0:0:0:
36,328,44043,6,0,L|24:252,2,60.0000022888184,2|0|0,0:0|0:0|0:0,0:0:0:0:
120,296,44558,1,0,0:0:0:0:
120,296,44729,2,0,P|156:284|192:296,1,60.0000022888184,2|0,0:0|0:0,0:0:0:0:
256,336,45072,1,8,0:0:0:0:
128,48,45415,6,0,P|69:74|44:136,1,120.000004577637,2|0,0:0|0:0,0:0:0:0:
76,208,45929,1,0,0:0:0:0:
136,140,46100,2,0,P|164:128|200:128,1,60.0000022888184,2|0,0:0|0:0,0:0:0:0:
280,152,46443,1,8,0:0:0:0:
280,152,46786,5,2,0:0:0:0:
380,80,46958,1,0,0:0:0:0:
268,32,47129,1,0,0:0:0:0:
280,152,47300,2,0,L|288:240,1,60.0000022888184,2|0,0:0|0:0,0:0:0:0:
300,332,47643,1,0,0:0:0:0:
300,332,47729,1,0,0:0:0:0:
300,332,47815,1,8,0:0:0:0:
184,208,47986,1,0,0:0:0:0:
428,240,48158,5,2,0:0:0:0:
280,152,48329,1,0,0:0:0:0:
280,152,48415,1,0,0:0:0:0:
280,152,48500,5,2,0:0:0:0:
148,368,48672,1,0,0:0:0:0:
96,76,48843,5,2,0:0:0:0:
300,332,49015,1,0,0:0:0:0:
400,52,49186,5,2,0:0:0:0:
100,284,49358,1,0,0:0:0:0:
384,264,49529,6,0,L|504:248,1,120.000004577637,4|0,0:0|0:0,0:0:0:0:
256,192,49872,2,0,L|136:208,1,120.000004577637,0|2,0:0|0:0,0:0:0:0:
256,192,50215,12,8,50900,0:0:0:0:
208,192,51415,6,0,P|228:268|300:288,1,160,2|0,0:0|0:0,0:0:0:0:
392,304,51929,2,0,P|392:260|360:216,1,80,2|0,0:0|0:0,0:0:0:0:
116,188,52272,6,0,B|164:228|244:160|292:204,1,184.000003509522,4|8,0:0|0:0,0:0:0:0:
180,32,52786,2,0,P|156:80|164:136,1,92.0000017547608,2|0,0:0|0:0,0:0:0:0:
244,272,53129,1,0,0:0:0:0:
72,116,53300,1,8,0:0:0:0:
156,280,53472,1,0,0:0:0:0:
280,91,53643,6,0,P|367:95|409:173,1,184.000003509522,2|8,0:0|0:0,0:0:0:0:
156,280,54158,2,0,P|180:248|236:232,1,92.0000017547608,2|0,0:0|0:0,0:0:0:0:
360,296,54500,1,0,0:0:0:0:
196,148,54672,1,8,0:0:0:0:
316,176,54843,1,0,0:0:0:0:
176,362,55015,6,0,P|88:334|84:234,1,184.000003509522,4|8,0:0|0:0,0:0:0:0:
192,136,55529,2,0,L|300:128,1,92.0000017547608,2|0,0:0|0:0,0:0:0:0:
424,120,55872,1,0,0:0:0:0:
248,220,56043,1,8,0:0:0:0:
336,52,56215,1,0,0:0:0:0:
108,88,56386,6,0,P|92:128|104:176,1,92.0000017547608,2|0,0:0|0:0,0:0:0:0:
284,316,56729,2,0,P|300:276|288:228,1,92.0000017547608,8|0,0:0|0:0,0:0:0:0:
184,44,57072,2,0,B|192:140,1,92.0000017547608,2|0,0:0|0:0,0:0:0:0:
204,264,57415,1,8,0:0:0:0:
300,88,57586,1,8,0:0:0:0:
300,88,57672,1,8,0:0:0:0:
300,88,57758,6,0,P|360:128|436:108,1,138.000002632141,2|0,0:0|0:0,0:0:0:0:
500,92,58100,2,0,L|508:192,1,92.0000017547608,8|0,0:0|0:0,0:0:0:0:
292,328,58443,2,0,P|232:288|156:308,1,138.000002632141,2|0,0:0|0:0,0:0:0:0:
92,324,58786,2,0,L|84:224,1,92.0000017547608,8|0,0:0|0:0,0:0:0:0:
164,24,59129,6,0,B|212:84|132:136|176:204,2,184.000003509522,2|8|2,0:0|0:0|0:0,0:0:0:0:
80,76,59986,1,0,0:0:0:0:
284,56,60158,2,0,L|380:44,1,92.0000017547608,8|8,0:0|0:0,0:0:0:0:
452,36,60415,1,8,0:0:0:0:
452,36,60500,5,2,0:0:0:0:
500,232,60672,1,0,0:0:0:0:
264,144,60843,1,8,0:0:0:0:
348,280,61015,1,0,0:0:0:0:
472,136,61186,5,2,0:0:0:0:
280,364,61358,1,8,0:0:0:0:
264,144,61529,2,0,L|256:32,1,92.0000017547608,8|0,0:3|0:0,0:0:0:0:
125,160,61872,5,2,0:0:0:0:
9,40,62043,1,0,0:0:0:0:
121,284,62215,1,8,0:0:0:0:
257,52,62386,2,0,P|306:45|358:80,1,92.0000017547608,2|8,0:0|0:0,0:0:0:0:
376,96,62643,5,8,0:0:0:0:
395,123,62729,1,8,0:0:0:0:
406,156,62814,1,8,0:0:0:0:
406,191,62900,1,8,0:0:0:0:
396,223,62985,1,8,0:0:0:0:
376,252,63071,1,8,0:0:0:0:
349,273,63157,1,8,0:0:0:0:
304,291,63243,6,0,L|96:283,1,184.000003509522,4|8,0:0|0:0,0:0:0:0:
88,136,63758,2,0,P|132:148|184:132,1,92.0000017547608,2|0,0:0|0:0,0:0:0:0:
264,24,64100,1,0,0:0:0:0:
264,212,64272,1,8,0:0:0:0:
132,44,64443,1,0,0:0:0:0:
396,56,64615,6,0,P|456:120|408:220,1,184.000003509522,2|8,0:0|0:0,0:0:0:0:
271,303,65129,2,0,L|263:207,1,92.0000017547608,2|0,0:0|0:0,0:0:0:0:
308,84,65472,1,0,0:0:0:0:
396,296,65643,2,0,P|444:304|492:280,1,92.0000017547608,8|0,0:0|0:0,0:0:0:0:
308,84,65986,6,0,B|248:88|248:88|196:48|196:48|128:56,1,184.000003509522,4|8,0:0|0:0,0:0:0:0:
80,188,66500,2,0,P|96:232|72:288,1,92.0000017547608,2|0,0:0|0:0,0:0:0:0:
12,348,66843,1,0,0:0:0:0:
168,144,67015,1,8,0:0:0:0:
188,304,67186,1,0,0:0:0:0:
56,104,67358,6,0,P|40:56|64:0,1,92.0000017547608,2|0,0:0|0:0,0:0:0:0:
168,144,67700,2,0,P|184:192|160:248,1,92.0000017547608,8|0,0:0|0:0,0:0:0:0:
138,54,68043,2,0,L|244:56,1,92.0000017547608,2|0,0:0|0:0,0:0:0:0:
396,96,68386,1,8,0:0:0:0:
276,324,68558,1,8,0:0:0:0:
276,324,68643,1,8,0:0:0:0:
276,324,68729,6,0,B|320:300|364:348|416:320,1,138.000002632141,2|0,0:0|0:0,0:0:0:0:
468,268,69072,2,0,L|472:176,1,92.0000017547608,8|0,0:0|0:0,0:0:0:0:
340,16,69415,2,0,B|316:60|364:104|336:156,1,138.000002632141,2|0,0:0|0:0,0:0:0:0:
284,208,69758,2,0,L|192:212,1,92.0000017547608,8|0,0:0|0:0,0:0:0:0:
36,144,70100,6,0,B|114:168|137:65|250:114,2,184.000003509522,2|8|2,0:0|0:0|0:0,0:0:0:0:
184,8,70958,1,0,0:0:0:0:
192,211,71129,2,0,L|196:336,1,92.0000017547608,8|8,0:0|0:0,0:0:0:0:
200,376,71386,1,8,0:0:0:0:
200,376,71472,5,2,0:0:0:0:
304,280,71643,1,0,0:0:0:0:
100,232,71815,1,8,0:0:0:0:
209,102,71986,1,0,0:0:0:0:
44,300,72158,5,2,0:0:0:0:
80,56,72329,1,8,0:0:0:0:
296,208,72500,2,0,P|340:204|388:164,1,92.0000017547608,8|0,0:3|0:0,0:0:0:0:
456,34,72843,5,2,0:0:0:0:
300,84,73015,1,0,0:0:0:0:
451,273,73186,1,8,0:0:0:0:
392,96,73358,1,2,0:0:0:0:
451,273,73530,5,8,0:0:0:0:
441,289,73615,1,8,0:0:0:0:
426,301,73701,1,8,0:0:0:0:
407,306,73787,1,8,0:0:0:0:
359,298,73872,1,8,0:0:0:0:
310,276,73957,1,8,0:0:0:0:
258,283,74043,1,8,0:0:0:0:
217,315,74129,1,8,0:0:0:0:
192,360,74215,5,6,0:0:0:0:
280,68,74558,1,2,0:0:0:0:
176,252,74900,1,2,0:0:0:0:
266,178,75243,1,2,0:0:0:0:
64,208,75586,5,10,0:0:0:0:
156,132,75929,1,2,0:0:0:0:
196,284,76272,2,0,B|181:304|151:288|154:252|179:237|226:254|228:297|297:276,1,180.000006866455,2|0,0:0|0:0,0:0:0:0:
278,25,76958,6,0,B|239:71|305:129|264:181,1,160,4|0,0:0|0:0,0:0:0:0:
216,271,77472,2,0,L|316:279,1,80,2|0,0:0|0:0,0:0:0:0:
448,189,77815,2,0,L|344:209,1,80,2|0,0:0|0:0,0:0:0:0:
404,384,78158,2,0,P|410:342|385:294,1,80,2|0,0:0|0:0,0:0:0:0:
384,24,78500,2,0,P|357:57|355:111,1,80,2|0,0:0|0:0,0:0:0:0:
369,204,78843,1,0,0:0:0:0:
172,72,79015,5,2,0:0:0:0:
156,188,79186,1,0,0:0:0:0:
352,93,79358,1,2,0:0:0:0:
251,263,79529,1,0,0:0:0:0:
172,72,79700,6,0,P|108:23|26:58,1,160,2|0,0:0|0:0,0:0:0:0:
32,184,80215,2,0,L|48:280,1,80,2|0,0:0|0:0,0:0:0:0:
184,348,80558,2,0,L|168:252,1,80,2|0,0:0|0:0,0:0:0:0:
256,56,80900,2,0,L|272:152,1,80,2|0,0:0|0:0,0:0:0:0:
408,220,81243,2,0,L|392:124,1,80,2|0,0:0|0:0,0:0:0:0:
376,32,81586,1,0,0:0:0:0:
288,236,81758,5,2,0:0:0:0:
152,172,81929,1,0,0:0:0:0:
308,360,82100,1,2,0:0:0:0:
394,141,82272,1,0,0:0:0:0:
180,308,82443,6,0,P|120:304|76:212,1,160,2|0,0:0|0:0,0:0:0:0:
160,80,82958,2,0,L|256:72,1,80,2|0,0:0|0:0,0:0:0:0:
348,264,83300,2,0,L|252:272,1,80,2|0,0:0|0:0,0:0:0:0:
328,36,83643,2,0,P|340:72|324:120,1,80,2|0,0:0|0:0,0:0:0:0:
180,308,83986,2,0,P|168:272|184:224,1,80,2|0,0:0|0:0,0:0:0:0:
248,160,84329,1,0,0:0:0:0:
352,352,84500,5,2,0:0:0:0:
408,136,84672,1,0,0:0:0:0:
436,364,84843,1,2,0:0:0:0:
336,184,85015,1,0,0:0:0:0:
76,280,85186,5,8,0:0:0:0:
436,280,85529,1,8,0:0:0:0:
76,280,85872,5,8,0:0:0:0:
436,280,86043,1,8,0:0:0:0:
76,280,86386,5,8,0:0:0:0:
269,264,86558,1,8,0:0:0:0:
129,124,86729,1,8,0:0:0:0:
184,352,86900,1,8,0:0:0:0:
186,120,87072,2,0,B|215:94|250:124|240:159|188:174|170:240|170:240|140:180|86:173|67:142|95:107|130:124,1,360.000013732911,8|4,0:0|0:0,0:0:0:0:
