osu file format v14

[General]
AudioFilename: audio.mp3
AudioLeadIn: 0
PreviewTime: 51329
Countdown: 0
SampleSet: Normal
StackLeniency: 0.7
Mode: 0
LetterboxInBreaks: 0
WidescreenStoryboard: 1

[Editor]
Bookmarks: 12500,28958,39929,52272,63243,76958
DistanceSpacing: 1
BeatDivisor: 4
GridSize: 4
TimelineZoom: 1.5

[Metadata]
Title:Yuriyurarararayuruyuri Daijiken
TitleUnicode:ゆりゆららららゆるゆり大事件
Artist:Nanamori-chu*Gorakubu
ArtistUnicode:七森中☆ごらく部
Creator:Pata-Mon
Version:wkyik's Insane
Source:ゆるゆり
Tags:IamKwaN ZZHBOY Karen Rizia kawaiwkyik Doormat kencho xxdeathx yuruyuri yuru yuri Nanamori chu Gorakubu Anime OP opening tv size akaza akari 赤座あかり mikami shiori 三上枝織 toshinou kyouko 歳納京子 ootsubo yuka 大坪由佳 funami yui 船見結衣 tsuda minami 津田美波 yoshikawa chinatsu 吉川ちなつ ookubo rumi 大久保瑠美
BeatmapID:1158878
BeatmapSetID:519161

[Difficulty]
HPDrainRate:7
CircleSize:4
OverallDifficulty:7
ApproachRate:9
SliderMultiplier:1.8
SliderTickRate:1

[Events]
//Background and Video events
Video,-50,"video.flv"
0,0,"BG.jpg",0,0
//Break Periods
//Storyboard Layer 0 (Background)
//Storyboard Layer 1 (Fail)
//Storyboard Layer 2 (Pass)
//Storyboard Layer 3 (Foreground)
//Storyboard Sound Samples

[TimingPoints]
158,342.857142857143,4,1,9,70,1,0
12500,-100,4,2,9,60,0,0
20729,-100,4,2,9,50,0,0
23472,-100,4,2,9,60,0,0
27929,-100,4,1,3,60,0,0
28615,-100,4,1,1,60,0,0
28958,-100,4,2,9,60,0,0
39929,-142.857142857143,4,2,9,60,0,0
48158,-100,4,2,9,60,0,0
48843,-100,4,2,9,45,0,0
49186,-100,4,2,9,50,0,0
49529,-100,4,2,9,60,0,0
52272,-100,4,1,9,60,0,1
63158,-100,4,1,9,60,0,0
63243,-100,4,1,9,60,0,1
73872,-100,4,1,9,40,0,1
74043,-100,4,1,9,50,0,1
74215,-100,4,2,9,60,0,1
76958,-100,4,1,9,60,0,0
85186,-100,4,1,9,60,0,0

[Colours]
Combo1 : 234,2,187
Combo2 : 255,0,0
Combo3 : 64,0,0
Combo4 : 253,203,2

[HitObjects]
176,280,1529,6,0,P|128:304|20:232,1,180,4|2,0:0|0:0,0:0:0:0:
120,56,2043,1,0,0:0:0:0:
320,304,2386,1,2,0:0:0:0:
112,208,2729,1,2,0:0:0:0:
288,68,3072,1,2,0:0:0:0:
108,308,3415,1,0,0:0:0:0:
100,324,3586,2,0,L|8:336,1,90,0|2,0:0|0:0,0:0:0:0:
248,204,3929,2,0,L|340:192,1,90,0|2,0:0|0:0,0:0:0:0:
216,328,4272,6,0,P|141:280|120:195,1,180,4|0,0:0|0:0,0:0:0:0:
168,60,4786,1,0,0:0:0:0:
436,164,5129,1,2,0:0:0:0:
84,228,5472,1,2,0:0:0:0:
476,280,5815,1,2,0:0:0:0:
40,132,6158,1,2,0:0:0:0:
160,176,6329,2,0,P|172:218|166:263,1,90,0|2,0:0|0:0,0:0:0:0:
351,207,6672,2,0,P|339:165|345:120,1,90,0|2,0:0|0:0,0:0:0:0:
431,280,7015,6,0,P|344:312|267:271,1,180,4|0,0:0|0:0,0:0:0:0:
96,148,7529,2,0,B|244:128|244:128|268:148,1,180,0|2,0:0|0:0,0:0:0:0:
72,308,8215,1,2,0:0:0:0:
276,160,8558,1,2,0:0:0:0:
132,236,8900,1,0,0:0:0:0:
220,248,9072,1,2,0:0:0:0:
356,336,9243,1,2,0:0:0:0:
268,324,9415,1,0,0:0:0:0:
424,276,9586,1,2,0:0:0:0:
376,200,9758,6,0,L|280:216,1,90,12|0,0:0|0:0,0:0:0:0:
136,184,10100,2,0,L|232:168,1,90,12|0,0:0|0:0,0:0:0:0:
244,276,10443,1,8,0:0:0:0:
268,108,10615,1,8,0:0:0:0:
268,108,10958,1,8,0:0:0:0:
160,204,11300,5,8,0:0:0:0:
267,107,11472,1,8,0:0:0:0:
296,248,11643,1,8,0:0:0:0:
180,204,11815,1,8,0:0:0:0:
180,204,11900,1,8,0:0:0:0:
180,204,11986,1,8,0:0:0:0:
287,107,12158,1,8,0:0:0:0:
316,248,12329,1,8,0:0:0:0:
196,204,12500,6,0,P|192:160|208:112,1,90,4|0,0:0|0:0,0:0:0:0:
312,240,12843,2,0,P|316:284|300:332,1,90,2|0,0:0|0:0,0:0:0:0:
196,352,13186,1,0,0:0:0:0:
84,292,13358,1,0,0:0:0:0:
84,292,13443,1,0,0:0:0:0:
84,292,13529,1,2,0:0:0:0:
116,152,13700,1,0,0:0:0:0:
350,203,13872,6,0,P|272:245|184:236,1,180,4|2,0:0|0:0,0:0:0:0:
124,124,14386,1,0,0:0:0:0:
252,248,14558,2,0,P|240:292|208:328,1,90
124,124,14900,2,0,L|232:92,1,90,2|0,0:0|0:0,0:0:0:0:
210,98,15158,1,0,0:0:0:0:
210,98,15243,1,2,0:0:0:0:
340,160,15415,1,0,0:0:0:0:
90,270,15758,5,0,0:0:0:0:
90,270,15843,1,0,0:0:0:0:
90,270,15929,1,2,0:0:0:0:
208,312,16100,1,0,0:0:0:0:
208,312,16443,1,0,0:0:0:0:
208,312,16615,6,0,P|252:320|296:315,1,90
380,156,16958,2,0,P|335:147|291:152,1,90,2|0,0:0|0:0,0:0:0:0:
79,228,17300,2,0,P|123:236|168:232,1,90
224,100,17643,1,0,0:0:0:0:
228,108,17729,1,0,0:0:0:0:
232,116,17815,1,0,0:0:0:0:
236,124,17900,1,0,0:0:0:0:
240,132,17986,6,0,P|284:148|344:144,1,90,2|0,0:0|0:0,0:0:0:0:
440,72,18329,2,0,P|396:56|336:60,1,90
312,232,18672,2,0,L|324:344,2,90,2|0|8,0:0|0:0|0:0,0:0:0:0:
216,180,19186,1,0,0:0:0:0:
424,288,19358,6,0,L|404:108,1,180,2|0,0:0|0:0,0:0:0:0:
304,32,19872,1,0,0:0:0:0:
190,176,20043,2,0,B|236:176|236:176|276:156,1,90,2|0,0:0|0:0,0:0:0:0:
136,76,20386,2,0,B|90:76|90:76|50:96,1,90,8|0,0:0|0:0,0:0:0:0:
52,240,20729,5,2,0:0:0:0:
181,337,20900,1,0,0:0:0:0:
181,337,21072,2,0,L|276:328,1,90,8|0,0:0|0:0,0:0:0:0:
141,231,21415,5,2,0:0:0:0:
270,328,21586,1,0,0:0:0:0:
270,328,21758,2,0,L|365:319,2,90,8|2|2,0:0|0:0|0:0,0:0:0:0:
181,337,22272,1,0,0:0:0:0:
181,337,22443,1,8,0:0:0:0:
408,320,22786,1,8,0:0:0:0:
404,140,23129,2,0,L|356:128,1,45,0|2,0:0|0:0,0:0:0:0:
282,87,23300,2,0,L|288:132,1,45,2|2,0:0|0:0,0:0:0:0:
300,204,23472,6,0,B|307:247|307:247|293:289,2,90,4|0|2,0:0|0:0|0:0,0:0:0:0:
130,309,23986,2,2,P|215:332|293:290,1,180,2|0,0:0|0:0,0:0:0:0:
239,155,24500,2,0,P|195:150|151:160,1,90,8|0,0:0|0:0,0:0:0:0:
364,264,24843,6,0,P|408:269|452:259,2,90,4|0|2,0:0|0:0|0:0,0:0:0:0:
468,10,25358,2,2,B|480:164|480:164|460:180,1,180,2|0,0:0|0:0,0:0:0:0:
292,112,25872,2,0,L|285:22,1,90,8|0,0:0|0:0,0:0:0:0:
256,281,26215,5,8,0:0:0:0:
166,191,26386,1,10,0:0:0:0:
256,102,26558,1,8,0:0:0:0:
345,192,26729,1,10,0:0:0:0:
303,337,26900,1,8,0:0:0:0:
132,282,27072,1,10,0:0:0:0:
132,101,27243,1,10,0:0:0:0:
303,46,27415,1,10,0:0:0:0:
409,192,27586,1,14,0:0:0:0:
256,192,27929,5,8,0:0:0:0:
256,192,28100,1,8,0:0:0:0:
256,192,28443,1,0,0:0:0:0:
256,192,28615,1,8,0:0:0:0:
140,304,28958,5,0,0:0:0:0:
280,340,29129,1,0,0:0:0:0:
308,336,29215,1,0,0:0:0:0:
336,332,29300,1,8,0:0:0:0:
440,208,29472,1,0,0:0:0:0:
440,208,29643,2,0,P|392:192|328:208,1,90
336,332,29986,1,8,0:0:0:0:
512,284,30158,1,0,0:0:0:0:
424,124,30329,6,0,P|384:132|320:120,1,90
127,85,30672,2,0,P|171:77|216:84,1,90,8|0,0:0|0:0,0:0:0:0:
296,160,31015,1,0,0:0:0:0:
304,248,31186,1,0,0:0:0:0:
240,308,31358,1,8,0:0:0:0:
152,292,31529,1,0,0:0:0:0:
208,140,31700,6,0,B|232:216|232:216|224:228,1,90
212,236,31958,1,0,0:0:0:0:
200,248,32043,1,8,0:0:0:0:
76,256,32215,1,0,0:0:0:0:
308,111,32386,2,0,B|351:103|351:103|396:110,1,90
492,254,32729,2,0,B|448:263|448:263|404:256,1,90,8|0,0:0|0:0,0:0:0:0:
448,156,33072,5,0,0:0:0:0:
348,308,33243,1,0,0:0:0:0:
164,308,33415,1,8,0:0:0:0:
64,156,33586,1,0,0:0:0:0:
256,48,33758,1,0,0:0:0:0:
152,192,33929,1,8,0:0:0:0:
256,108,34100,1,8,0:0:0:0:
360,192,34272,1,8,0:0:0:0:
256,332,34443,5,0,0:0:0:0:
256,244,34615,1,0,0:0:0:0:
256,236,34700,1,0,0:0:0:0:
256,228,34786,1,8,0:0:0:0:
172,164,34958,1,0,0:0:0:0:
172,164,35129,2,0,P|164:124|168:72,1,90
344,75,35472,2,0,P|348:119|340:164,1,90,8|0,0:0|0:0,0:0:0:0:
199,252,35815,6,0,P|207:295|239:326,1,90
400,248,36158,2,0,P|392:204|360:173,1,90,8|0,0:0|0:0,0:0:0:0:
236,152,36500,1,0,0:0:0:0:
112,224,36672,1,0,0:0:0:0:
88,232,36758,1,0,0:0:0:0:
60,232,36843,1,8,0:0:0:0:
72,108,37015,1,0,0:0:0:0:
200,232,37186,5,0,0:0:0:0:
236,328,37358,1,0,0:0:0:0:
128,312,37529,1,8,0:0:0:0:
304,244,37700,1,0,0:0:0:0:
80,160,37872,2,0,B|120:152|148:156|148:156|160:184,1,90
336,291,38215,2,0,B|296:299|268:295|268:295|260:276,1,90,8|0,0:0|0:0,0:0:0:0:
332,152,38558,5,0,0:0:0:0:
332,152,38729,1,0,0:0:0:0:
152,148,38900,1,8,0:0:0:0:
152,148,39072,1,0,0:0:0:0:
236,308,39243,1,0,0:0:0:0:
239,218,39415,1,8,0:0:0:0:
239,218,39586,1,8,0:0:0:0:
239,218,39758,1,8,0:0:0:0:
108,312,39929,6,0,P|84:280|92:192,1,125.999996154785,4|8,0:0|0:0,0:0:0:0:
147,130,40443,2,0,P|171:162|163:250,1,125.999996154785
167,245,40958,1,8,0:0:0:0:
328,316,41300,6,0,L|396:320,2,62.9999980773926,0|0|8,0:0|0:0|0:0,0:0:0:0:
272,248,41815,2,0,L|204:244,2,62.9999980773926
336,188,42329,1,8,0:0:0:0:
212,64,42672,6,0,B|100:56|100:56|80:84,1,125.999996154785,0|8,0:0|0:0,0:0:0:0:
152,132,43186,2,0,B|264:140|264:140|284:112,1,125.999996154785
300,44,43700,1,8,0:0:0:0:
384,200,44043,6,0,L|400:268,1,62.9999980773926
344,332,44386,1,8,0:0:0:0:
256,316,44558,2,0,L|270:254,1,62.9999980773926
216,184,44900,1,0,0:0:0:0:
128,200,45072,1,8,0:0:0:0:
127,199,45415,6,0,P|155:255|212:276,1,125.999996154785,4|8,0:0|0:0,0:0:0:0:
284,332,45929,2,0,P|341:310|368:255,1,125.999996154785
356,168,46443,2,0,P|352:128|356:84,1,62.9999980773926,8|0,0:0|0:0,0:0:0:0:
436,136,46786,6,0,P|440:176|436:220,2,62.9999980773926,0|0|8,0:0|0:0|0:0,0:0:0:0:
412,52,47300,2,0,P|372:32|292:48,1,125.999996154785
284,60,47729,1,0,0:0:0:0:
280,80,47815,2,0,P|264:108|224:136,1,62.9999980773926,8|0,0:0|0:0,0:0:0:0:
96,120,48158,5,4,0:0:0:0:
28,204,48329,1,0,0:0:0:0:
44,208,48415,1,0,0:0:0:0:
60,212,48500,2,0,L|52:324,1,90,8|0,0:0|0:0,0:0:0:0:
184,236,48843,1,8,0:0:0:0:
152,116,49015,1,8,0:0:0:0:
392,56,49186,1,8,0:0:0:0:
344,280,49358,1,8,0:0:0:0:
200,168,49529,5,4,0:0:0:0:
204,180,51415,6,0,P|244:188|336:80,1,180
264,184,51929,2,0,P|256:224|276:276,1,90
285,358,52272,6,0,P|353:305|344:220,1,180,6|8,0:0|0:0,0:0:0:0:
248,112,52786,2,0,B|212:116|212:116|164:264,1,180
256,256,53300,1,8,0:0:0:0:
120,140,53472,1,0,0:0:0:0:
96,320,53643,6,0,P|152:352|272:336,1,180,2|8,0:0|0:0,0:0:0:0:
447,180,54158,2,0,P|367:143|280:160,1,180
200,256,54672,1,8,0:0:0:0:
40,272,54843,1,0,0:0:0:0:
108,124,55015,6,0,B|152:112|196:136|196:136|236:128|284:96,1,180,6|8,0:0|0:0,0:0:0:0:
136,212,55529,2,0,P|128:260|228:344,1,180
446,224,56043,2,0,P|401:220|360:236,1,90,8|0,0:0|0:0,0:0:0:0:
244,348,56386,6,0,L|248:240,1,90,2|0,0:0|0:0,0:0:0:0:
95,122,56729,2,0,L|92:212,1,90,8|0,0:0|0:0,0:0:0:0:
164,336,57072,2,0,P|228:348|320:316,1,135,2|0,0:0|0:0,0:0:0:0:
372,296,57415,2,0,P|404:284|472:292,1,90,8|0,0:0|0:0,0:0:0:0:
480,304,57672,1,0,0:0:0:0:
480,304,57758,6,0,P|496:264|468:132,1,180,6|8,0:0|0:0,0:0:0:0:
296,88,58272,1,0,0:0:0:0:
160,271,58443,2,0,P|249:285|336:264,1,180,2|8,0:0|0:0,0:0:0:0:
392,128,58958,1,0,0:0:0:0:
292,280,59129,6,0,B|292:328|292:328|312:372,1,90,2|0,0:0|0:0,0:0:0:0:
409,214,59472,2,0,B|409:166|409:166|391:127,1,90,8|0,0:0|0:0,0:0:0:0:
252,72,59815,1,4,0:0:0:0:
176,224,59986,1,0,0:0:0:0:
316,124,60158,1,8,0:0:0:0:
68,84,60329,1,0,0:0:0:0:
68,84,60415,1,0,0:0:0:0:
68,84,60500,6,0,P|64:128|76:180,1,90,4|0,0:0|0:0,0:0:0:0:
212,288,60843,2,0,P|256:292|308:280,1,90,8|0,0:0|0:0,0:0:0:0:
380,140,61186,1,0,0:0:0:0:
244,52,61358,1,0,0:0:0:0:
148,184,61529,1,8,0:0:0:0:
284,272,61700,1,0,0:0:0:0:
288,164,61872,5,4,0:2:0:0:
196,320,62043,1,0,0:0:0:0:
408,212,62215,1,8,0:0:0:0:
184,136,62386,2,0,P|228:144|280:136,1,90
300,116,62643,1,0,0:0:0:0:
336,112,62729,1,0,0:0:0:0:
364,136,62815,1,0,0:0:0:0:
376,172,62900,2,8,L|372:236,1,45
240,312,63072,2,8,L|242:267,1,45
184,164,63243,6,0,P|136:148|24:216,1,180,4|8,0:0|0:0,0:0:0:0:
240,312,63758,2,0,P|288:328|400:260,1,180
368,108,64272,2,0,B|360:64|360:64|364:12,1,90,8|0,0:0|0:0,0:0:0:0:
412,192,64615,6,0,B|376:208|376:208|320:196|320:196|228:196,1,180,2|8,0:0|0:0,0:0:0:0:
104,272,65129,2,0,B|140:288|140:288|196:276|196:276|280:276,1,180
360,116,65643,2,0,L|260:116,1,90,8|0,0:0|0:0,0:0:0:0:
77,188,65986,6,0,P|158:225|244:204,1,180,4|8,0:0|0:0,0:0:0:0:
450,119,66500,2,0,P|369:82|284:104,1,180,0|0,0:0|0:0,0:0:0:0:
288,232,67015,1,8,0:0:0:0:
412,248,67186,1,0,0:0:0:0:
368,128,67358,6,0,L|364:28,1,90,2|0,0:0|0:0,0:0:0:0:
260,112,67700,2,0,L|264:212,1,90,8|0,0:0|0:0,0:0:0:0:
416,364,68043,2,0,L|408:208,1,135,2|0,0:0|0:0,0:0:0:0:
344,176,68386,2,0,P|328:208|328:265,1,90,8|0,0:0|0:0,0:0:0:0:
348,300,68643,1,0,0:0:0:0:
348,300,68729,6,0,B|376:280|408:292|408:292|432:264|432:208|416:172,1,180,2|8,0:0|0:0,0:0:0:0:
328,92,69243,1,0,0:0:0:0:
97,154,69415,2,0,P|171:202|260:200,1,180,2|8,0:0|0:0,0:0:0:0:
328,92,69929,1,0,0:0:0:0:
56,240,70100,6,0,P|56:288|72:332,1,90,2|0,0:0|0:0,0:0:0:0:
256,248,70443,2,0,P|256:200|240:156,1,90,8|0,0:0|0:0,0:0:0:0:
156,96,70786,1,2,0:0:0:0:
52,168,70958,1,0,0:0:0:0:
72,184,71043,1,0,0:0:0:0:
92,200,71129,1,8,0:0:0:0:
88,308,71300,1,8,0:0:0:0:
113,311,71386,1,8,0:0:0:0:
138,315,71472,6,0,P|184:316|228:292,1,90,4|0,0:0|0:0,0:0:0:0:
272,200,71815,1,8,0:0:0:0:
240,96,71986,1,0,0:0:0:0:
27,190,72158,2,0,P|71:199|116:196,2,90,0|0|8,0:0|0:0|0:0,0:0:0:0:
120,56,72672,1,0,0:0:0:0:
252,152,72843,6,0,L|244:252,1,90
384,280,73186,2,0,L|392:180,1,90,8|0,0:0|0:0,0:0:0:0:
308,72,73529,1,0,3:0:0:0:
272,64,73615,1,0,3:0:0:0:
240,80,73700,1,0,3:0:0:0:
232,116,73786,1,0,3:0:0:0:
244,152,73872,1,8,0:0:0:0:
260,184,73958,1,8,0:0:0:0:
256,220,74043,1,8,0:0:0:0:
232,248,74129,1,8,0:0:0:0:
196,256,74215,6,0,P|152:264|72:156,1,180,4|8,0:0|0:0,0:0:0:0:
316,256,74900,2,0,P|360:264|440:156,1,180,0|8,0:0|0:0,0:0:0:0:
152,56,75586,5,12,0:0:0:0:
360,56,75929,1,8,0:0:0:0:
144,200,76272,2,0,B|136:248|136:248|144:308,1,90,0|2,0:0|0:0,0:0:0:0:
370,288,76615,2,0,B|376:248|376:248|368:200,1,90,0|2,0:0|0:0,0:0:0:0:
256,56,76958,6,0,P|216:36|112:108,1,180,4|0,0:0|0:0,0:0:0:0:
168,300,77472,1,0,0:0:0:0:
424,152,77815,1,2,0:0:0:0:
200,128,78158,1,2,0:0:0:0:
400,328,78500,1,2,0:0:0:0:
208,208,78843,1,2,0:0:0:0:
198,221,79015,2,0,L|84:205,1,90,0|2,0:0|0:0,0:0:0:0:
33,336,79358,2,0,L|122:348,1,90,0|2,0:0|0:0,0:0:0:0:
368,372,79700,6,0,P|412:332|388:212,1,180,4|0,0:0|0:0,0:0:0:0:
292,144,80215,1,0,0:0:0:0:
152,349,80558,1,2,0:0:0:0:
416,248,80900,1,2,0:0:0:0:
120,140,81243,1,2,0:0:0:0:
352,56,81586,1,2,0:0:0:0:
256,180,81758,1,0,0:0:0:0:
232,56,81929,1,2,0:0:0:0:
356,36,82100,1,0,0:0:0:0:
380,160,82271,1,2,0:0:0:0:
440,228,82443,6,0,P|392:260|260:252,1,180,4|0,0:0|0:0,0:0:0:0:
72,156,82958,2,0,P|120:124|252:132,2,180,2|2|2,0:0|0:0|0:0,0:0:0:0:
256,332,83986,1,2,0:0:0:0:
412,152,84329,1,2,0:0:0:0:
300,152,84500,2,0,P|284:112|288:64,1,90,0|2,0:0|0:0,0:0:0:0:
212,232,84843,2,0,P|228:272|224:320,1,90,0|2,0:0|0:0,0:0:0:0:
104,220,85186,5,12,0:0:0:0:
256,64,85529,1,8,0:0:0:0:
408,220,85872,1,8,0:0:0:0:
408,220,86043,1,8,0:0:0:0:
256,320,86386,1,8,0:0:0:0:
256,232,86558,6,0,L|244:128,1,90,8|8,0:0|0:0,0:0:0:0:
380,88,86900,2,0,L|390:177,1,90,8|8,0:0|0:0,0:0:0:0:
88,292,87586,1,12,0:0:0:0:
