osu file format v14

[General]
AudioFilename: audio.mp3
AudioLeadIn: 0
PreviewTime: 51329
Countdown: 0
SampleSet: Soft
StackLeniency: 0.7
Mode: 0
LetterboxInBreaks: 0
WidescreenStoryboard: 0

[Editor]
DistanceSpacing: 0.95
BeatDivisor: 2
GridSize: 4
TimelineZoom: 1

[Metadata]
Title:Yuriyurarararayuruyuri Daijiken
TitleUnicode:ゆりゆららららゆるゆり大事件
Artist:Nanamori-chu*Gorakubu
ArtistUnicode:七森中☆ごらく部
Creator:Pata-Mon
Version:KwaN's Easy
Source:ゆるゆり
Tags:IamKwaN ZZHBOY Karen Rizia kawaiwkyik Doormat kencho xxdeathx yuruyuri yuru yuri Nanamori chu Gorakubu Anime OP opening tv size akaza akari 赤座あかり mikami shiori 三上枝織 toshinou kyouko 歳納京子 ootsubo yuka 大坪由佳 funami yui 船見結衣 tsuda minami 津田美波 yoshikawa chinatsu 吉川ちなつ ookubo rumi 大久保瑠美
BeatmapID:1174057
BeatmapSetID:519161

[Difficulty]
HPDrainRate:2
CircleSize:3
OverallDifficulty:2
ApproachRate:3
SliderMultiplier:0.9
SliderTickRate:1

[Events]
//Background and Video events
Video,-50,"video.flv"
0,0,"BG.jpg",0,0
//Break Periods
//Storyboard Layer 0 (Background)
//Storyboard Layer 1 (Fail)
//Storyboard Layer 2 (Pass)
//Storyboard Layer 3 (Foreground)
//Storyboard Sound Samples

[TimingPoints]
158,342.857142857143,4,2,88,60,1,0
1529,-100,4,2,88,60,0,1
1615,-100,4,2,88,60,0,0
9758,-100,4,2,88,70,0,0
26215,-100,4,2,88,80,0,0
27929,-100,4,2,88,70,0,0
33415,-100,4,2,89,70,0,0
33586,-100,4,2,88,70,0,0
38900,-100,4,2,89,70,0,0
39072,-100,4,2,88,70,0,0
39929,-125,4,2,88,60,0,0
50558,-125,4,2,88,30,0,0
50900,-125,4,2,88,70,0,0
52272,-100,4,2,88,80,0,1
52615,-100,4,2,89,80,0,1
52786,-100,4,2,88,80,0,1
53986,-100,4,2,89,80,0,1
54158,-100,4,2,88,80,0,1
55358,-100,4,2,89,80,0,1
55529,-100,4,2,88,80,0,1
58443,-100,4,2,88,65,0,1
58615,-100,4,2,88,80,0,1
63586,-100,4,2,89,80,0,1
63758,-100,4,2,88,80,0,1
64958,-100,4,2,89,80,0,1
65129,-100,4,2,88,80,0,1
66329,-100,4,2,89,80,0,1
66500,-100,4,2,88,80,0,1
69415,-100,4,2,88,65,0,1
69586,-100,4,2,88,80,0,1
74215,-100,4,2,88,70,0,0
75586,-100,4,2,88,55,0,0
76958,-100,4,2,88,60,0,1
77043,-100,4,2,88,60,0,0

[Colours]
Combo1 : 119,143,227
Combo2 : 222,61,61
Combo3 : 75,233,87
Combo4 : 251,172,85

[HitObjects]
71,260,1529,6,0,B|55:212|60:169|60:169|76:129,1,135,6|2,1:2|0:0,0:0:0:0:
139,72,2386,2,0,P|182:65|227:72,1,90,2|2,0:0|0:0,0:0:0:0:
307,103,3072,2,0,P|350:109|395:103,1,90,2|2,0:0|0:0,0:0:0:0:
438,94,3586,2,0,L|432:184,1,90,2|2,0:0|0:0,0:0:0:0:
421,268,4272,6,0,B|373:250|330:253|330:253|289:268,1,135,2|2,1:2|0:0,0:0:0:0:
225,323,5129,2,0,P|206:283|212:235,1,90,2|2,0:0|0:0,0:0:0:0:
262,170,5815,2,0,P|280:129|274:82,1,90,2|2,0:0|0:0,0:0:0:0:
270,42,6329,2,0,L|360:48,1,90,2|2,0:0|0:0,0:0:0:0:
436,85,7015,6,0,B|470:123|476:160|476:160|459:191|459:221,1,135,2|2,1:2|0:0,0:0:0:0:
425,284,7872,2,0,P|383:270|337:272,1,90,2|2,0:0|0:0,0:0:0:0:
279,335,8558,2,0,P|237:349|191:347,1,90,2|2,0:0|0:0,0:0:0:0:
150,334,9072,2,0,L|142:243,1,90,2|2,0:0|0:0,0:0:0:0:
89,176,9758,6,0,P|44:173|5:152,2,90,2|8|8,1:2|0:0|0:0,0:0:0:0:
128,158,10615,2,0,L|136:67,1,90,2|8,0:0|0:0,0:0:0:0:
208,22,11300,2,0,B|242:13|275:16|275:16|267:67|308:103|355:99|382:74,1,225,8|0,0:0|0:0,0:0:0:0:
436,11,12500,6,0,L|429:148,1,135,6|0,0:0|0:0,0:0:0:0:
428,188,13186,2,0,L|441:278,1,90,2|2,0:0|0:0,0:0:0:0:
408,356,13872,2,0,L|271:349,1,135,6|0,0:0|0:0,0:0:0:0:
231,348,14558,2,0,L|141:361,1,90,2|2,0:0|0:0,0:0:0:0:
60,333,15243,6,0,P|58:288|44:246,1,90,2|2,0:0|0:0,0:0:0:0:
15,164,15929,2,0,P|17:119|31:77,1,90,2|2,0:0|0:0,0:0:0:0:
108,39,16615,2,0,L|197:48,1,90,2|2,0:0|0:0,0:0:0:0:
263,102,17300,2,0,L|352:92,1,90,2|10,0:0|0:0,0:0:0:0:
425,46,17986,6,0,B|401:88|407:136|407:136|435:166,1,135,6|0,0:0|0:0,0:0:0:0:
475,180,18672,2,0,L|467:269,1,90,2|8,0:0|0:0,0:0:0:0:
406,330,19358,2,0,B|364:354|316:348|316:348|286:320,1,135,6|0,0:0|0:0,0:0:0:0:
260,284,20044,2,0,L|169:293,1,90,2|8,0:0|0:0,0:0:0:0:
97,337,20729,6,0,P|84:295|96:252,1,90,2|8,0:0|0:0,0:0:0:0:
151,185,21415,2,0,P|164:143|152:100,1,90,2|8,0:0|0:0,0:0:0:0:
99,32,22100,2,0,L|7:35,2,90,2|8|8,0:0|0:0|0:0,0:0:0:0:
183,20,23129,1,8,0:0:0:0:
235,87,23472,6,0,P|304:90|372:85,2,135,2|6|8,0:0|0:0|0:0,0:0:0:0:
151,99,24843,2,0,P|110:155|121:221,2,135,2|6|8,0:0|0:0|0:0,0:0:0:0:
235,87,26215,6,0,B|279:74|322:96|322:96|366:104|411:88,2,180,2|2|2,0:0|0:0|0:0,0:0:0:0:
151,99,27929,2,0,L|156:146,1,45,8|8,0:0|0:0,0:0:0:0:
256,223,28615,1,8,3:2:0:0:
327,269,28958,6,0,P|371:261|418:260,1,90,4|8,0:0|0:0,0:0:0:0:
443,178,29643,2,0,P|400:175|354:163,1,90,0|8,0:0|0:0,0:0:0:0:
272,139,30329,2,0,P|275:96|263:49,2,90,0|8|0,0:0|0:0|0:0,0:0:0:0:
256,223,31358,1,8,0:0:0:0:
233,305,31700,6,0,L|143:314,1,90,0|8,0:0|0:0,0:0:0:0:
88,247,32386,2,0,L|-2:238,1,90,0|8,0:0|0:0,0:0:0:0:
0,152,33072,2,0,B|-10:107|-11:65|-11:65|6:21,1,135
90,6,33929,2,0,B|134:14|134:14|180:8,1,90,2|2,0:3|0:3,0:0:0:0:
221,7,34443,6,0,P|204:47|202:93,1,90,4|8,0:0|0:0,0:0:0:0:
269,147,35129,2,0,P|285:187|287:233,1,90,0|8,0:0|0:0,0:0:0:0:
229,296,35814,2,0,L|140:290,2,90,0|8|0,0:0|0:0|0:0,0:0:0:0:
313,313,36843,1,8,0:0:0:0:
395,291,37186,6,0,P|439:283|486:282,1,90,0|8,0:0|0:0,0:0:0:0:
511,200,37872,2,0,P|468:197|422:185,1,90,0|8,0:0|0:0,0:0:0:0:
345,147,38558,2,0,B|300:137|258:136|258:136|214:153,1,135
188,234,39415,2,0,B|180:278|180:278|186:324,1,90,2|2,0:3|0:3,0:0:0:0:
197,362,39929,6,0,L|53:357,1,144,4|4,0:0|0:3,0:0:0:0:
7,287,40958,1,2,0:3:0:0:
13,204,41300,2,0,P|39:139|106:115,1,144,4|4,0:3|0:3,0:0:0:0:
186,98,42329,1,2,0:3:0:0:
250,149,42672,6,0,L|242:294,1,144,4|4,0:3|0:3,0:0:0:0:
232,375,43700,1,2,0:3:0:0:
308,344,44043,2,0,P|360:298|431:309,1,144,4|4,0:3|0:3,0:0:0:0:
499,353,45072,1,2,0:3:0:0:
503,270,45415,6,0,L|510:158,2,108,4|0|2,0:3|0:0|0:3,0:0:0:0:
508,352,46786,2,0,P|472:347|442:326,1,72,4|0,0:3|0:0,0:0:0:0:
424,246,47472,2,0,L|350:251,1,72,4|2,0:3|0:3,0:0:0:0:
280,292,48158,5,0,0:0:0:0:
280,209,48500,2,0,P|279:174|275:135,2,72,2|4|2,0:0|0:3|0:0,0:0:0:0:
280,292,49529,2,0,B|246:305|208:288|208:288|164:286|133:303|133:303|92:286|45:292,1,216
8,235,50900,5,8,0:0:0:0:
374,42,52272,6,0,B|416:22|468:37|488:81,2,135,4|0|8,0:0|0:0|0:0,0:0:0:0:
293,69,53643,2,0,P|224:68|155:69,2,135,4|0|8,0:3|0:0|0:0,0:0:0:0:
354,125,55015,6,0,B|386:131|411:119|411:119|419:202,2,135,4|0|8,0:0|0:0|0:0,0:0:0:0:
272,150,56386,2,0,P|250:189|246:234,1,90,4|8,0:3|0:0,0:0:0:0:
259,318,57072,2,0,L|167:308,1,90,4|8,0:3|0:0,0:0:0:0:
104,252,57758,6,0,L|12:262,1,90,4|8,0:0|0:0,0:0:0:0:
3,176,58443,2,0,L|92:166,1,90,4|8,0:0|0:0,0:0:0:0:
167,123,59129,2,0,P|170:80|182:35,1,90,4|8,0:3|0:0,0:0:0:0:
267,23,59815,2,0,P|278:66|282:111,1,90,4|8,0:3|0:0,0:0:0:0:
280,196,60500,6,0,L|370:191,2,90,4|8|0,0:0|0:0|0:0,0:0:0:0:
202,231,61529,1,8,0:0:0:0:
142,169,61872,2,0,L|52:174,2,90,4|8|0,0:0|0:0|0:0,0:0:0:0:
220,134,62900,1,8,0:0:0:0:
298,100,63243,6,0,P|365:102|403:155,2,135,4|0|8,0:0|0:0|0:0,0:0:0:0:
220,134,64614,2,0,P|220:203|225:273,2,135,4|0|8,0:3|0:0|0:0,0:0:0:0:
231,49,65986,6,0,L|94:43,2,135,4|0|8,0:0|0:0|0:0,0:0:0:0:
298,100,67357,2,0,L|389:95,1,90,4|8,0:3|0:0,0:0:0:0:
454,40,68043,2,0,P|472:80|469:128,1,90,4|8,0:3|0:0,0:0:0:0:
454,209,68729,6,0,L|460:301,1,90,4|8,0:0|0:0,0:0:0:0:
375,313,69415,2,0,L|369:223,1,90,4|8,0:0|0:0,0:0:0:0:
315,156,70100,2,0,P|272:146|226:155,1,90,4|8,0:3|0:0,0:0:0:0:
176,223,70786,2,0,P|132:231|88:221,1,90,4|8,0:3|0:0,0:0:0:0:
24,164,71472,6,0,L|18:75,2,90,4|8|4,0:0|0:0|0:3,0:0:0:0:
8,248,72500,1,8,0:0:0:0:
88,221,72843,2,0,L|177:215,2,90,4|8|8,0:0|0:0|0:0,0:0:0:0:
72,305,73872,2,0,L|161:299,1,90,8|4,0:0|0:0,0:0:0:0:
395,49,75586,5,8,3:2:0:0:
239,353,76958,6,0,B|191:369|148:364|148:364|108:348,1,135,6|2,1:2|0:0,0:0:0:0:
33,306,77815,2,0,P|26:262|29:217,1,90,2|2,0:0|0:0,0:0:0:0:
103,174,78500,2,0,P|110:130|107:85,1,90,2|2,0:0|0:0,0:0:0:0:
98,42,79015,2,0,L|188:45,1,90,2|2,0:0|0:0,0:0:0:0:
264,82,79700,6,0,B|312:100|355:97|355:97|396:82,1,135,2|2,1:2|0:0,0:0:0:0:
461,28,80558,2,0,P|481:67|476:112,1,90,2|2,0:0|0:0,0:0:0:0:
430,184,81243,2,0,P|410:223|415:268,1,90,2|2,0:0|0:0,0:0:0:0:
427,308,81758,2,0,L|337:298,1,90,2|2,0:0|0:0,0:0:0:0:
254,318,82443,6,0,B|207:297|170:303|170:303|146:328|117:338,1,135,2|2,1:2|0:0,0:0:0:0:
47,317,83300,2,0,P|38:273|43:227,1,90,2|2,0:0|0:0,0:0:0:0:
103,167,83986,2,0,P|111:123|106:77,1,90,2|2,0:0|0:0,0:0:0:0:
101,36,84500,2,0,L|192:28,1,90,2|2,0:0|0:0,0:0:0:0:
256,192,85186,12,12,87586,0:0:0:0:
