osu file format v14

[General]
AudioFilename: audio.mp3
AudioLeadIn: 0
PreviewTime: 51329
Countdown: 0
SampleSet: Soft
StackLeniency: 0.4
Mode: 0
LetterboxInBreaks: 0
WidescreenStoryboard: 0

[Editor]
Bookmarks: 12500,28958,39929,52272,63243,76958
DistanceSpacing: 1.2
BeatDivisor: 4
GridSize: 16
TimelineZoom: 1.5

[Metadata]
Title:Yuriyurarararayuruyuri Daijiken
TitleUnicode:ゆりゆららららゆるゆり大事件
Artist:Nanamori-chu*Gorakubu
ArtistUnicode:七森中☆ごらく部
Creator:Pata-Mon
Version:Hard
Source:ゆるゆり
Tags:IamKwaN ZZHBOY Karen Rizia kawaiwkyik Doormat kencho xxdeathx yuruyuri yuru yuri Nanamori chu Gorakubu Anime OP opening tv size akaza akari 赤座あかり mikami shiori 三上枝織 toshinou kyouko 歳納京子 ootsubo yuka 大坪由佳 funami yui 船見結衣 tsuda minami 津田美波 yoshikawa chinatsu 吉川ちなつ ookubo rumi 大久保瑠美
BeatmapID:1110566
BeatmapSetID:519161

[Difficulty]
HPDrainRate:5
CircleSize:3.8
OverallDifficulty:6
ApproachRate:7.4
SliderMultiplier:1.4
SliderTickRate:1

[Events]
//Background and Video events
Video,-50,"video.flv"
0,0,"BG.jpg",0,0
//Break Periods
//Storyboard Layer 0 (Background)
//Storyboard Layer 1 (Fail)
//Storyboard Layer 2 (Pass)
//Storyboard Layer 3 (Foreground)
//Storyboard Sound Samples

[TimingPoints]
158,342.857142857143,4,2,1,70,1,0
28958,-100,4,2,2,70,0,0
29986,-100,4,2,1,70,0,0
30158,-100,4,2,2,70,0,0
31358,-100,4,2,1,70,0,0
31529,-100,4,2,2,70,0,0
32729,-100,4,2,1,70,0,0
32900,-100,4,2,2,70,0,0
35472,-100,4,2,1,70,0,0
35643,-100,4,2,2,70,0,0
36843,-100,4,2,1,70,0,0
37015,-100,4,2,2,70,0,0
38215,-100,4,2,1,70,0,0
38386,-100,4,2,2,70,0,0
39929,-133.333333333333,4,2,2,60,0,0
48158,-100,4,2,1,70,0,0
49529,-133.333333333333,4,2,1,70,0,0
52272,-90.9090909090909,4,2,1,80,0,1
74215,-90.9090909090909,4,2,1,80,0,0
74300,-90.9090909090909,4,2,1,70,0,0
76958,-100,4,2,1,70,0,0
87072,-116,4,2,1,50,0,0

[Colours]
Combo1 : 119,143,227
Combo2 : 222,61,61
Combo3 : 75,233,87
Combo4 : 251,172,85

[HitObjects]
115,220,1529,6,0,P|142:155|152:86,1,140,6|2,0:0|0:0,0:0:0:0:
207,23,2043,2,0,P|241:15|276:14,1,70,2|0,0:0|0:0,0:0:0:0:
355,43,2386,2,0,P|389:41|424:34,1,70,2|0,0:0|0:0,0:0:0:0:
497,77,2729,6,0,L|493:146,1,70,2|0,0:0|0:0,0:0:0:0:
430,203,3072,2,0,L|434:272,1,70,2|0,0:0|0:0,0:0:0:0:
497,329,3415,1,2,0:0:0:0:
418,356,3586,2,0,L|348:348,1,70,2|2,0:0|0:0,0:0:0:0:
278,301,3929,2,0,L|208:293,1,70,2|2,0:0|0:0,0:0:0:0:
52,240,4272,6,0,P|73:305|135:334,1,140,6|2,0:0|0:0,0:0:0:0:
208,293,4786,2,0,L|220:224,1,70,2|0,0:0|0:0,0:0:0:0:
149,180,5129,2,0,L|136:248,1,70,2|0,0:0|0:0,0:0:0:0:
223,140,5472,6,0,L|235:71,1,70,2|0,0:0|0:0,0:0:0:0:
164,27,5815,2,0,L|151:95,1,70,2|0,0:0|0:0,0:0:0:0:
149,180,6158,1,2,0:0:0:0:
77,137,6329,2,0,P|42:130|7:128,2,70,2|2|2,0:0|0:0|0:0,0:0:0:0:
149,180,6843,1,2,0:0:0:0:
47,264,7015,5,6,0:0:0:0:
47,264,7358,1,2,0:0:0:0:
114,314,7529,2,0,L|183:317,1,70,2|0,0:0|0:0,0:0:0:0:
254,270,7872,2,0,L|323:267,1,70,2|0,0:0|0:0,0:0:0:0:
404,240,8215,6,0,P|407:274|397:307,1,70,2|0,0:0|0:0,0:0:0:0:
342,184,8558,2,0,P|339:150|349:117,1,70,2|0,0:0|0:0,0:0:0:0:
422,158,8900,1,2,0:0:0:0:
404,240,9072,2,0,P|376:260|342:268,1,70,2|2,0:0|0:0,0:0:0:0:
262,242,9415,1,2,0:0:0:0:
212,309,9586,1,2,0:0:0:0:
342,352,9758,6,0,P|409:337|466:296,1,140,6|8,0:0|0:0,0:0:0:0:
342,184,10443,1,2,0:0:0:0:
342,184,10615,1,2,0:0:0:0:
506,222,10958,6,0,P|507:152|480:88,1,140,8|8,0:0|0:0,0:0:0:0:
397,105,11472,2,0,L|327:98,1,70,8|8,0:0|0:0,0:0:0:0:
284,26,11815,2,0,L|249:29,3,35,8|8|8|8,0:0|0:0|0:0|0:0,0:0:0:0:
221,60,12158,2,0,L|151:53,1,70,8|8,0:3|0:3,0:0:0:0:
52,16,12500,6,0,P|68:84|51:151,1,140,6|2,0:0|0:0,0:0:0:0:
1,219,13015,1,0,0:0:0:0:
55,283,13186,2,0,P|89:290|123:294,1,70,2|2,0:0|0:0,0:0:0:0:
208,285,13529,1,0,0:0:0:0:
157,82,13872,6,0,P|141:150|158:217,1,140,6|2,0:0|0:0,0:0:0:0:
208,285,14386,1,0,0:0:0:0:
153,353,14558,2,0,P|119:360|85:364,2,70,2|2|0,0:0|0:0|0:0,0:0:0:0:
236,369,15072,1,2,0:0:0:0:
236,369,15158,1,2,0:0:0:0:
236,369,15243,6,0,P|270:371|304:361,2,70,2|0|2,0:0|0:0|0:0,0:0:0:0:
208,290,15758,1,2,0:0:0:0:
208,290,15844,1,2,0:0:0:0:
208,290,15929,2,0,P|190:259|165:235,2,70,2|0|2,0:0|0:0|0:0,0:0:0:0:
153,353,16443,1,0,0:0:0:0:
236,369,16615,6,0,P|270:371|304:361,1,70,2|2,0:0|0:0,0:0:0:0:
378,320,16958,1,2,0:0:0:0:
378,320,17300,2,0,L|447:330,1,70,2|0,0:0|0:0,0:0:0:0:
501,265,17643,2,0,L|497:230,3,35,8|8|8|0,0:0|0:0|0:3|0:0,0:0:0:0:
466,200,17986,6,0,P|483:133|454:70,1,140,6|2,0:0|0:0,0:0:0:0:
378,36,18500,1,0,0:0:0:0:
310,86,18672,2,0,L|240:83,1,70,2|2,0:0|0:0,0:0:0:0:
155,81,19015,1,8,0:0:0:0:
67,245,19358,6,0,P|50:178|79:115,1,140,6|2,0:0|0:0,0:0:0:0:
155,81,19872,1,0,0:0:0:0:
240,83,20043,2,0,L|310:86,2,70,2|2|8,0:0|0:0|0:0,0:0:0:0:
195,155,20558,1,2,0:0:0:0:
195,155,20643,1,2,0:0:0:0:
195,155,20729,6,0,L|265:158,2,70,2|0|8,0:0|0:0|0:0,0:0:0:0:
155,81,21243,1,2,0:0:0:0:
155,81,21328,1,2,0:0:0:0:
155,81,21415,2,0,L|85:84,2,70,2|0|8,0:0|0:0|0:0,0:0:0:0:
195,155,21929,1,0,0:0:0:0:
155,229,22100,6,0,L|85:226,1,70,2|2,0:0|0:0,0:0:0:0:
195,155,22443,2,0,P|236:209|223:276,1,140,10|10,0:0|0:0,0:0:0:0:
223,276,23129,2,0,L|256:286,3,35,8|8|8|8,0:0|0:0|0:0|0:0,0:0:0:0:
298,289,23472,6,0,P|288:322|285:357,2,70,2|0|2,0:0|0:0|0:0,0:0:0:0:
355,227,23986,2,0,L|347:157,1,70,2|2,0:0|0:0,0:0:0:0:
449,24,24500,1,8,0:0:0:0:
355,227,24843,6,0,L|363:297,1,70,2|0,0:0|0:0,0:0:0:0:
434,340,25186,1,2,0:0:0:0:
492,279,25358,2,0,L|484:209,1,70,2|2,0:0|0:0,0:0:0:0:
377,79,25872,2,0,L|385:149,1,70,8|0,0:0|0:0,0:0:0:0:
355,227,26215,6,0,P|320:230|287:242,1,70,2|0,0:0|0:0,0:0:0:0:
216,287,26558,1,2,0:0:0:0:
151,234,26729,1,2,0:0:0:0:
182,156,26900,2,0,P|186:111|172:58,1,70,2|0,0:0|0:0,0:0:0:0:
151,8,27243,1,2,0:0:0:0:
99,74,27415,1,2,0:0:0:0:
235,21,27586,5,2,0:0:0:0:
402,36,27929,5,8,0:0:0:0:
402,36,28100,1,8,0:0:0:0:
260,128,28444,5,2,0:0:0:0:
260,128,28615,1,8,0:0:0:0:
79,117,28958,6,0,P|87:186|117:249,1,140,2|8,0:0|0:0,0:0:0:0:
187,296,29472,1,0,0:0:0:0:
135,362,29643,2,0,P|100:362|66:352,2,70,2|8|8,0:0|0:0|0:0,0:0:0:0:
187,296,30158,1,8,0:0:0:0:
269,279,30329,6,0,P|303:280|338:285,1,70,2|0,0:0|0:0,0:0:0:0:
418,313,30672,2,0,L|413:382,2,70,8|0|2,0:0|0:0|0:0,0:0:0:0:
480,256,31186,2,0,L|475:187,1,70,8|8,0:0|0:0,0:0:0:0:
470,102,31529,1,8,0:0:0:0:
400,148,31700,6,0,P|331:154|268:126,1,140,2|8,0:0|0:0,0:0:0:0:
208,66,32215,1,0,0:0:0:0:
137,110,32386,2,0,L|140:179,1,70,2|8,0:0|0:0,0:0:0:0:
210,226,32729,2,0,L|207:295,1,70,8|8,0:0|0:0,0:0:0:0:
135,340,33072,6,0,P|204:334|272:348,1,140,2|8,0:0|0:0,0:0:0:0:
350,382,33586,2,0,L|419:374,1,70,0|2,0:0|0:0,0:0:0:0:
510,258,33929,1,8,0:0:0:0:
432,290,34100,1,8,0:0:0:0:
498,342,34272,1,8,0:0:0:0:
432,290,34443,6,0,P|363:277|293:275,1,140,2|8,0:0|0:0,0:0:0:0:
209,287,34958,1,0,0:0:0:0:
126,303,35129,2,0,L|56:298,2,70,2|8|8,0:0|0:0|0:0,0:0:0:0:
209,287,35643,1,8,0:0:0:0:
267,226,35815,6,0,L|337:221,1,70,2|0,0:0|0:0,0:0:0:0:
387,288,36158,2,0,L|457:293,1,70,8|0,0:0|0:0,0:0:0:0:
508,227,36500,1,2,0:0:0:0:
475,149,36672,2,0,P|478:114|489:81,2,70,8|8|8,0:0|0:0|0:0,0:0:0:0:
396,178,37186,6,0,P|327:179|261:156,1,140,2|8,0:0|0:0,0:0:0:0:
186,117,37700,1,0,0:0:0:0:
110,153,37872,2,0,L|102:222,1,70,2|8,0:0|0:0,0:0:0:0:
146,294,38215,1,8,0:0:0:0:
79,345,38386,1,8,0:0:0:0:
146,294,38558,6,0,P|215:290|283:305,1,140,2|8,0:0|0:0,0:0:0:0:
349,359,39072,2,0,L|418:351,1,70,0|2,0:0|0:0,0:0:0:0:
509,235,39415,1,8,0:0:0:0:
431,267,39586,1,8,0:0:0:0:
497,319,39758,1,8,0:0:0:0:
431,267,39929,6,0,P|379:255|327:252,1,105.000004005432,2|0,0:0|0:0,0:0:0:0:
246,274,40443,1,2,0:0:0:0:
177,225,40615,2,0,P|166:175|177:124,1,105.000004005432,2|8,0:0|0:0,0:0:0:0:
52,11,41300,6,0,P|63:61|52:112,1,105.000004005432,2|0,0:0|0:0,0:0:0:0:
0,180,41815,1,2,0:0:0:0:
34,256,41986,1,2,0:0:0:0:
196,298,42329,1,8,0:0:0:0:
46,374,42672,6,0,L|151:369,1,105.000004005432,2|0,0:0|0:0,0:0:0:0:
196,298,43186,1,2,0:0:0:0:
241,227,43358,2,0,L|346:232,1,105.000004005432,2|8,0:0|0:0,0:0:0:0:
448,365,44043,6,0,L|500:362,2,52.5000020027161,2|0|0,0:0|0:0|0:0,0:0:0:0:
368,337,44558,1,2,0:0:0:0:
288,365,44729,2,0,L|236:362,1,52.5000020027161,2|0,0:0|0:0,0:0:0:0:
151,361,45072,2,0,L|99:364,1,52.5000020027161,8|0,0:0|0:0,0:0:0:0:
35,309,45415,6,0,P|49:259|50:207,1,105.000004005432,2|0,0:0|0:0,0:0:0:0:
36,123,45929,1,2,0:0:0:0:
92,61,46100,2,0,L|144:57,2,52.5000020027161,2|0|8,0:0|0:0|0:0,0:0:0:0:
210,181,46786,6,0,L|262:185,2,52.5000020027161,2|0|0,0:0|0:0|0:0,0:0:0:0:
131,211,47300,1,2,0:0:0:0:
174,283,47472,2,0,L|226:279,1,52.5000020027161,2|0,0:0|0:0,0:0:0:0:
308,261,47815,2,0,L|305:313,1,52.5000020027161,8|0,0:0|0:0,0:0:0:0:
369,367,48158,6,0,P|403:370|436:360,1,70,2|2,0:0|0:0,0:0:0:0:
396,287,48500,2,0,L|391:217,1,70,2|2,0:0|0:0,0:0:0:0:
312,188,48843,2,0,L|317:118,1,70,2|2,0:0|0:0,0:0:0:0:
238,89,49186,2,0,L|233:19,1,70,2|2,0:0|0:0,0:0:0:0:
157,113,49529,6,0,B|183:189|283:195|317:118|317:118|351:166|329:253|303:295|303:295|286:276,1,420.000016021729,2|12,0:0|0:0,0:0:0:0:
287,277,52272,6,0,P|256:208|287:140,1,154.000004699707,6|8,0:0|0:0,0:0:0:0:
368,98,52786,2,0,L|445:102,1,77.0000023498536,0|2,0:0|0:0,0:0:0:0:
510,168,53129,1,0,0:0:0:0:
426,205,53300,2,0,L|349:209,1,77.0000023498536,8|0,0:0|0:0,0:0:0:0:
286,141,53643,6,0,P|210:133|141:166,1,154.000004699707,2|8,0:0|0:0,0:0:0:0:
77,233,54158,2,0,L|0:227,2,77.0000023498536,0|2|0,0:0|0:0|0:0,0:0:0:0:
167,255,54672,1,8,0:0:0:0:
172,347,54843,1,0,0:0:0:0:
258,382,55015,6,0,P|331:365|381:308,1,154.000004699707,2|8,0:0|0:0,0:0:0:0:
381,214,55529,2,0,L|457:219,1,77.0000023498536,0|2,0:0|0:0,0:0:0:0:
512,144,55872,1,0,0:0:0:0:
427,108,56043,2,0,L|351:113,1,77.0000023498536,8|0,0:0|0:0,0:0:0:0:
293,186,56386,6,0,P|217:193|152:154,2,154.000004699707,2|8|2,0:0|0:0|0:0,0:0:0:0:
412,26,57415,1,8,0:0:0:0:
368,107,57586,1,8,0:0:0:0:
368,107,57672,1,8,0:0:0:0:
368,107,57758,6,0,L|378:260,1,154.000004699707,2|8,0:0|0:0,0:0:0:0:
197,221,58443,2,0,L|187:68,1,154.000004699707,2|8,0:0|0:0,0:0:0:0:
368,107,59129,6,0,L|378:260,1,154.000004699707,2|8,0:0|0:0,0:0:0:0:
339,345,59643,1,0,0:0:0:0:
431,337,59815,2,0,P|467:350|505:353,2,77.0000023498536,2|0|8,0:0|0:0|0:0,0:0:0:0:
378,261,60329,1,8,0:0:0:0:
378,261,60415,1,8,0:0:0:0:
378,261,60500,6,0,L|301:266,2,77.0000023498536,2|0|8,0:0|0:0|0:0,0:0:0:0:
353,171,61015,2,0,L|276:166,1,77.0000023498536,0|2,0:0|0:0,0:0:0:0:
214,235,61358,1,8,0:0:0:0:
301,266,61529,2,0,L|294:342,1,77.0000023498536,8|8,0:2|0:3,0:0:0:0:
214,235,61872,6,0,L|207:159,2,77.0000023498536,2|0|8,0:0|0:0|0:0,0:0:0:0:
158,309,62386,1,0,0:0:0:0:
81,257,62558,2,0,L|84:219,3,38.5000011749268,8|8|8|8,0:0|0:0|0:0|0:0,0:0:0:0:
117,187,62900,2,0,L|114:149,3,38.5000011749268,8|8|8|8,0:0|0:0|0:0|0:0,0:0:0:0:
84,113,63243,6,0,P|160:103|228:67,1,154.000004699707,6|8,0:0|0:0,0:0:0:0:
294,2,63758,2,0,L|370:7,1,77.0000023498536,0|2,0:0|0:0,0:0:0:0:
461,21,64100,1,0,0:0:0:0:
420,104,64272,1,8,0:0:0:0:
464,185,64443,1,0,0:0:0:0:
423,268,64615,6,0,P|346:271|270:260,1,154.000004699707,2|8,0:0|0:0,0:0:0:0:
205,194,65129,2,0,P|183:225|177:263,1,77.0000023498536,0|2,0:0|0:0,0:0:0:0:
226,342,65472,1,0,0:0:0:0:
134,345,65643,2,0,L|57:352,1,77.0000023498536,8|0,0:0|0:0,0:0:0:0:
0,279,65986,6,0,P|2:202|1:125,1,154.000004699707,2|8,0:0|0:0,0:0:0:0:
36,39,66500,2,0,P|72:27|111:25,1,77.0000023498536,0|2,0:0|0:0,0:0:0:0:
181,86,66843,1,0,0:0:0:0:
272,102,67015,2,0,P|310:100|346:87,1,77.0000023498536,8|0,0:0|0:0,0:0:0:0:
419,29,67358,6,0,B|460:84|417:122|455:175,2,154.000004699707,2|8|2,0:0|0:0|0:0,0:0:0:0:
181,86,68386,1,8,0:0:0:0:
264,126,68558,1,8,0:0:0:0:
264,126,68643,1,8,0:0:0:0:
264,126,68729,6,0,P|272:200|226:260,1,154.000004699707,2|8,0:0|0:0,0:0:0:0:
46,212,69415,2,0,P|38:138|84:78,1,154.000004699707,2|8,0:0|0:0,0:0:0:0:
130,257,70100,6,0,L|125:333,1,77.0000023498536,2|0,0:0|0:0,0:0:0:0:
220,368,70443,2,0,L|215:292,1,77.0000023498536,8|0,0:0|0:0,0:0:0:0:
280,225,70786,2,0,L|356:230,2,77.0000023498536,2|0|8,0:0|0:0|0:0,0:0:0:0:
214,159,71300,1,8,0:0:0:0:
214,159,71386,1,8,0:0:0:0:
214,159,71472,6,0,L|219:83,2,77.0000023498536,2|0|8,0:0|0:0|0:0,0:0:0:0:
135,208,71986,2,0,P|97:200|65:179,1,77.0000023498536,0|2,0:0|0:0,0:0:0:0:
133,115,72329,1,8,0:0:0:0:
214,159,72500,2,0,P|226:195|224:233,1,77.0000023498536,8|8,0:3|0:3,0:0:0:0:
157,298,72843,6,0,P|118:299|83:285,1,77.0000023498536,2|0,0:0|0:0,0:0:0:0:
42,202,73186,1,8,0:0:0:0:
94,125,73358,1,0,0:0:0:0:
186,131,73529,2,0,L|189:169,3,38.5000011749268,8|8|8|8,0:0|0:0|0:0|0:0,0:0:0:0:
156,202,73872,2,0,L|153:240,3,38.5000011749268,8|8|8|8,0:0|0:0|0:0|0:0,0:0:0:0:
186,273,74215,5,6,0:0:0:0:
256,192,74300,12,12,75586,0:0:0:0:
249,312,76958,6,0,P|300:267|302:199,1,140,6|2,0:0|0:0,0:0:0:0:
241,141,77472,2,0,L|172:145,1,70,2|0,0:0|0:0,0:0:0:0:
155,228,77815,2,0,L|224:232,1,70,2|0,0:0|0:0,0:0:0:0:
92,174,78158,6,0,L|23:178,1,70,2|0,0:0|0:0,0:0:0:0:
6,261,78501,2,0,L|75:265,1,70,2|0,0:0|0:0,0:0:0:0:
147,311,78844,1,2,0:0:0:0:
217,265,79015,2,0,L|286:261,1,70,2|2,0:0|0:0,0:0:0:0:
346,320,79358,2,0,L|415:316,1,70,2|2,0:0|0:0,0:0:0:0:
494,222,79701,6,0,P|496:152|488:82,1,140,6|2,0:0|0:0,0:0:0:0:
428,22,80215,2,0,L|359:26,1,70,2|0,0:0|0:0,0:0:0:0:
293,80,80558,2,0,L|224:76,1,70,2|0,0:0|0:0,0:0:0:0:
163,135,80901,6,0,P|174:169|177:204,1,70,2|0,0:0|0:0,0:0:0:0:
102,241,81243,2,0,P|91:275|88:310,1,70,2|0,0:0|0:0,0:0:0:0:
140,375,81586,1,2,0:0:0:0:
217,341,81758,2,0,P|251:341|286:348,2,70,2|2|2,0:0|0:0|0:0,0:0:0:0:
140,375,82272,1,2,0:0:0:0:
195,260,82443,5,6,0:0:0:0:
195,260,82787,1,2,0:0:0:0:
267,218,82958,2,0,P|301:211|336:210,1,70,2|0,0:0|0:0,0:0:0:0:
406,255,83300,2,0,P|440:255|475:248,1,70,2|0,0:0|0:0,0:0:0:0:
511,171,83643,6,0,L|505:101,1,70,2|0,0:0|0:0,0:0:0:0:
424,76,83986,2,0,L|418:146,1,70,2|0,0:0|0:0,0:0:0:0:
348,193,84329,1,2,0:0:0:0:
283,139,84500,2,0,P|249:128|215:132,1,70,2|2,0:0|0:0,0:0:0:0:
148,182,84843,1,2,0:0:0:0:
79,133,85015,1,2,0:0:0:0:
190,52,85186,6,0,P|259:45|325:66,1,140,6|8,0:0|0:0,0:0:0:0:
242,212,85872,1,2,0:0:0:0:
242,212,86043,1,2,0:0:0:0:
386,125,86386,5,12,0:0:0:0:
314,169,86558,1,8,0:0:0:0:
332,251,86729,1,8,0:0:0:0:
416,257,86900,1,8,0:0:0:0:
451,180,87072,2,0,P|386:125|314:169,1,181.034482758621,12|12,0:0|0:0,0:0:0:0:
