osu file format v14

[General]
AudioFilename: audio.mp3
AudioLeadIn: 0
PreviewTime: 51243
Countdown: 0
SampleSet: Soft
StackLeniency: 0.7
Mode: 2
LetterboxInBreaks: 0
WidescreenStoryboard: 0

[Editor]
DistanceSpacing: 0.4
BeatDivisor: 4
GridSize: 4
TimelineZoom: 1.7

[Metadata]
Title:Yuriyurarararayuruyuri Daijiken
TitleUnicode:ゆりゆららららゆるゆり大事件
Artist:Nanamori-chu*Gorakubu
ArtistUnicode:七森中☆ごらく部
Creator:Hytex
Version:Yuri
Source:ゆるゆり
Tags:yuruyuri yuru yuri Nanamori chu Gorakubu Anime OP opening tv size akaza akari 赤座あかり mikami shiori 三上枝織 toshinou kyouko 歳納京子 ootsubo yuka 大坪由佳 funami yui 船見結衣 tsuda minami 津田美波 yoshikawa chinatsu 吉川ちなつ ookubo rumi 大久保瑠美
BeatmapID:1690772
BeatmapSetID:805474

[Difficulty]
HPDrainRate:7
CircleSize:4.5
OverallDifficulty:8
ApproachRate:9
SliderMultiplier:1.8
SliderTickRate:1

[Events]
//Background and Video events
0,0,"BG.jpg",0,0
//Break Periods
//Storyboard Layer 0 (Background)
//Storyboard Layer 1 (Fail)
//Storyboard Layer 2 (Pass)
//Storyboard Layer 3 (Foreground)
//Storyboard Sound Samples

[TimingPoints]
158,342.857142857143,4,2,0,100,1,0
52272,-100,4,2,0,100,0,1
74215,-100,4,2,0,100,0,0

[Colours]
Combo1 : 255,128,255
Combo2 : 64,0,128
Combo3 : 255,255,0
Combo4 : 255,128,128

[HitObjects]
244,272,1529,6,0,L|424:268,1,180
256,256,2043,2,0,L|236:152,1,90
92,164,2386,2,0,L|108:64,1,90
248,88,2729,6,0,L|120:80,1,90
300,196,3072,2,0,L|416:184,1,90
328,120,3415,1,0,0:0:0:0:
172,192,3586,2,0,L|68:192,3,90
324,296,4272,6,0,P|380:276|300:232,1,180
176,220,4786,2,0,L|76:224,1,90
200,136,5129,2,0,L|300:140,1,90
96,192,5473,6,0,L|88:88,1,90
264,116,5815,2,0,L|272:24,1,90
132,48,6158,1,0,0:0:0:0:
280,128,6329,2,0,L|396:120,3,90
88,260,7015,6,0,L|288:268,1,180
104,188,7529,2,0,L|88:72,1,90
232,104,7872,2,0,L|112:104,1,90
276,204,8215,6,0,L|284:92,1,90
136,236,8558,2,0,L|252:232,1,90
136,160,8900,1,0,0:0:0:0:
296,264,9072,2,0,L|400:260,3,90
76,264,9758,6,0,P|24:248|92:184,1,180
348,192,10443,5,0,0:0:0:0:
108,192,10615,1,0,0:0:0:0:
376,192,10958,5,0,0:0:0:0:
180,276,11300,6,0,L|72:272,2,90
264,236,11815,2,0,L|328:236,1,45
264,236,11986,2,0,L|200:236,1,45
384,240,12158,2,0,L|400:132,1,90
160,168,12500,6,0,P|104:128|184:80,1,180
312,176,13015,2,0,L|332:80,1,90
184,232,13358,2,0,L|76:224,2,90
440,324,13872,6,0,L|256:320,1,180
376,248,14386,2,0,L|272:244,2,90
244,168,14901,1,0,0:0:0:0:
96,272,15072,2,0,L|32:268,1,45
196,272,15243,6,0,L|300:276,2,90
400,212,15758,2,0,L|444:217,1,45
288,188,15929,2,0,L|168:184,1,90
368,188,16272,2,0,L|388:84,1,90
168,184,16615,6,0,L|60:176,1,90
252,272,16958,2,0,L|372:264,1,90
176,312,17300,2,0,L|160:208,1,90
288,104,17643,2,0,L|344:100,2,45
56,176,17986,6,0,P|8:144|80:68,1,180
272,176,18500,2,0,L|280:44,1,90
108,264,18843,2,0,L|-16:268,2,90
344,328,19358,6,0,P|400:272|324:220,1,180
200,212,19872,2,0,L|96:208,1,90
296,132,20215,2,0,L|396:124,2,90
60,316,20729,6,0,L|239:323,1,180
80,232,21243,2,0,L|16:232,1,45
208,236,21415,2,0,L|200:128,1,90
336,136,21758,2,0,L|444:140,1,90
116,176,22100,6,0,L|-12:168,1,90
240,292,22443,2,0,L|220:176,1,90
96,300,22786,1,0,0:0:0:0:
356,312,23129,1,0,0:0:0:0:
384,276,23215,1,0,0:0:0:0:
396,224,23300,1,0,0:0:0:0:
368,180,23386,1,0,0:0:0:0:
200,160,23472,6,0,L|80:156,2,90
396,224,23986,2,0,P|448:184|384:112,1,180
256,236,24500,2,0,L|244:124,1,90
112,240,24843,6,0,L|8:232,2,90
332,312,25358,2,0,L|128:320,1,180
352,228,25872,2,0,L|244:232,1,90
24,248,26215,6,0,L|12:128,1,90
252,100,26558,1,0,0:0:0:0:
384,96,26729,1,0,0:0:0:0:
152,260,26900,2,0,L|28:252,1,90
308,208,27243,2,0,L|432:200,1,90
108,140,27586,5,0,0:0:0:0:
92,136,27929,1,0,0:0:0:0:
252,144,28100,1,0,0:0:0:0:
264,148,28443,1,0,0:0:0:0:
108,156,28615,1,0,0:0:0:0:
360,212,28958,6,0,L|372:100,1,90
304,92,29215,1,0,0:0:0:0:
128,172,29300,2,0,L|24:164,2,90
296,312,29815,2,0,P|344:288|288:204,1,180
136,316,30329,6,0,L|12:316,2,90
292,203,30843,2,0,L|100:199,1,180
300,123,31358,2,0,L|188:119,1,90
392,280,31700,6,0,L|492:272,2,90
492,200,32215,1,0,0:0:0:0:
312,280,32386,2,0,L|296:180,1,90
144,164,32729,2,0,L|152:64,1,90
368,60,33072,6,0,P|428:104|348:148,1,180
200,240,33586,2,0,L|396:232,1,180
176,160,34100,2,0,L|280:156,1,90
164,336,34443,6,0,L|40:320,1,90
124,272,34701,1,0,0:0:0:0:
320,340,34786,2,0,L|336:232,1,90
196,200,35129,1,0,0:0:0:0:
392,188,35300,2,0,P|452:156|384:84,1,180
212,80,35815,6,0,L|100:72,2,90
344,224,36329,2,0,L|128:232,1,180
352,308,36843,2,0,L|252:316,1,90
120,236,37186,6,0,L|128:136,1,90
296,144,37529,2,0,L|288:44,1,90
116,128,37872,2,0,L|24:120,1,90
232,232,38215,2,0,L|356:224,1,90
92,344,38558,6,0,P|40:312|104:240,1,180
248,196,39072,2,0,L|52:176,1,180
256,120,39586,2,0,L|156:108,1,90
376,256,39929,6,0,P|432:236|368:152,1,180
288,248,40443,2,0,P|232:228|296:144,1,180
144,136,40958,2,0,L|28:128,1,90
288,248,41300,6,0,L|388:240,2,90
148,312,41815,2,0,P|96:264|164:192,1,180
272,172,42329,2,0,L|376:176,1,90
220,320,42672,6,0,L|32:316,1,180
220,244,43186,2,0,L|120:240,2,90
388,252,43700,2,0,L|404:132,1,90
224,144,44043,6,0,L|120:144,2,90
404,160,44558,2,0,P|460:108|392:48,1,180
276,156,45072,2,0,L|264:52,1,90
24,260,45415,6,0,L|240:244,1,180
32,184,45929,2,0,L|128:176,1,90
304,176,46272,2,0,L|308:48,1,90
432,88,46615,1,0,0:0:0:0:
200,80,46786,6,0,L|80:80,2,90
400,228,47300,2,0,L|200:224,1,180
152,224,47729,1,0,0:0:0:0:
384,144,47815,2,0,L|388:48,1,90
192,160,48158,6,0,L|88:156,1,90
144,100,48415,1,0,0:0:0:0:
372,224,48500,2,0,L|388:104,1,90
136,96,48843,1,0,0:0:0:0:
24,88,49015,1,0,0:0:0:0:
268,232,49186,2,0,L|380:224,1,90
104,328,49529,6,0,L|12:320,2,90
352,340,50043,1,0,0:0:0:0:
256,192,50215,12,0,50900,0:0:0:0:
252,296,51415,6,0,L|448:288,1,180
256,208,51929,2,0,L|345:211,1,90
96,264,52272,6,0,P|60:252|116:164,1,180
276,144,52786,2,0,L|180:136,2,90
464,160,53300,2,0,L|476:56,1,90
208,252,53643,6,0,L|24:244,1,180
240,176,54158,2,0,L|128:168,2,90
400,132,54672,2,0,L|288:120,1,90
76,264,55015,6,0,P|28:244|88:160,1,180
284,164,55529,2,0,L|388:160,2,90
88,280,56043,2,0,L|72:152,1,90
380,100,56386,6,0,L|172:88,1,180
80,88,56900,1,0,0:0:0:0:
340,184,57072,2,0,L|220:188,2,90
136,272,57585,2,0,L|60:264,1,45
346,288,57758,6,0,P|402:244|338:184,1,180
503,222,58272,1,0,0:0:0:0:
205,120,58443,2,0,L|425:108,1,180
168,43,58958,1,0,0:0:0:0:
432,328,59129,6,0,P|392:316|248:312,2,180
164,316,59986,1,0,0:0:0:0:
296,236,60158,2,0,L|308:116,1,90
320,79,60415,1,0,0:0:0:0:
124,168,60500,6,0,L|16:160,2,90
344,192,61015,2,0,P|388:148|316:80,1,180
148,176,61529,2,0,L|272:164,1,90
412,276,61872,2,0,L|424:172,1,90
208,136,62215,2,0,L|196:32,1,90
356,276,62558,6,0,L|401:276,1,45
356,276,62729,2,0,L|311:276,1,45
140,240,62900,2,0,L|68:228,1,45
340,200,63072,2,0,L|392:176,1,45
132,160,63243,6,0,P|80:132|144:52,1,180
328,84,63758,2,0,L|456:72,2,90
136,164,64272,2,0,L|128:60,1,90
408,276,64615,6,0,L|188:264,1,180
420,196,65129,2,0,L|316:192,2,90
216,108,65643,2,0,L|324:104,1,90
56,256,65986,6,0,P|8:216|72:144,1,180
240,224,66500,2,0,L|116:228,2,90
352,136,67015,2,0,L|228:136,1,90
492,292,67358,6,0,L|284:288,1,180
456,216,67872,1,0,0:0:0:0:
232,280,68043,2,0,L|216:184,1,90
408,132,68386,2,0,L|528:132,1,90
456,72,68643,1,0,0:0:0:0:
220,192,68729,6,0,P|148:160|212:92,1,180
20,168,69243,1,0,0:0:0:0:
348,268,69415,2,0,L|148:264,1,180
280,344,69929,1,0,0:0:0:0:
48,96,70100,6,0,L|227:103,2,180
292,60,70958,1,0,0:0:0:0:
120,192,71129,2,0,L|112:92,1,90
72,44,71386,1,0,0:0:0:0:
304,208,71472,6,0,L|408:204,2,90
128,288,71986,2,0,P|72:260|136:192,1,180
300,296,72500,2,0,L|312:200,1,90
132,296,72843,6,0,L|16:300,2,90
304,296,73358,1,0,0:0:0:0:
164,208,73529,2,0,L|88:200,3,45
328,192,73872,2,0,L|400:176,1,45
188,136,74043,2,0,L|120:124,1,45
392,104,74215,5,0,0:0:0:0:
44,172,75586,5,0,0:0:0:0:
308,324,76272,6,0,P|408:280|312:164,1,270
48,272,76958,6,0,L|248:264,1,180
48,196,77472,2,0,L|156:188,1,90
336,160,77815,2,0,L|228:152,1,90
100,184,78158,6,0,L|84:88,1,90
304,104,78500,2,0,L|320:8,1,90
136,40,78843,1,0,0:0:0:0:
304,188,79015,2,0,L|412:180,3,90
100,288,79700,6,0,P|32:240|116:180,1,180
288,280,80215,2,0,L|308:184,1,90
104,164,80558,2,0,L|92:64,1,90
292,168,80900,6,0,L|384:152,1,90
184,228,81243,2,0,L|68:220,1,90
212,136,81586,1,0,0:0:0:0:
340,256,81758,2,0,L|440:252,3,90
112,96,82443,6,0,L|328:88,1,180
88,180,82958,2,0,L|212:172,1,90
36,292,83300,2,0,L|20:168,1,90
200,324,83643,6,0,L|88:336,1,90
248,196,83986,2,0,L|272:304,1,90
64,136,84329,1,0,0:0:0:0:
256,124,84500,2,0,L|368:116,3,90
84,208,85186,6,0,P|36:184|92:104,1,180
360,232,85872,5,0,0:0:0:0:
124,244,86043,1,0,0:0:0:0:
380,208,86386,5,0,0:0:0:0:
148,200,86558,2,0,L|24:192,2,90
380,208,87072,2,0,P|424:180|360:84,1,180
72,276,87586,5,0,0:0:0:0:
