osu file format v14

[General]
AudioFilename: audio.mp3
AudioLeadIn: 0
PreviewTime: 52657
Countdown: 0
SampleSet: Soft
StackLeniency: 0.4
Mode: 0
LetterboxInBreaks: 0
WidescreenStoryboard: 0

[Editor]
DistanceSpacing: 1
BeatDivisor: 4
GridSize: 4
TimelineZoom: 1.7

[Metadata]
Title:Chochocho! Yuru Yuri*Capriccio!!!
TitleUnicode:ちょちょちょ!ゆるゆり☆かぷりっちょ!!!
Artist:Nanamori-chu*Gorakubu
ArtistUnicode:七森中☆ごらく部
Creator:pkhg
Version:Yiyo's Easy
Source:ゆるゆり さん☆ハイ!
Tags:irohas mugiwarasekai hazu- iyiyo lasse yuru yuri san hai yryr season 3 opening tv size akaza akari mikami shiori toshinou kyouko ootsubo yuka funami yui tsuda minami yoshikawa chinatsu ookubo rumi Nanamori chu Gorakubu
BeatmapID:1170957
BeatmapSetID:533707

[Difficulty]
HPDrainRate:3
CircleSize:3.5
OverallDifficulty:3
ApproachRate:4
SliderMultiplier:0.9
SliderTickRate:1

[Events]
//Background and Video events
Video,60,"sanhai.avi"
0,0,"yeeeeeeeeeeeeeeeeeeee.jpg",0,0
//Break Periods
//Storyboard Layer 0 (Background)
//Storyboard Layer 1 (Fail)
//Storyboard Layer 2 (Pass)
//Storyboard Layer 3 (Foreground)
//Storyboard Sound Samples

[TimingPoints]
1186,315.789473684211,4,2,1,5,1,0
2449,-100,4,2,1,55,0,0
12396,-100,4,2,1,55,0,0
22659,-100,4,2,1,45,0,0
32764,-100,4,2,1,55,0,0
42870,-100,4,2,1,45,0,0
49817,-100,4,2,1,45,0,0
51079,-100,4,2,1,55,0,0
51395,-100,4,2,1,65,0,0
52975,-100,4,2,1,75,0,1
73028,-100,4,2,1,65,0,0
83291,-100,4,2,1,65,0,0

[Colours]
Combo1 : 255,164,209
Combo2 : 244,64,91
Combo3 : 251,248,102
Combo4 : 100,61,60

[HitObjects]
480,245,2449,6,0,P|434:172|349:183,1,180,10|10,0:1|0:1,0:0:0:0:
232,320,3712,2,0,P|147:330|101:258,1,180,10|8,0:1|0:0,0:0:0:0:
124,80,4975,6,0,B|180:64|180:64|240:84|240:84|308:60,1,180,10|10,0:1|0:1,0:0:0:0:
428,188,6238,2,0,B|346:224|346:224|256:196,1,180,4|4,0:1|0:1,0:0:0:0:
96,272,7501,6,0,P|141:344|226:333,1,180,10|10,0:1|0:1,0:0:0:0:
220,152,8764,2,0,P|174:79|89:90,1,180,10|8,0:1|0:0,0:0:0:0:
96,272,10028,6,0,B|180:232|184:300|270:256,1,180,10|10,0:1|0:1,0:0:0:0:
388,120,11291,2,0,B|332:104|332:104|272:124|272:124|204:100,1,180,4|4,0:1|0:1,0:0:0:0:
84,88,12396,6,0,L|94:224,1,135,4|8,0:0|0:1,0:0:0:0:
152,292,13186,2,0,P|192:276|233:293,1,90,8|8,0:0|0:1,0:0:0:0:
312,336,13817,1,8,0:0:0:0:
392,292,14133,1,8,0:1:0:0:
476,328,14449,2,0,P|480:280|476:224,1,90,0|8,0:0|0:1,0:0:0:0:
472,192,14922,6,0,P|429:143|367:159,1,135,12|8,0:0|0:1,0:0:0:0:
284,192,15712,2,0,P|238:194|184:176,1,90,8|8,0:0|0:1,0:0:0:0:
112,156,16343,2,0,L|120:304,1,135,8|8,0:0|0:0,0:0:0:0:
36,324,17133,1,8,0:1:0:0:
20,236,17449,6,0,L|16:88,1,135,12|8,0:0|0:1,0:0:0:0:
88,44,18238,2,0,P|131:33|176:40,1,90,8|8,0:0|0:1,0:0:0:0:
256,80,18869,1,8,0:0:0:0:
336,36,19185,1,8,0:1:0:0:
416,76,19501,2,0,P|418:120|414:165,1,90,0|8,0:0|0:1,0:0:0:0:
400,208,19975,6,0,P|347:244|290:213,1,135,12|8,0:0|0:1,0:0:0:0:
208,172,20764,2,0,L|116:192,1,90,8|8,0:0|0:1,0:0:0:0:
120,281,21396,2,0,L|251:311,1,135,14|10,0:1|0:1,0:0:0:0:
340,292,22185,1,10,0:1:0:0:
375,160,22659,6,0,P|332:167|288:158,1,90,12|8,0:0|0:1,0:0:0:0:
200,119,23291,2,0,P|199:75|180:34,1,90,8|8,0:0|0:1,0:0:0:0:
90,34,23922,2,0,P|71:74|70:119,1,90,8|8,0:0|0:1,0:0:0:0:
52,208,24554,2,0,L|139:187,1,90,0|8,0:0|0:1,0:0:0:0:
228,172,25186,6,0,P|240:259|190:331,2,180,8|8|8,0:0|0:0|0:0,0:0:0:0:
212,84,26764,1,8,0:1:0:0:
296,51,27080,2,0,P|339:46|379:66,1,90,0|8,0:0|0:1,0:0:0:0:
427,135,27712,6,0,P|441:178|441:223,1,90,4|8,0:0|0:1,0:0:0:0:
348,240,28343,2,0,L|338:330,1,90,8|8,0:0|0:1,0:0:0:0:
247,329,28975,2,0,L|237:239,1,90,8|8,0:0|0:1,0:0:0:0:
223,152,29607,2,0,P|182:167|137:163,1,90,0|8,0:0|0:1,0:0:0:0:
63,104,30238,6,0,P|133:50|218:67,2,180,8|8|8,0:3|0:3|0:3,0:0:0:0:
40,192,31817,1,10,0:1:0:0:
88,268,32133,1,10,0:1:0:0:
44,344,32449,1,8,0:1:0:0:
132,344,32764,6,0,P|176:336|222:344,1,90,12|8,0:0|0:1,0:0:0:0:
308,356,33396,2,0,P|352:363|396:355,1,90,8|8,0:0|0:1,0:0:0:0:
464,296,34028,2,0,P|471:251|463:207,1,90,8|8,0:0|0:1,0:0:0:0:
404,140,34659,2,0,P|359:132|315:140,1,90,0|8,0:0|0:1,0:0:0:0:
260,211,35291,6,0,P|226:293|146:328,2,180,8|8|8,0:0|0:0|0:0,0:0:0:0:
208,140,36870,1,8,0:1:0:0:
119,151,37186,2,0,P|102:110|104:66,1,90,0|8,0:0|0:1,0:0:0:0:
192,48,37817,6,0,L|288:36,1,90,12|8,0:0|0:1,0:0:0:0:
372,40,38449,2,0,P|387:81|375:131,1,90,8|8,0:0|0:1,0:0:0:0:
320,192,39080,2,0,P|304:233|316:283,1,90,8|8,0:0|0:1,0:0:0:0:
364,352,39712,2,0,L|453:363,1,90,0|8,0:0|0:1,0:0:0:0:
487,280,40343,6,0,P|482:191|433:117,2,180,8|8|8,0:3|0:3|0:3,0:0:0:0:
400,264,41922,1,8,0:1:0:0:
316,300,42238,1,8,0:0:0:0:
236,260,42554,1,8,0:1:0:0:
152,292,42870,6,0,P|97:225|127:144,1,180,12|8,0:0|0:3,0:0:0:0:
212,108,43817,1,0,0:0:0:0:
300,100,44133,2,0,B|340:144|340:144|340:204|340:204|380:251,1,180,0|8,0:0|0:3,0:0:0:0:
468,236,45080,1,0,0:0:0:0:
492,148,45396,6,0,P|464:66|379:60,1,180,4|8,0:0|0:3,0:0:0:0:
300,100,46343,1,0,0:0:0:0:
212,76,46659,2,0,B|172:120|172:120|172:172|172:172|131:227,1,180,0|8,0:0|0:3,0:0:0:0:
180,304,47607,1,8,0:0:0:0:
268,284,47922,6,0,L|456:248,2,180,12|6|6,0:0|0:0|0:0,0:0:0:0:
180,304,49501,1,4,0:0:0:0:
256,192,50291,12,8,51712,0:3:0:0:
380,196,52975,6,0,P|341:220|297:225,1,90,12|8,0:0|0:1,0:0:0:0:
208,216,53607,2,0,L|236:112,1,90,8|8,0:0|0:1,0:0:0:0:
144,104,54238,2,0,L|108:237,2,135,8|8|8,0:0|0:0|0:3,0:0:0:0:
196,36,55501,6,0,P|238:50|282:45,1,90,12|8,0:0|0:1,0:0:0:0:
372,28,56133,2,0,P|386:70|381:114,1,90,8|8,0:0|0:1,0:0:0:0:
324,184,56764,2,0,P|309:226|314:270,1,90,8|8,0:0|0:1,0:0:0:0:
260,344,57396,2,0,P|215:349|173:334,1,90,8|8,0:1|0:1,0:0:0:0:
104,280,58028,6,0,L|120:124,1,135,12|8,0:0|0:0,0:0:0:0:
152,63,58817,2,0,P|173:58|195:59,1,45,10|10,0:1|0:1,0:0:0:0:
280,88,59291,2,0,L|315:240,1,135,12|8,0:0|0:0,0:0:0:0:
303,308,60080,2,0,P|284:320|262:326,1,45,10|10,0:1|0:1,0:0:0:0:
171,344,60554,6,0,P|127:346|84:328,1,90,12|8,0:0|0:0,0:0:0:0:
71,240,61186,2,0,P|88:175|135:127,1,135,8|12,0:0|0:0,0:0:0:0:
220,96,61975,2,0,L|316:104,1,90,0|8,0:0|0:3,0:0:0:0:
296,148,62449,2,0,L|392:156,1,90,8|8,0:1|0:1,0:0:0:0:
424,228,63080,6,0,P|425:272|412:315,1,90,12|8,0:0|0:1,0:0:0:0:
321,315,63712,2,0,P|309:272|310:227,1,90,8|8,0:0|0:1,0:0:0:0:
224,204,64343,2,0,L|220:340,2,135,8|8|8,0:0|0:0|0:3,0:0:0:0:
164,136,65607,6,0,P|119:134|76:147,1,90,12|8,0:0|0:1,0:0:0:0:
8,208,66238,2,0,P|6:252|19:295,1,90,8|8,0:0|0:1,0:0:0:0:
100,340,66870,2,0,P|144:341|187:328,1,90,8|8,0:0|0:1,0:0:0:0:
272,296,67501,2,0,P|314:283|359:284,1,90,8|8,0:3|0:3,0:0:0:0:
436,236,68133,6,0,P|451:148|415:67,2,180,8|8|8,0:3|0:3|0:3,0:0:0:0:
359,284,69712,1,8,0:1:0:0:
275,320,70028,2,0,P|232:325|194:302,1,90,2|12,0:0|0:1,0:0:0:0:
152,224,70659,6,0,L|164:40,2,180,12|10|10,0:0|0:0|0:1,0:0:0:0:
464,180,73028,6,0,P|402:201|348:165,1,135,12|8,0:0|0:1,0:0:0:0:
256,160,73817,2,0,L|280:260,1,90,8|8,0:0|0:1,0:0:0:0:
252,336,74449,1,8,0:0:0:0:
164,356,74764,1,8,0:1:0:0:
92,304,75080,2,0,L|113:216,1,90,0|8,0:0|0:1,0:0:0:0:
104,172,75554,6,0,P|115:108|177:88,1,135,12|8,0:0|0:1,0:0:0:0:
256,132,76343,2,0,P|299:142|342:131,1,90,8|8,0:0|0:1,0:0:0:0:
432,124,76975,2,0,L|424:264,1,135,8|8,0:0|0:0,0:0:0:0:
364,324,77764,1,8,0:1:0:0:
280,352,78080,6,0,P|214:358|160:320,1,135,12|8,0:0|0:1,0:0:0:0:
112,244,78870,2,0,L|96:132,1,90,8|8,0:0|0:1,0:0:0:0:
132,72,79501,1,8,0:0:0:0:
220,88,79817,1,8,0:1:0:0:
299,52,80133,2,0,P|342:37|385:48,1,90,0|8,0:0|0:1,0:0:0:0:
416,83,80607,6,0,P|403:150|406:217,1,135,12|8,0:0|0:1,0:0:0:0:
395,308,81396,2,0,P|348:317|307:298,1,90,8|8,0:0|0:1,0:0:0:0:
268,220,82028,2,0,P|226:204|183:213,1,90,8|8,0:0|0:1,0:0:0:0:
108,260,82659,1,4,0:3:0:0:
100,80,83291,6,0,P|188:67|272:96,1,180,10|10,0:1|0:1,0:0:0:0:
248,276,84554,2,0,P|159:288|75:259,1,180,10|8,0:1|0:0,0:0:0:0:
236,176,85817,6,0,B|299:187|299:187|342:219|342:219|403:229,1,180,10|10,0:1|0:1,0:0:0:0:
277,96,87080,6,0,P|150:150|228:265,1,315,4|4,0:0|0:0,0:0:0:0:
