osu file format v14

[General]
AudioFilename: audio.mp3
AudioLeadIn: 0
PreviewTime: 52657
Countdown: 0
SampleSet: Soft
StackLeniency: 0.3
Mode: 0
LetterboxInBreaks: 0
WidescreenStoryboard: 0

[Editor]
Bookmarks: 2526,12473,22736,32841,42947,53052,63157,70736,73105
DistanceSpacing: 1.2
BeatDivisor: 4
GridSize: 32
TimelineZoom: 2.699999

[Metadata]
Title:Chochocho! Yuru Yuri*Capriccio!!!
TitleUnicode:ちょちょちょ!ゆるゆり☆かぷりっちょ!!!
Artist:Nanamori-chu*Gorakubu
ArtistUnicode:七森中☆ごらく部
Creator:pkhg
Version:hai~!
Source:ゆるゆり さん☆ハイ!
Tags:irohas mugiwarasekai hazu- iyiyo lasse yuru yuri san hai yryr season 3 opening tv size akaza akari mikami shiori toshinou kyouko ootsubo yuka funami yui tsuda minami yoshikawa chinatsu ookubo rumi Nanamori chu Gorakubu
BeatmapID:1130699
BeatmapSetID:533707

[Difficulty]
HPDrainRate:7
CircleSize:4
OverallDifficulty:8.6
ApproachRate:9.3
SliderMultiplier:1.8
SliderTickRate:1

[Events]
//Background and Video events
Video,60,"sanhai.avi"
0,0,"yeeeeeeeeeeeeeeeeeeee.jpg",0,0
//Break Periods
//Storyboard Layer 0 (Background)
//Storyboard Layer 1 (Fail)
//Storyboard Layer 2 (Pass)
//Storyboard Layer 3 (Foreground)
//Storyboard Sound Samples

[TimingPoints]
1186,315.789473684211,4,2,1,5,1,0
1817,-100,4,2,1,55,0,0
12396,-100,4,2,1,55,0,0
22659,-125,4,2,1,45,0,0
30554,-125,4,2,1,45,0,0
32764,-111.111111111111,4,2,1,55,0,0
42870,-125,4,2,1,45,0,0
49817,-125,4,2,1,45,0,0
50763,-125,4,2,1,45,0,0
51079,-125,4,2,1,55,0,0
51395,-125,4,2,1,65,0,0
51712,-125,4,2,1,65,0,0
52975,-100,4,2,1,75,0,1
71922,-100,4,2,1,75,0,1
73028,-100,4,2,1,65,0,0
83291,-100,4,2,1,65,0,0

[Colours]
Combo1 : 255,164,209
Combo2 : 244,64,91
Combo3 : 251,248,102
Combo4 : 100,61,60

[HitObjects]
256,192,554,12,0,1659,0:0:0:0:
295,131,1817,5,8,0:0:0:0:
269,94,1896,1,8,0:0:0:0:
228,76,1975,1,8,0:0:0:0:
184,81,2054,1,8,0:0:0:0:
149,108,2132,1,2,1:3:0:0:
149,108,2448,6,0,L|142:181,3,60,10|2|2|10,0:1|0:1|0:1|0:1,0:0:0:0:
236,326,3080,2,0,L|291:301,3,60,10|2|2|10,0:1|0:1|0:1|0:1,0:0:0:0:
382,141,3712,2,0,L|333:106,3,60,10|2|2|10,0:1|0:1|0:1|0:1,0:0:0:0:
120,192,4343,5,8,0:0:0:0:
385,199,4501,1,8,0:0:0:0:
385,199,4580,1,8,0:0:0:0:
385,199,4659,1,8,0:1:0:0:
135,289,4975,6,0,L|126:229,3,60,10|2|2|10,0:1|0:1|0:1|0:1,0:0:0:0:
377,95,5607,2,0,L|385:154,3,60,10|2|2|10,0:1|0:1|0:1|0:1,0:0:0:0:
223,334,6238,6,0,L|124:324,1,90,4|0,0:0|0:0,0:0:0:0:
35,300,6475,2,0,L|134:290,1,90,4|0,0:0|0:0,0:0:0:0:
267,337,6712,2,0,L|223:334,1,45,2|0,0:0|0:0,0:0:0:0:
124,290,6870,6,0,L|134:191,1,90,4|0,0:0|0:0,0:0:0:0:
158,102,7107,2,0,L|168:201,1,90,4|0,0:0|0:0,0:0:0:0:
120,334,7343,2,0,L|124:290,1,45,2|0,0:0|0:0,0:0:0:0:
244,133,7501,5,10,0:1:0:0:
289,126,7606,1,2,0:0:0:0:
333,119,7711,1,2,0:0:0:0:
378,112,7816,1,10,0:1:0:0:
210,231,8133,5,10,0:1:0:0:
182,196,8238,1,2,0:1:0:0:
154,161,8343,1,2,0:1:0:0:
125,126,8448,1,10,0:1:0:0:
313,211,8764,5,10,0:1:0:0:
296,253,8869,1,2,0:1:0:0:
280,295,8974,1,2,0:1:0:0:
264,337,9079,1,10,0:1:0:0:
256,68,9396,5,8,0:0:0:0:
263,309,9554,1,8,0:0:0:0:
263,309,9633,1,8,0:0:0:0:
263,309,9712,1,8,0:1:0:0:
184,134,10028,5,10,0:1:0:0:
139,127,10133,1,2,0:1:0:0:
95,120,10238,1,2,0:1:0:0:
50,113,10343,1,10,0:1:0:0:
328,250,10659,5,10,0:1:0:0:
373,243,10764,1,2,0:1:0:0:
417,236,10869,1,2,0:1:0:0:
462,229,10974,1,10,0:1:0:0:
162,139,11291,6,0,L|251:125,1,90,4|0,0:0|0:0,0:0:0:0:
350,99,11528,2,0,L|261:85,1,90,4|0,0:0|0:0,0:0:0:0:
118,146,11764,2,0,L|162:139,1,45,2|0,0:0|0:0,0:0:0:0:
350,99,11922,1,4,0:0:0:0:
350,99,12396,6,0,P|406:163|378:244,1,180,4|8,0:0|0:0,0:0:0:0:
234,169,12870,2,0,P|278:170|323:179,1,90,8|0,0:1|0:0,0:0:0:0:
466,265,13186,1,8,0:0:0:0:
317,314,13343,1,8,0:0:0:0:
474,252,13501,2,0,P|482:207|484:162,1,90,8|0,0:1|0:0,0:0:0:0:
283,145,13817,5,8,0:0:0:0:
403,191,13975,1,8,0:0:0:0:
311,61,14133,1,8,0:1:0:0:
418,199,14291,1,8,0:0:0:0:
245,225,14449,1,0,0:0:0:0:
406,104,14606,1,8,0:0:0:0:
339,262,14764,1,8,0:1:0:0:
232,124,14922,6,0,B|195:99|147:122|147:122|97:148|60:124,1,180,12|8,0:0|0:0,0:0:0:0:
191,196,15396,1,8,0:1:0:0:
101,55,15554,1,0,0:0:0:0:
201,213,15712,1,8,0:0:0:0:
186,21,15870,1,8,0:0:0:0:
48,138,16028,2,0,P|50:182|58:227,1,90,8|0,0:1|0:0,0:0:0:0:
252,288,16343,5,8,0:0:0:0:
142,174,16501,1,8,0:0:0:0:
109,328,16659,1,8,0:1:0:0:
242,190,16817,2,0,P|286:182|331:179,1,90,8|0,0:0|0:0,0:0:0:0:
190,365,17133,2,0,P|182:320|179:275,1,90,8|0,0:1|0:0,0:0:0:0:
358,99,17449,6,0,P|414:163|386:244,1,180,12|8,0:0|0:0,0:0:0:0:
198,216,17922,1,8,0:1:0:0:
228,71,18080,1,0,0:0:0:0:
331,178,18238,1,8,0:0:0:0:
151,129,18396,1,8,0:0:0:0:
313,12,18554,2,0,P|320:56|323:101,1,90,8|0,0:1|0:0,0:0:0:0:
179,275,18870,5,8,0:0:0:0:
315,345,19028,1,8,0:0:0:0:
209,187,19186,2,0,P|164:189|119:197,1,90,8|8,0:1|0:0,0:0:0:0:
308,221,19501,1,0,0:0:0:0:
223,354,19659,1,8,0:0:0:0:
373,278,19817,1,8,0:1:0:0:
179,275,19975,6,0,P|169:188|163:89,1,180,12|8,0:0|0:0,0:0:0:0:
380,89,20449,1,8,0:1:0:0:
254,141,20607,1,0,0:0:0:0:
121,2,20764,1,8,0:0:0:0:
249,50,20922,1,8,0:0:0:0:
85,146,21080,1,8,0:1:0:0:
264,41,21238,1,0,0:0:0:0:
179,275,21396,5,14,0:1:0:0:
56,64,21554,1,10,0:0:0:0:
439,186,21870,1,10,0:1:0:0:
0,293,22186,1,10,0:1:0:0:
167,23,22501,5,2,0:0:0:0:
254,141,22659,2,0,P|259:176|262:212,1,72,12|0,0:0|0:0,0:0:0:0:
230,291,22896,1,0,0:0:0:0:
230,291,22975,1,8,0:1:0:0:
340,187,23133,1,0,0:0:0:0:
168,121,23291,2,0,P|132:123|96:129,1,72,8|8,0:0|0:0,0:3:0:0:
307,65,23607,2,0,P|342:67|378:73,1,72,8|0,0:1|0:3,0:3:0:0:
493,184,23922,5,8,0:0:0:0:
373,296,24080,1,8,0:0:0:0:
373,296,24159,1,0,0:0:0:0:
373,296,24238,1,8,0:1:0:0:
413,159,24396,1,8,0:0:0:0:
413,159,24475,1,0,0:0:0:0:
413,159,24554,1,0,0:0:0:0:
471,304,24712,1,8,0:0:0:0:
327,206,24870,2,0,P|291:208|255:214,1,72,8|0,0:1|0:0,0:0:0:0:
113,322,25186,5,8,0:0:0:0:
254,249,25343,1,0,0:0:0:0:
84,213,25501,1,8,0:1:0:0:
278,247,25659,1,0,0:0:0:0:
92,332,25817,1,8,0:0:0:0:
172,154,25975,2,0,P|177:189|180:225,1,72,8|8,0:0|0:1,0:0:0:0:
142,356,26291,5,0,0:0:0:0:
278,247,26449,1,8,0:0:0:0:
102,202,26607,2,0,P|97:237|94:273,1,72,8|8,0:0|0:1,0:0:0:0:
228,376,26922,1,8,0:1:0:0:
349,238,27080,2,0,P|313:241|278:247,1,72,0|8,0:0|0:0,0:0:0:0:
140,124,27396,2,0,P|175:126|211:132,1,72,8|8,0:1|0:1,0:0:0:0:
374,248,27712,5,4,0:0:0:0:
219,300,27870,1,0,0:0:0:0:
219,300,27949,1,0,0:0:0:0:
219,300,28028,1,8,0:1:0:0:
330,166,28186,1,0,0:0:0:0:
330,166,28265,1,0,0:0:0:0:
330,166,28343,2,0,P|365:160|401:157,1,72,8|8,0:0|0:0,0:0:0:0:
219,300,28659,2,0,P|183:297|147:291,1,72,8|0,0:1|0:0,0:0:0:0:
57,117,28975,5,8,0:0:0:0:
200,209,29133,1,8,0:0:0:0:
200,209,29212,1,0,0:0:0:0:
200,209,29291,1,8,0:1:0:0:
46,282,29449,1,8,0:1:0:0:
151,122,29607,1,0,0:0:0:0:
0,193,29764,1,8,0:0:0:0:
148,295,29922,1,8,0:1:0:0:
57,117,30080,1,0,0:0:0:0:
163,316,30238,5,8,0:3:0:0:
0,193,30396,1,8,0:3:0:0:
244,126,30554,1,8,0:1:0:0:
244,126,30870,5,8,0:3:0:0:
163,316,31028,1,8,0:3:0:0:
105,69,31186,1,8,0:1:0:0:
105,69,31501,5,8,0:3:0:0:
244,126,31659,1,8,0:3:0:0:
74,210,31817,1,10,0:1:0:0:
256,123,31975,1,8,0:0:0:0:
214,303,32133,1,10,0:1:0:0:
160,139,32291,1,8,0:0:0:0:
73,303,32449,1,8,0:1:0:0:
73,303,32528,1,8,0:1:0:0:
73,303,32607,1,8,0:0:0:0:
244,198,32764,5,12,0:0:0:0:
193,368,32922,1,0,0:0:0:0:
193,368,33001,1,0,0:0:0:0:
193,368,33080,1,8,0:1:0:0:
80,265,33238,1,0,0:0:0:0:
259,300,33396,2,0,L|359:288,1,80.9999975280763,8|8,0:0|0:0,0:0:0:0:
131,185,33712,2,0,L|50:175,1,80.9999975280763,8|0,0:1|0:0,0:0:0:0:
269,120,34028,5,8,0:0:0:0:
357,269,34186,1,8,0:0:0:0:
195,196,34343,1,8,0:1:0:0:
377,157,34501,1,8,0:0:0:0:
377,157,34580,1,0,0:0:0:0:
377,157,34659,1,0,0:0:0:0:
243,292,34817,1,8,0:0:0:0:
381,162,34975,2,0,L|481:150,1,80.9999975280763,8|0,0:1|0:0,0:0:0:0:
248,105,35291,5,8,0:0:0:0:
145,212,35449,1,0,0:0:0:0:
292,235,35607,1,8,0:1:0:0:
129,218,35764,1,0,0:0:0:0:
300,161,35922,1,8,0:0:0:0:
168,54,36080,2,0,P|160:94|159:135,1,80.9999975280763,8|8,0:0|0:1,0:0:0:0:
259,300,36396,5,0,0:0:0:0:
300,161,36554,1,8,0:0:0:0:
171,271,36712,2,0,P|172:311|180:351,1,80.9999975280763,8|8,0:0|0:1,0:0:0:0:
328,267,37028,1,8,0:0:0:0:
199,184,37186,2,0,P|158:186|118:194,1,80.9999975280763,0|8,0:0|0:0,0:0:0:0:
335,113,37501,2,0,P|375:115|415:123,1,80.9999975280763,8|8,0:1|0:1,0:0:0:0:
262,227,37817,5,12,0:0:0:0:
149,111,37975,1,0,0:0:0:0:
273,238,38133,1,8,0:1:0:0:
238,58,38291,1,0,0:0:0:0:
163,211,38449,2,0,P|123:209|83:201,1,80.9999975280763,8|8,0:0|0:0,0:0:0:0:
317,129,38764,2,0,P|356:121|397:118,1,80.9999975280763,8|0,0:1|0:0,0:0:0:0:
283,247,39080,5,8,0:0:0:0:
148,217,39238,1,8,0:0:0:0:
262,347,39396,1,8,0:1:0:0:
397,317,39554,1,8,0:0:0:0:
207,284,39712,1,0,0:0:0:0:
317,157,39870,2,0,P|324:196|326:237,1,80.9999975280763,8|8,0:0|0:1,0:0:0:0:
262,347,40186,1,0,0:0:0:0:
148,217,40343,5,8,0:3:0:0:
333,147,40501,1,8,0:3:0:0:
94,101,40659,1,8,0:1:0:0:
94,101,40975,5,8,0:3:0:0:
137,293,41133,1,8,0:3:0:0:
216,63,41291,1,8,0:1:0:0:
216,63,41607,5,8,0:3:0:0:
74,209,41764,1,8,0:3:0:0:
274,173,41922,1,8,0:1:0:0:
92,84,42080,1,8,0:0:0:0:
188,265,42238,1,8,0:0:0:0:
188,265,42317,1,8,0:0:0:0:
188,265,42396,1,8,0:3:0:0:
216,63,42554,1,8,0:1:0:0:
74,209,42712,1,4,0:3:0:0:
274,172,42870,6,0,P|309:174|344:182,1,72,12|0,0:0|0:0,0:0:0:0:
442,280,43186,2,0,P|446:203|450:137,1,144,0|8,0:0|0:3,0:0:0:0:
355,21,43659,2,0,P|355:56|362:91,1,72
449,208,43975,6,0,P|448:244|442:280,1,72,8|0,0:0|0:0,0:0:0:0:
323,363,44291,1,8,0:0:0:0:
370,237,44449,1,0,0:0:0:0:
427,358,44607,1,8,0:0:0:0:
268,288,44764,1,8,0:3:0:0:
268,288,45080,2,0,L|197:281,1,72
136,343,45317,1,0,0:0:0:0:
111,324,45396,6,0,P|104:288|103:252,1,72,4|0,0:0|0:0,0:0:0:0:
204,136,45712,2,0,P|200:208|196:280,1,144,0|8,0:0|0:3,0:0:0:0:
31,259,46186,2,0,P|67:252|103:252,1,72
225,303,46501,6,0,P|260:309|296:310,1,72,8|0,0:0|0:0,0:0:0:0:
388,212,46817,1,8,0:0:0:0:
483,313,46975,2,0,P|489:348|490:384,1,72,0|8,0:0|0:0,0:0:0:0:
296,310,47291,2,0,P|296:274|303:238,1,72,8|0,0:3|0:0,0:0:0:0:
381,122,47607,1,8,0:0:0:0:
437,240,47764,1,8,0:1:0:0:
251,116,47922,5,12,0:0:0:0:
135,341,48159,1,2,0:0:0:0:
251,116,48396,1,2,0:0:0:0:
47,266,48554,5,6,0:0:0:0:
296,310,48791,1,2,0:0:0:0:
47,266,49028,1,2,0:0:0:0:
319,179,49186,5,6,0:0:0:0:
319,179,49501,2,0,P|372:166|425:174,1,108,4|0,0:0|0:0,0:0:0:0:
497,228,49817,1,10,0:1:0:0:
241,119,49975,1,10,0:1:0:0:
241,119,50291,6,0,P|174:98|118:139,1,144,12|8,0:0|0:1,0:0:0:0:
194,299,50764,1,8,0:1:0:0:
241,119,50922,1,8,0:1:0:0:
198,328,51080,1,8,0:1:0:0:
118,139,51238,1,8,0:1:0:0:
305,228,51396,1,8,0:1:0:0:
79,280,51554,1,8,0:1:0:0:
269,154,51712,5,8,0:3:0:0:
303,143,51790,1,0,0:0:0:0:
338,149,51869,1,0,0:0:0:0:
366,171,51948,1,0,0:0:0:0:
385,201,52028,1,8,0:3:0:0:
389,235,52107,1,0,0:0:0:0:
376,269,52186,1,0,0:0:0:0:
349,292,52264,1,0,0:0:0:0:
310,294,52343,5,8,0:3:0:0:
351,322,52421,1,8,0:0:0:0:
403,326,52500,1,8,0:0:0:0:
448,302,52579,1,8,0:0:0:0:
475,258,52658,1,8,0:3:0:0:
289,384,52817,1,0,0:0:0:0:
385,201,52975,6,0,P|382:156|374:111,1,90,12|0,0:0|0:0,0:0:0:0:
215,1,53291,2,0,P|207:45|204:90,1,90,8|0,0:1|0:0,0:0:0:0:
221,253,53607,1,8,0:0:0:0:
339,181,53765,1,8,0:0:0:0:
212,105,53923,1,8,0:1:0:0:
369,181,54080,1,0,0:0:0:0:
190,73,54238,6,0,P|145:75|100:83,1,90,8|8,0:0|0:0,0:0:0:0:
313,103,54554,1,8,0:1:0:0:
166,246,54712,2,0,P|158:201|156:156,1,90,8|0,0:0|0:0,0:0:0:0:
237,16,55028,1,8,0:3:0:0:
244,175,55186,1,8,0:3:0:0:
100,82,55343,1,0,0:0:0:0:
268,189,55501,6,0,P|313:187|358:179,1,90,12|0,0:0|0:0,0:0:0:0:
512,301,55817,2,0,P|467:293|422:291,1,90,8|0,0:1|0:0,0:0:0:0:
343,336,56054,1,0,0:0:0:0:
343,336,56133,1,8,0:0:0:0:
454,199,56291,1,8,0:0:0:0:
272,144,56449,2,0,P|263:188|260:233,1,90,8|0,0:1|0:0,0:0:0:0:
396,370,56764,6,0,P|393:325|383:281,1,90,8|8,0:0|0:0,0:0:0:0:
168,193,57080,2,0,P|158:237|155:281,1,90,8|8,0:1|0:0,0:0:0:0:
351,198,57396,2,0,P|348:153|338:109,1,90,8|8,0:1|0:0,0:0:0:0:
123,21,57712,2,0,P|113:65|110:109,1,90,8|8,0:1|0:0,0:0:0:0:
249,252,58028,5,12,0:0:0:0:
213,93,58186,1,0,0:0:0:0:
213,93,58264,1,0,0:0:0:0:
213,93,58343,1,8,0:1:0:0:
36,168,58501,2,0,P|91:203|156:190,1,135,8|0,0:0|0:0,0:0:0:0:
213,93,58817,1,10,0:1:0:0:
151,299,58975,1,10,0:1:0:0:
36,168,59133,1,0,0:0:0:0:
249,252,59291,5,12,0:0:0:0:
59,263,59449,1,0,0:0:0:0:
59,263,59527,1,0,0:0:0:0:
59,263,59606,1,8,0:1:0:0:
200,174,59764,2,0,P|264:160|320:195,1,135,8|0,0:0|0:0,0:0:0:0:
329,287,60080,1,10,0:1:0:0:
275,78,60238,1,10,0:1:0:0:
417,181,60396,1,0,0:0:0:0:
200,174,60554,5,12,0:0:0:0:
329,287,60712,1,0,0:0:0:0:
189,161,60870,1,8,0:1:0:0:
234,345,61028,1,0,0:0:0:0:
314,166,61186,1,8,0:0:0:0:
180,260,61343,1,8,0:0:0:0:
337,377,61501,1,8,0:1:0:0:
230,183,61659,5,12,0:0:0:0:
233,138,61738,1,0,0:0:0:0:
258,101,61817,1,8,0:1:0:0:
298,82,61895,1,0,0:0:0:0:
342,86,61974,1,8,0:3:0:0:
379,111,62053,1,0,0:0:0:0:
398,151,62132,1,8,0:1:0:0:
394,195,62212,1,0,0:0:0:0:
368,231,62291,1,8,0:3:0:0:
328,250,62370,1,0,0:0:0:0:
284,247,62449,6,0,L|227:240,1,45,8|0,0:1|0:0,0:0:0:0:
139,171,62607,2,0,L|196:178,1,45,8|0,0:1|0:0,0:0:0:0:
312,171,62764,2,0,L|255:164,1,45,8|0,0:1|0:0,0:0:0:0:
167,95,62922,2,0,L|224:102,1,45,8|0,0:1|0:0,0:0:0:0:
312,171,63080,6,0,P|356:168|401:160,1,90,12|0,0:0|0:0,0:0:0:0:
167,95,63396,2,0,P|122:97|77:105,1,90,8|0,0:1|0:0,0:0:0:0:
0,154,63633,1,0,0:0:0:0:
0,154,63712,1,8,0:0:0:0:
111,16,63870,1,8,0:0:0:0:
247,154,64028,2,0,P|256:110|259:65,1,90,8|0,0:1|0:0,0:0:0:0:
79,204,64343,6,0,P|81:248|91:292,1,90,8|8,0:0|0:0,0:0:0:0:
209,384,64659,1,8,0:1:0:0:
267,223,64817,2,0,P|222:225|177:233,1,90,8|0,0:0|0:0,0:0:0:0:
77,353,65133,1,8,0:3:0:0:
208,309,65291,1,8,0:3:0:0:
101,206,65449,1,0,0:0:0:0:
240,328,65607,6,0,P|284:326|329:318,1,90,12|0,0:0|0:0,0:0:0:0:
504,204,65922,2,0,P|459:196|414:194,1,90,8|0,0:1|0:0,0:0:0:0:
338,231,66159,1,0,0:0:0:0:
338,231,66238,1,8,0:0:0:0:
445,353,66396,1,8,0:0:0:0:
262,290,66554,2,0,P|252:246|249:201,1,90,8|0,0:1|0:0,0:0:0:0:
426,105,66870,6,0,P|423:150|414:194,1,90,8|8,0:0|0:0,0:0:0:0:
172,258,67186,2,0,P|162:214|159:169,1,90,8|8,0:1|0:0,0:0:0:0:
389,151,67501,1,8,0:3:0:0:
370,191,67580,1,0,0:0:0:0:
333,216,67659,1,8,0:3:0:0:
289,220,67738,1,0,0:0:0:0:
249,201,67816,1,8,0:3:0:0:
273,38,67975,1,0,0:0:0:0:
389,151,68133,5,8,0:3:0:0:
176,108,68291,1,8,0:3:0:0:
399,38,68449,1,4,0:0:0:0:
399,38,68764,5,8,0:3:0:0:
357,250,68922,1,8,0:3:0:0:
273,38,69080,1,4,0:0:0:0:
273,38,69396,5,8,0:3:0:0:
488,107,69554,1,8,0:3:0:0:
289,220,69712,1,8,0:1:0:0:
374,18,69870,1,8,0:3:0:0:
459,231,70028,6,0,P|467:275|470:319,1,90,2|8,0:0|0:3,0:0:0:0:
183,252,70343,2,0,P|185:207|194:163,1,90,12|0,0:1|0:0,0:0:0:0:
417,197,70658,5,12,0:0:0:0:
393,234,70738,1,0,0:0:0:0:
354,255,70817,1,8,0:0:0:0:
310,255,70896,1,0,0:0:0:0:
272,232,70974,1,8,0:0:0:0:
247,193,71054,1,0,0:0:0:0:
208,172,71133,1,8,0:0:0:0:
164,172,71212,1,0,0:0:0:0:
126,195,71291,6,0,L|119:257,1,45,12|4,0:0|0:0,0:0:0:0:
206,319,71449,2,0,L|213:257,1,45,8|0,0:0|0:0,0:0:0:0:
199,118,71607,2,0,L|192:180,1,45,4|0,0:3|0:0,0:0:0:0:
279,242,71764,2,0,L|286:180,1,45,4|0,0:3|0:0,0:0:0:0:
276,48,71922,5,10,0:1:0:0:
118,266,72080,1,10,0:1:0:0:
374,183,72238,1,10,0:1:0:0:
118,99,72396,1,10,0:1:0:0:
276,316,72554,1,10,0:1:0:0:
242,175,72712,1,0,0:0:0:0:
242,175,72791,1,0,0:0:0:0:
242,175,72870,1,8,0:1:0:0:
36,294,73028,6,0,P|100:350|181:321,1,180,12|8,0:0|0:0,0:0:0:0:
107,176,73501,2,0,P|110:221|118:266,1,90,8|0,0:1|0:0,0:0:0:0:
262,347,73817,1,8,0:0:0:0:
190,215,73974,1,8,0:0:0:0:
351,336,74133,2,0,P|306:344|262:347,1,90,8|0,0:1|0:0,0:0:0:0:
106,220,74449,5,8,0:0:0:0:
266,264,74607,1,8,0:0:0:0:
138,130,74764,2,0,P|93:132|48:140,1,90,8|8,0:1|0:0,0:0:0:0:
173,291,75080,1,0,0:0:0:0:
278,169,75238,1,8,0:0:0:0:
106,220,75396,1,8,0:1:0:0:
240,94,75554,6,0,B|276:70|326:96|326:96|374:119|411:94,1,180,12|8,0:0|0:0,0:0:0:0:
288,258,76028,2,0,P|280:213|278:169,1,90,8|0,0:1|0:0,0:0:0:0:
368,24,76343,1,8,0:0:0:0:
240,94,76501,1,8,0:0:0:0:
369,201,76659,1,8,0:1:0:0:
224,88,76817,1,0,0:0:0:0:
445,146,76975,6,0,P|452:190|455:235,1,90,8|8,0:0|0:0,0:0:0:0:
349,341,77291,1,8,0:1:0:0:
249,169,77449,2,0,P|293:171|338:179,1,90,8|0,0:0|0:0,0:0:0:0:
512,311,77764,2,0,P|467:319|423:322,1,90,8|0,0:1|0:1,0:0:0:0:
224,88,78080,6,0,P|167:152|195:234,1,180,12|8,0:0|0:0,0:0:0:0:
338,158,78554,2,0,P|293:161|249:169,1,90,8|0,0:1|0:0,0:0:0:0:
167,315,78870,1,8,0:0:0:0:
306,248,79028,1,8,0:0:0:0:
167,113,79186,2,0,P|159:158|156:202,1,90,8|0,0:1|0:0,0:0:0:0:
265,338,79501,5,8,0:0:0:0:
248,169,79659,1,8,0:0:0:0:
95,278,79817,2,0,P|139:286|184:289,1,90,8|8,0:1|0:0,0:0:0:0:
322,192,80133,1,0,0:0:0:0:
346,333,80291,1,8,0:0:0:0:
198,289,80449,1,8,0:1:0:0:
344,112,80607,6,0,P|401:176|373:258,1,180,12|8,0:0|0:0,0:0:0:0:
180,151,81080,1,8,0:1:0:0:
322,192,81238,1,0,0:0:0:0:
290,36,81396,1,8,0:0:0:0:
337,208,81554,1,8,0:0:0:0:
199,57,81712,1,8,0:1:0:0:
239,229,81870,1,0,0:0:0:0:
379,103,82028,6,0,P|423:105|468:114,1,90,8|8,0:0|0:0,0:0:0:0:
267,133,82343,1,8,0:1:0:0:
381,11,82501,1,8,0:0:0:0:
400,202,82659,1,4,0:3:0:0:
292,37,82817,1,8,0:0:0:0:
292,37,82896,1,8,0:0:0:0:
292,37,82975,1,8,0:3:0:0:
384,179,83133,1,8,0:0:0:0:
197,141,83291,5,10,0:1:0:0:
146,133,83396,1,2,0:1:0:0:
95,125,83501,1,2,0:1:0:0:
44,117,83606,1,10,0:1:0:0:
315,189,83922,5,10,0:1:0:0:
366,181,84027,1,2,0:1:0:0:
417,173,84132,1,2,0:1:0:0:
468,165,84237,1,10,0:1:0:0:
209,268,84554,5,10,0:1:0:0:
158,260,84659,1,2,0:1:0:0:
107,252,84764,1,2,0:1:0:0:
56,244,84869,1,10,0:1:0:0:
332,287,85186,5,8,0:0:0:0:
173,90,85343,1,8,0:0:0:0:
173,90,85422,1,8,0:0:0:0:
173,90,85501,1,10,0:1:0:0:
332,287,85818,5,10,0:1:0:0:
340,236,85923,1,2,0:1:0:0:
348,185,86028,1,2,0:1:0:0:
356,134,86133,1,10,0:1:0:0:
178,350,86449,5,10,0:1:0:0:
170,299,86554,1,2,0:1:0:0:
162,248,86659,1,2,0:1:0:0:
154,197,86764,1,10,0:1:0:0:
387,73,87080,6,0,P|343:66|288:63,1,90,4|0,0:0|0:0,0:0:0:0:
125,111,87317,2,0,P|168:104|224:101,1,90,4|0,0:0|0:0,0:0:0:0:
336,157,87554,2,0,P|314:154|292:153,1,45,2|0,0:0|0:0,0:0:0:0:
157,216,87712,6,0,P|159:260|166:305,1,90,4|0,0:0|0:0,0:0:0:0:
314,360,87949,2,0,P|320:315|323:270,1,90,4|0,0:0|0:0,0:0:0:0:
257,110,88186,1,4,0:0:0:0:
